Tags
Language
Tags

Riccardo Muti, Chicago Symphony Orchestra & Chorus, Alexey Tikhomirov - Shostakovich: Symphony No.13 'Babi Yar' (2019)

Posted By: ArlegZ
Riccardo Muti, Chicago Symphony Orchestra & Chorus, Alexey Tikhomirov - Shostakovich: Symphony No.13 'Babi Yar' (2019)

Riccardo Muti, Chicago Symphony Orchestra & Chorus, Alexey Tikhomirov - Shostakovich: Symphony No.13 'Babi Yar' (2019)
EAC | FLAC | Image (Cue & Log) ~ 284 Mb | Total time: 68:30 | Scans included
Classical | Label: CSO Resound | CSOR9011901 | Recorded: 2018

Riccardo Muti leads the Chicago Symphony Orchestra, men of the Chicago Symphony Chorus and bass soloist Alexey Tikhomirov in this poignant performance of Shostakovich’s Symphony No. 13, Op. 113 (Babi Yar), recorded live in September 2018.
The ensemble shines throughout - from passages requiring the sheer sonic force of the first movement to the indelible moments provided by single instruments. Muti and musicians expertly navigate the intricacies of the five movements, each set to the poetry of Yevgeny Yevtushenko and expressing themes that were dear to Shostakovich - revolution and war, the individual’s role in society, idealism in the face of easy compromise, prejudice and intolerance. Yevtushenko said, Over people like Shostakovich death has no power. His music will sound as long as humankind exists. . . . When I wrote Babi Yar, there was no monument there. Now there is a monument.

Performer:
Alexey Tikhomirov, bass
Men of the Chicago Symphony Chorus
Chicago Symphony Orchestra
Riccardo Muti, conductor

Track List:
Symphony No. 13 in B flat minor, Op. 113 'Babi Yar'
01. I. Babi Yar. Adagio
02. II. Humor. Allegretto
03. III. In the Store. Adagio
04. IV. Fears. Largo
05. V. Career. Allegretto


Exact Audio Copy V1.5 from 20. February 2020

EAC extraction logfile from 6. November 2020, 22:36

Alexey Tikhomirov, Chicago Symphony Orchestra & Chorus, Riccardo Muti / Shostakovich - Symphony No.13 'Babi Yar'

Used drive : ASUS SDRW-08U7M-U Adapter: 1 ID: 0

Read mode : Secure
Utilize accurate stream : Yes
Defeat audio cache : Yes
Make use of C2 pointers : No

Read offset correction : 6
Overread into Lead-In and Lead-Out : No
Fill up missing offset samples with silence : Yes
Delete leading and trailing silent blocks : No
Null samples used in CRC calculations : Yes
Used interface : Native Win32 interface for Win NT & 2000

Used output format : User Defined Encoder
Selected bitrate : 128 kBit/s
Quality : High
Add ID3 tag : No
Command line compressor : C:\Program Files (x86)\Exact Audio Copy\Flac\flac.exe
Additional command line options : -V -8 -T "Date=%year%" -T "Genre=%genre%" %source%


TOC of the extracted CD

Track | Start | Length | Start sector | End sector
––––––––––––––––––––––––––––-
1 | 0:00.00 | 17:28.39 | 0 | 78638
2 | 17:28.39 | 9:06.66 | 78639 | 119654
3 | 26:35.30 | 13:17.16 | 119655 | 179445
4 | 39:52.46 | 13:54.73 | 179446 | 242068
5 | 53:47.44 | 14:42.73 | 242069 | 308291


Range status and errors

Selected range

Filename C:\temp\Shostakovich - Symphony No.13 - Chicago SO, Muti - 2019\Shostakovich - Symphony No.13.wav

Peak level 93.8 %
Extraction speed 2.0 X
Range quality 100.0 %
Test CRC 868BAE9A
Copy CRC 868BAE9A
Copy OK

No errors occurred


AccurateRip summary

Track 1 not present in database
Track 2 not present in database
Track 3 not present in database
Track 4 not present in database
Track 5 not present in database

None of the tracks are present in the AccurateRip database

End of status report

==== Log checksum 400F6DB744689E697139C83D5557AB4AAC2C39E8F62092D6B20A2C53A6B21163 ====

Riccardo Muti, Chicago Symphony Orchestra & Chorus, Alexey Tikhomirov - Shostakovich: Symphony No.13 'Babi Yar' (2019)

Thanks to the original releaser