Tags
Language
Tags

Riccardo Muti, Orchestra del Teatro alla Scala, June Anderson, Rockwell Blake - Rossini: La donna del lago (2009)

Posted By: ArlegZ
Riccardo Muti, Orchestra del Teatro alla Scala, June Anderson, Rockwell Blake - Rossini: La donna del lago (2009)

Riccardo Muti, Orchestra del Teatro alla Scala, June Anderson, Rockwell Blake - Rossini: La donna del lago (2009)
EAC | FLAC | Image (Cue & Log) ~ 681 Mb | Total time: 77:30+78:55 | Scans included
Classical | Label: DECCA | # 478 0326 | Recorded: 1992

Rossini's La donna del lago ("The Lady of the Lake") is a lush, positively verdant dramatic opera, first performed in 1819, that deserves to be better known. Derived from Sir Walter Scott's famous poem, the story concerns love both unrequited and requited amid rebellious Scottish clans, as the titular lady is wooed by two rivals while her heart is pledged to another. Given Rossini's luxuriant orchestration and emphasis on romance, one can't help feeling that the composer had the hills of Tuscany more in mind than the rugged Scottish highlands. A succession of highly charged scenas contrast with languid melodies, such as Ellen's delightful introductory "Oh mattutini albori", making this a less bloodily melodramatic companion-piece to Donizetti's Scott-inspired Lucia di Lammermoor.
This recording from Milan's La Scala was made at a live performance in 1992, though the fact is hardly evident and certainly not obtrusive (there is very little audience distraction, with applause only at the end of acts). Riccardo Muti conducts a more robust reading than Maurizio Pollini's previous studio recording (on Sony). His soloists–led by June Anderson and Rockwell Blake–tackle the extreme vocal demands of the score with evident gusto, though sometimes with less subtlety than would be evident in the studio. The result is a recording that deserves a strong recommendation on its own merits.
–Mark Walker

Performer:
Giacomo V – Rockwell Blake
Douglas d’Angus – Giorgio Surjan
Rodrigo di Dhu – Chris Merritt
Elena - June Anderson
Malcolm Groeme - Martine Dupuy
Albina – Marilene Laurenza
Serano – Ernesto Gavazzi
Bertram – Ferrero Poggi
Orchestra e Coro del Teatro alla Scala di Milano
Conductor – Riccardo Muti

Track List:
CD1:
01. Atto I. Sinfonia e Introduzione "Del dí la messaggiera" (Pastori, Pastorelle, Cacciatori)
02."Oh mattutini albori!" (Elena)
03."Sull'alta rocca" (Elena, Uberto)
04."Scendi nel piccol legno" (Elena, Uberto)
05."Uberto! ah! dove t'ascondi?" (Cacciatori)
06."Sei già nel tetto mio" (Elena, Uberto)
07."D'inibaca, donzella" (Le compagne, Elena, Uberto)
08."Sei già sposa?" (Uberto, Elena)
09."Quali accenti! - Quai tormenti!" (Uberto, Elena)
10."Ma son sorpreso" (Uberto, Elena, Le compagne)
11."Mura felici" (Malcom)
12."Elena! oh tu, che chiamo!" (Malcom)
13."Oh quante lagrime" (Malcom)
14."Signor, giungi opportuno!" (Serano, Malcom, Douglas, Elena)
15."Taci, lo voglio" (Douglas)
16."E nel fatal conflitto" (Elena, Malcom)
17."Vivere io non potrò" (Elena, Malcom)
18."Qual rapido torrente" (Guerrieri, Rodrigo)
19."Ma dov'è colei, che accende" (Rodrigo, Guerrieri)
20."Se a' miei voti Amor sorride" (Rodrigo, Guerrieri)
21."Alfin mi è dato" (Douglas, Rodrigo)
22."Vieni, o stella" (Guerrieri)
CD2:
01."Quanto a quest'alma amante" (Rodrigo, Douglas, Elena)
02."La mia spada" (Malcom, Elena, Douglas)
03."Questo amplesso, a te sia pegno" (Rodrigo, Malcom, Douglas, Elena)
04."Crudele sospetto" (Rodrigo, Douglas, Elena, Malcom, Albina, Donne, Guerrieri)
05."Sul colle a Morve opposto" (Serano, Donne, Guerrieri, Douglas, Rodrigo, Elena, Malcom)
06."Già un raggio forier" (Bardi, Albina, Donne, Guerrieri, Rodrigo, Elena, Malcom, Serano, Douglas)
07."Su…amici! guerrieri!" (Malcom, Rodrigo, Douglas, Serano, Guerrieri, Bardi, Elena, Albina, Donne)
08. Atto II. "Oh fiamma soave" (Uberto)
09."Va, non temer" (Elena, Serano, Uberto)
10."Alla ragion, deh! rieda" (Elena, Uberto)
11."Nume! se a'miei sospiri" (Elena, Uberto)
12."Qual pena in me già desta" (Elena, Uberto, Rodrigo)
13."Parla…chi sei?" (Rodrigo, Elena, Uberto, Guerrieri)
14."Quante sciagure in un sol giorno" (Albina, Malcom, Serano)
15."Ah! si pera: ormai la morte" (Malcom)
16."Douglas! ti salva!" (Guerrieri, Albina, Serano, Malcom)
17."E tanto osasti?" (Ubert/Il Re, Douglas, Bertram, Elena)
18."Che sento?" (Elena, Il Re)
19."Stelle! Sembra egli stesso!" (Elena, Il Re)
20."Imponga il Re" (Coro)
21."Ah! Che vedo!" (Elena, Il Re, Malcom, Bertram, Grandi, Dame)
22."Tanti affetti in tal momento" (Elena, Tutti gli altri)
23."Fra il padre, e fra l'amante" (Elena, Tutti)


Exact Audio Copy V1.6 from 23. October 2020

EAC extraction logfile from 13. July 2021, 18:39

Riccardo Muti, Orchestra del Teatro alla Scala / Rossini - La donna del lago CD1

Used drive : PIONEER DVD-RW DVR-218L Adapter: 1 ID: 0

Read mode : Secure
Utilize accurate stream : Yes
Defeat audio cache : Yes
Make use of C2 pointers : No

Read offset correction : 6
Overread into Lead-In and Lead-Out : No
Fill up missing offset samples with silence : Yes
Delete leading and trailing silent blocks : No
Null samples used in CRC calculations : Yes
Used interface : Native Win32 interface for Win NT & 2000

Used output format : User Defined Encoder
Selected bitrate : 128 kBit/s
Quality : High
Add ID3 tag : No
Command line compressor : C:\Program Files\Exact Audio Copy\Flac\flac.exe
Additional command line options : -V -8 -T "Date=%year%" -T "Genre=%genre%" %source%


TOC of the extracted CD

Track | Start | Length | Start sector | End sector
––––––––––––––––––––––––––––-
1 | 0:00.33 | 4:50.00 | 33 | 21782
2 | 4:50.33 | 4:19.52 | 21783 | 41259
3 | 9:10.10 | 3:35.73 | 41260 | 57457
4 | 12:46.08 | 3:29.05 | 57458 | 73137
5 | 16:15.13 | 4:02.20 | 73138 | 91307
6 | 20:17.33 | 4:27.55 | 91308 | 111387
7 | 24:45.13 | 3:15.27 | 111388 | 126039
8 | 28:00.40 | 2:26.68 | 126040 | 137057
9 | 30:27.33 | 2:36.12 | 137058 | 148769
10 | 33:03.45 | 5:11.63 | 148770 | 172157
11 | 38:15.33 | 2:51.12 | 172158 | 184994
12 | 41:06.45 | 3:38.73 | 184995 | 201417
13 | 44:45.43 | 3:16.65 | 201418 | 216182
14 | 48:02.33 | 3:53.62 | 216183 | 233719
15 | 51:56.20 | 4:13.13 | 233720 | 252707
16 | 56:09.33 | 1:49.00 | 252708 | 260882
17 | 57:58.33 | 3:36.00 | 260883 | 277082
18 | 61:34.33 | 6:18.00 | 277083 | 305432
19 | 67:52.33 | 3:29.40 | 305433 | 321147
20 | 71:21.73 | 2:25.65 | 321148 | 332087
21 | 73:47.63 | 1:48.45 | 332088 | 340232
22 | 75:36.33 | 1:52.00 | 340233 | 348632


Range status and errors

Selected range

Filename C:\ArlegZ\Rossini - La donna del lago - Riccardo Muti CD1.wav

Peak level 96.7 %
Extraction speed 2.1 X
Range quality 100.0 %
Test CRC 64923D08
Copy CRC 64923D08
Copy OK

No errors occurred


AccurateRip summary

Track 1 accurately ripped (confidence 4) [5E97A9A1] (AR v2)
Track 2 accurately ripped (confidence 4) [57B954A2] (AR v2)
Track 3 accurately ripped (confidence 4) [EDD69975] (AR v2)
Track 4 accurately ripped (confidence 4) [8F086186] (AR v2)
Track 5 accurately ripped (confidence 4) [6A0D11EB] (AR v2)
Track 6 accurately ripped (confidence 4) [4CB9D9F7] (AR v2)
Track 7 accurately ripped (confidence 4) [D0874E63] (AR v2)
Track 8 accurately ripped (confidence 4) [688AD170] (AR v2)
Track 9 accurately ripped (confidence 4) [312F9199] (AR v2)
Track 10 accurately ripped (confidence 4) [2CF7736E] (AR v2)
Track 11 accurately ripped (confidence 4) [CC1DB151] (AR v2)
Track 12 accurately ripped (confidence 4) [A35A4518] (AR v2)
Track 13 accurately ripped (confidence 4) [4CBA9374] (AR v2)
Track 14 accurately ripped (confidence 4) [E452E361] (AR v2)
Track 15 accurately ripped (confidence 4) [2E476416] (AR v2)
Track 16 accurately ripped (confidence 4) [8B42C93D] (AR v2)
Track 17 accurately ripped (confidence 4) [74E9CFF7] (AR v2)
Track 18 accurately ripped (confidence 4) [44EB9D26] (AR v2)
Track 19 accurately ripped (confidence 4) [1DD86DF2] (AR v2)
Track 20 accurately ripped (confidence 4) [D08E2386] (AR v2)
Track 21 accurately ripped (confidence 4) [D0505FED] (AR v2)
Track 22 accurately ripped (confidence 4) [DA7F9804] (AR v2)

All tracks accurately ripped

End of status report

–– CUETools DB Plugin V2.1.6

[CTDB TOCID: CAO4wEOcIcWPe0DAkVVswT0EmKk-] found
Submit result: CAO4wEOcIcWPe0DAkVVswT0EmKk- has been confirmed
Track | CTDB Status
1 | (29/36) Accurately ripped
2 | (31/36) Accurately ripped
3 | (29/36) Accurately ripped
4 | (28/36) Accurately ripped
5 | (28/36) Accurately ripped
6 | (29/36) Accurately ripped
7 | (29/36) Accurately ripped
8 | (29/36) Accurately ripped
9 | (29/36) Accurately ripped
10 | (29/36) Accurately ripped
11 | (30/36) Accurately ripped
12 | (29/36) Accurately ripped
13 | (30/36) Accurately ripped
14 | (30/36) Accurately ripped
15 | (28/36) Accurately ripped
16 | (30/36) Accurately ripped
17 | (30/36) Accurately ripped
18 | (28/36) Accurately ripped
19 | (30/36) Accurately ripped
20 | (29/36) Accurately ripped
21 | (31/36) Accurately ripped
22 | (30/36) Accurately ripped


==== Log checksum CE02C59361BA9E285AB1ABD96F8DC1C32C167530274C4ED1F75EE4E35EBFC6CC ====


Exact Audio Copy V1.6 from 23. October 2020

EAC extraction logfile from 13. July 2021, 20:10

Riccardo Muti, Orchestra del Teatro alla Scala / Rossini - La donna del lago CD2

Used drive : PIONEER DVD-RW DVR-218L Adapter: 1 ID: 0

Read mode : Secure
Utilize accurate stream : Yes
Defeat audio cache : Yes
Make use of C2 pointers : No

Read offset correction : 6
Overread into Lead-In and Lead-Out : No
Fill up missing offset samples with silence : Yes
Delete leading and trailing silent blocks : No
Null samples used in CRC calculations : Yes
Used interface : Native Win32 interface for Win NT & 2000

Used output format : User Defined Encoder
Selected bitrate : 128 kBit/s
Quality : High
Add ID3 tag : No
Command line compressor : C:\Program Files\Exact Audio Copy\Flac\flac.exe
Additional command line options : -V -8 -T "Date=%year%" -T "Genre=%genre%" %source%


TOC of the extracted CD

Track | Start | Length | Start sector | End sector
––––––––––––––––––––––––––––-
1 | 0:00.33 | 4:48.00 | 33 | 21632
2 | 4:48.33 | 1:29.20 | 21633 | 28327
3 | 6:17.53 | 2:09.37 | 28328 | 38039
4 | 8:27.15 | 1:55.50 | 38040 | 46714
5 | 10:22.65 | 2:36.30 | 46715 | 58444
6 | 12:59.20 | 3:00.40 | 58445 | 71984
7 | 15:59.60 | 1:54.48 | 71985 | 80582
8 | 17:54.33 | 9:04.00 | 80583 | 121382
9 | 26:58.33 | 2:00.37 | 121383 | 130419
10 | 28:58.70 | 4:48.48 | 130420 | 152067
11 | 33:47.43 | 4:01.10 | 152068 | 170152
12 | 37:48.53 | 1:41.22 | 170153 | 177749
13 | 39:30.00 | 7:11.33 | 177750 | 210107
14 | 46:41.33 | 4:21.57 | 210108 | 229739
15 | 51:03.15 | 4:25.18 | 229740 | 249632
16 | 55:28.33 | 3:14.00 | 249633 | 264182
17 | 58:42.33 | 2:37.62 | 264183 | 276019
18 | 61:20.20 | 1:52.25 | 276020 | 284444
19 | 63:12.45 | 1:42.05 | 284445 | 292099
20 | 64:54.50 | 1:46.38 | 292100 | 300087
21 | 66:41.13 | 3:21.20 | 300088 | 315182
22 | 70:02.33 | 3:52.17 | 315183 | 332599
23 | 73:54.50 | 4:58.58 | 332600 | 355007


Range status and errors

Selected range

Filename C:\ArlegZ\Rossini - La donna del lago - Riccardo Muti CD2.wav

Peak level 98.1 %
Extraction speed 2.2 X
Range quality 100.0 %
Test CRC 3700A577
Copy CRC 3700A577
Copy OK

No errors occurred


AccurateRip summary

Track 1 accurately ripped (confidence 4) [0375BB01] (AR v2)
Track 2 accurately ripped (confidence 4) [6FF391AF] (AR v2)
Track 3 accurately ripped (confidence 4) [A3F4A7EB] (AR v2)
Track 4 accurately ripped (confidence 4) [BB25FB28] (AR v2)
Track 5 accurately ripped (confidence 4) [2FD86779] (AR v2)
Track 6 accurately ripped (confidence 4) [339607CD] (AR v2)
Track 7 accurately ripped (confidence 4) [63127FB2] (AR v2)
Track 8 accurately ripped (confidence 4) [340E8818] (AR v2)
Track 9 accurately ripped (confidence 4) [054BD2FA] (AR v2)
Track 10 accurately ripped (confidence 4) [188C0EBA] (AR v2)
Track 11 accurately ripped (confidence 4) [B6A85BF6] (AR v2)
Track 12 accurately ripped (confidence 4) [99BA1413] (AR v2)
Track 13 accurately ripped (confidence 4) [BBE00733] (AR v2)
Track 14 accurately ripped (confidence 4) [3A28149A] (AR v2)
Track 15 accurately ripped (confidence 4) [3FE26438] (AR v2)
Track 16 accurately ripped (confidence 4) [04B4DB1C] (AR v2)
Track 17 accurately ripped (confidence 4) [0B86EC0A] (AR v2)
Track 18 accurately ripped (confidence 4) [525B3B85] (AR v2)
Track 19 accurately ripped (confidence 4) [4C6D1F68] (AR v2)
Track 20 accurately ripped (confidence 4) [578D88CB] (AR v2)
Track 21 accurately ripped (confidence 4) [CEEB70B9] (AR v2)
Track 22 accurately ripped (confidence 4) [54B80AB1] (AR v2)
Track 23 accurately ripped (confidence 4) [CFA7D563] (AR v2)

All tracks accurately ripped

End of status report

–– CUETools DB Plugin V2.1.6

[CTDB TOCID: QTYk8iz5Iv78GFWsP2Ct_O6xi0Y-] found
Submit result: QTYk8iz5Iv78GFWsP2Ct_O6xi0Y- has been confirmed
Track | CTDB Status
1 | (30/35) Accurately ripped
2 | (30/35) Accurately ripped
3 | (30/35) Accurately ripped
4 | (30/35) Accurately ripped
5 | (30/35) Accurately ripped
6 | (30/35) Accurately ripped
7 | (29/35) Accurately ripped
8 | (28/35) Accurately ripped
9 | (30/35) Accurately ripped
10 | (29/35) Accurately ripped
11 | (30/35) Accurately ripped
12 | (30/35) Accurately ripped
13 | (29/35) Accurately ripped
14 | (30/35) Accurately ripped
15 | (30/35) Accurately ripped
16 | (29/35) Accurately ripped
17 | (30/35) Accurately ripped
18 | (30/35) Accurately ripped
19 | (30/35) Accurately ripped
20 | (30/35) Accurately ripped
21 | (30/35) Accurately ripped
22 | (29/35) Accurately ripped
23 | (29/35) Accurately ripped


==== Log checksum EE90710ED880CBC69B7E2C33D6858CBFF8A893CC9B32B97C28A9A3C06AC19F7F ====

Riccardo Muti, Orchestra del Teatro alla Scala, June Anderson, Rockwell Blake - Rossini: La donna del lago (2009)