Subcategories

Richard Marx - Greatest Hits (1997) Japanese Press [Re-Up]

Posted By: Designol
Richard Marx - Greatest Hits (1997) Japanese Press [Re-Up]

Richard Marx - Greatest Hits (1997) Japanese Press
EAC | FLAC | Image (Cue&Log) ~ 518 Mb | Mp3 (CBR320) ~ 189 Mb | Scans Included
Soft Rock, Pop/Rock | Label: Toshiba EMI | # TOCP-53423 | Time: 01:14:42

Richard Marx's Greatest Hits performs a valuable service for his fans, collecting all of his hit singles – "Don't Mean Nothing," "Should've Known Better," "Endless Summer Nights," "Hold on to the Nights," "Satisfied," "Right Here Waiting," "Angela," "Children of the Night," "Keep Coming Back," "Hazard," "Take This Heart," "Now and Forever" – on one disc. For both the casual and the longtime fan, this is a blessing, since Marx's albums were usually uneven, featuring a few strong cuts surrounded by filler. Greatest Hits cuts away the chaff, leaving behind on the best cuts, resulting in an ideal career summary of this popular MOR pop/rocker.

Review by Stephen Thomas Erlewine, Allmusic.com

Richard Marx - Greatest Hits (1997) Japanese Press [Re-Up]



Tracklist:

01. Don't Mean Nothing (4:43)
02. Endless Summer Nights (4:32)
03. Now And Forever (3:34)
04. Should've Known Better (4:12)
05. Angelia (5:18)
06. Hold On To The Nights (5:14)
07. Angel's Lullaby (3:58)
08. Take This Heart (4:11)
09. Satisfied (4:14)
10. Until I Find You Again (4:25)
11. Hazard (5:17)
12. The Way She Loves Me (4:15)
13. Keep Coming Back (6:50)
14. Children Of The Night (4:44)
15. Touch Of Heaven (4:52)
16. Right Here Waiting (4:23)


Exact Audio Copy V0.99 prebeta 3 from 28. July 2007

Отчёт EAC об извлечении, выполненном 13. марта 2008, 22:21

Richard Marx / Greatest Hits

Дисковод: Optiarc DVD RW AD-5170A Adapter: 3 ID: 0

Режим чтения : Достоверность
Использование точного потока : Да
Отключение кэша аудио : Да
Использование указателей C2 : Нет

Коррекция смещения при чтении : 48
Способность читать области Lead-in и Lead-out : Нет
Заполнение пропущенных сэмплов тишиной : Да
Удаление блоков с тишиной в начале и конце : Нет
При вычислениях CRC использовались нулевые сэмплы : Да
Интерфейс : Установленный внешний ASPI-интерфейс

Выходной формат : Внутренние WAV-операции
Формат сэмплов : 44.100 Гц; 16 бит; стерео


TOC извлечённого CD

Трек | Старт | Длительность | Начальный сектор | Конечный сектор
––––––––––––––––––––––––––––––––––-
1 | 0:00.00 | 4:42.40 | 0 | 21189
2 | 4:42.40 | 4:32.02 | 21190 | 41591
3 | 9:14.42 | 3:33.53 | 41592 | 57619
4 | 12:48.20 | 4:12.32 | 57620 | 76551
5 | 17:00.52 | 5:17.63 | 76552 | 100389
6 | 22:18.40 | 5:14.20 | 100390 | 123959
7 | 27:32.60 | 3:58.10 | 123960 | 141819
8 | 31:30.70 | 4:10.47 | 141820 | 160616
9 | 35:41.42 | 4:13.63 | 160617 | 179654
10 | 39:55.30 | 4:25.25 | 179655 | 199554
11 | 44:20.55 | 5:16.55 | 199555 | 223309
12 | 49:37.35 | 4:15.10 | 223310 | 242444
13 | 53:52.45 | 6:49.42 | 242445 | 273161
14 | 60:42.12 | 4:44.00 | 273162 | 294461
15 | 65:26.12 | 4:52.23 | 294462 | 316384
16 | 70:18.35 | 4:23.05 | 316385 | 336114


Характеристики диапазона извлечения и сообщения об ошибках

Выбранный диапазон

Имя файла F:\Серега\Marx\Richard Marx - Greatest Hits.wav

Пиковый уровень 98.8 %
Качество диапазона 99.9 %
CRC копии E60194D0
Копирование… OK

Ошибок не произошло


Конец отчёта

[CUETools log; Date: 18.06.2018 17:51:36; Version: 2.1.4]
[CTDB TOCID: Kg.XVyvj9a6kGirhcO15Vt.O9vY-] found.
Track | CTDB Status
1 | (26/26) Accurately ripped
2 | (26/26) Accurately ripped
3 | (26/26) Accurately ripped
4 | (26/26) Accurately ripped
5 | (26/26) Accurately ripped
6 | (26/26) Accurately ripped
7 | (26/26) Accurately ripped
8 | (26/26) Accurately ripped
9 | (26/26) Accurately ripped
10 | (26/26) Accurately ripped
11 | (26/26) Accurately ripped
12 | (26/26) Accurately ripped
13 | (26/26) Accurately ripped
14 | (26/26) Accurately ripped
15 | (26/26) Accurately ripped
16 | (26/26) Accurately ripped
[AccurateRip ID: 002a8dde-0201c783-e4118110] found.
Track [ CRC | V2 ] Status
01 [203b8556|558ab947] (0+0/9) No match
02 [e95948c8|578f39f6] (0+0/9) No match
03 [f17d3db1|8ffd58c5] (0+0/9) No match
04 [443e2855|89fff530] (0+0/9) No match
05 [fc7ca20b|045986f8] (0+0/9) No match
06 [038c992e|35dd6d09] (0+0/9) No match
07 [8bfb4a8b|67b5a800] (0+0/9) No match
08 [78a1512a|efa2997b] (0+0/9) No match
09 [be035f08|668737ed] (0+0/9) No match
10 [6cc56e85|77ca17a5] (0+0/9) No match
11 [6c750357|c0f01ea1] (0+0/9) No match
12 [52d129da|a0dd4a9f] (0+0/9) No match
13 [d0ff1b01|0e7529a3] (0+0/9) No match
14 [dc36f542|0d94fa2e] (0+0/9) No match
15 [e6d86dba|fc69de7c] (0+0/9) No match
16 [e3b4150e|a548abe6] (0+0/9) No match
Offsetted by -1089:
01 [1c4c4471] (0/9) No match (V2 was not tested)
02 [a774957e] (0/9) No match (V2 was not tested)
03 [480e8bb4] (0/9) No match (V2 was not tested)
04 [923824fb] (0/9) No match (V2 was not tested)
05 [11d23049] (0/9) No match (V2 was not tested)
06 [2267d550] (0/9) No match (V2 was not tested)
07 [fd9972b7] (0/9) No match (V2 was not tested)
08 [ff220e2e] (0/9) No match (V2 was not tested)
09 [85e802f3] (0/9) No match (V2 was not tested)
10 [07da4bae] (0/9) No match (V2 was not tested)
11 [45a7c680] (0/9) No match (V2 was not tested)
12 [2b1474c7] (0/9) No match (V2 was not tested)
13 [5ec8af45] (0/9) No match (V2 was not tested)
14 [70584b2e] (0/9) No match (V2 was not tested)
15 [00a5b4c6] (0/9) No match (V2 was not tested)
16 [d27ea075] (0/9) No match (V2 was not tested)
Offsetted by -32:
01 [024310b6] (0/9) No match (V2 was not tested)
02 [b3ee2f88] (0/9) No match (V2 was not tested)
03 [4b7b6611] (0/9) No match (V2 was not tested)
04 [81118d15] (0/9) No match (V2 was not tested)
05 [2c9979cb] (0/9) No match (V2 was not tested)
06 [2ac60d6e] (0/9) No match (V2 was not tested)
07 [b7c0f00b] (0/9) No match (V2 was not tested)
08 [4556d1aa] (0/9) No match (V2 was not tested)
09 [3e990468] (0/9) No match (V2 was not tested)
10 [43f54ba5] (0/9) No match (V2 was not tested)
11 [7131a077] (0/9) No match (V2 was not tested)
12 [38069f7a] (0/9) No match (V2 was not tested)
13 [32f58381] (0/9) No match (V2 was not tested)
14 [139452c2] (0/9) No match (V2 was not tested)
15 [55daef3a] (0/9) No match (V2 was not tested)
16 [e604c9ee] (0/9) No match (V2 was not tested)
Offsetted by 811:
01 [6fcc510d] (0/9) No match (V2 was not tested)
02 [eb2b90b6] (0/9) No match (V2 was not tested)
03 [e8bbee70] (0/9) No match (V2 was not tested)
04 [d6b0a6f3] (0/9) No match (V2 was not tested)
05 [a921a621] (0/9) No match (V2 was not tested)
06 [29747ef8] (0/9) No match (V2 was not tested)
07 [56a23027] (0/9) No match (V2 was not tested)
08 [c489607e] (0/9) No match (V2 was not tested)
09 [7332c7cf] (0/9) No match (V2 was not tested)
10 [1f206262] (0/9) No match (V2 was not tested)
11 [8c68d534] (0/9) No match (V2 was not tested)
12 [81ce4ccb] (0/9) No match (V2 was not tested)
13 [46423295] (0/9) No match (V2 was not tested)
14 [f910bb9e] (0/9) No match (V2 was not tested)
15 [2170ebb6] (0/9) No match (V2 was not tested)
16 [c906ad01] (0/9) No match (V2 was not tested)

Track Peak [ CRC32 ] [W/O NULL] [ LOG ]
– 98,8 [E60194D0] [BAFBE59C] CRC32
01 98,8 [5DE90EAB] [B7FE8587]
02 98,8 [1B95848C] [0ADE70D4]
03 74,3 [3B3A5795] [F75A6730]
04 98,8 [F160840F] [ED2C7EBD]
05 89,9 [B04895DD] [11B00F7B]
06 98,8 [0732C60D] [2007A19C]
07 80,6 [1566848E] [15705621]
08 98,8 [F6F2C7F6] [D3D66314]
09 98,8 [0647ABBF] [6BCE14A8]
10 78,5 [9C23D3B3] [10063834]
11 86,0 [E09F620E] [D25B67D6]
12 98,8 [F98FBAB9] [22C0D0D2]
13 98,8 [DC9B64B1] [C1D06AAA]
14 98,8 [34B9510F] [FEEDB8FE]
15 88,1 [52370F37] [D1821F53]
16 98,8 [C1800B77] [410CB5B5]

foobar2000 1.2 / Dynamic Range Meter 1.1.1
log date: 2018-06-18 17:54:04

––––––––––––––––––––––––––––––––––––––––
Analyzed: Richard Marx / Greatest Hits
––––––––––––––––––––––––––––––––––––––––

DR Peak RMS Duration Track
––––––––––––––––––––––––––––––––––––––––
DR10 -0.10 dB -12.29 dB 4:43 01-Don't Mean Nothing
DR11 -0.10 dB -12.81 dB 4:32 02-Endless Summer Nights
DR9 -2.57 dB -14.56 dB 3:34 03-Now And Forever
DR12 -0.10 dB -14.12 dB 4:12 04-Should've Known Better
DR10 -0.92 dB -13.04 dB 5:18 05-Angelia
DR11 -0.10 dB -15.06 dB 5:14 06-Hold On To The Nights
DR10 -1.87 dB -14.78 dB 3:58 07-Angel's Lullaby
DR11 -0.10 dB -12.70 dB 4:11 08-Take This Heart
DR10 -0.10 dB -12.07 dB 4:14 09-Satisfied
DR8 -2.10 dB -12.90 dB 4:25 10-Until I Find You Again
DR10 -1.31 dB -14.03 dB 5:17 11-Hazard
DR10 -0.10 dB -12.03 dB 4:15 12-The Way She Loves Me
DR11 -0.10 dB -13.46 dB 6:50 13-Keep Coming Back
DR10 -0.10 dB -12.04 dB 4:44 14-Children Of The Night
DR7 -1.10 dB -9.47 dB 4:52 15-Touch Of Heaven
DR11 -0.10 dB -14.00 dB 4:23 16-Right Here Waiting
––––––––––––––––––––––––––––––––––––––––

Number of tracks: 16
Official DR value: DR10

Samplerate: 44100 Hz
Channels: 2
Bits per sample: 16
Bitrate: 937 kbps
Codec: FLAC
================================================================================

Richard Marx - Greatest Hits (1997) Japanese Press [Re-Up]

Richard Marx - Greatest Hits (1997) Japanese Press [Re-Up]

All thanks to original releaser - sinicinal

More interesting music in My Blog