Tags
Language
Tags

Rick Wakeman & Mario Fasciano - Black Knights At The Court Of Ferdinand IV (1989)

Posted By: v3122
Rick Wakeman & Mario Fasciano -  Black Knights At The Court Of Ferdinand IV (1989)

Rick Wakeman & Mario Fasciano - Black Knights At The Court Of Ferdinand IV (1989)
EAC | Flac(Image) + Cue + Log & MP3 CBR 320Kbps
1994 | West Coast Productions, WCPCD 1009 | ~ 265 or 153 Mb | Scans
Prog Rock / Art Rock

Wakeman and Italian drummer and singer Mario Fasciano co-wrote this album (along with one G. Castiglia), and recorded it in Naples in 1989. Given the title, and Wakeman's history, this is presumably a concept album, but to follow it you'll need to know Italian (to understand the lyrics). Wakeman is in unfamiliar territory here, and the result is a stylistic departure from his usual work – it has been likened to the sound of Italian progressive rock bands of the '70s, such as PFM. Wakeman's playing is uncommonly restrained, but good.

by Stephen Raiteri
Rick Wakeman & Mario Fasciano - Black Knights At The Court Of Ferdinand IV (1989):

Rick Wakeman & Mario Fasciano -  Black Knights At The Court Of Ferdinand IV (1989)

Tracklist:

1. E Vuje' 5:09
2. Favola 6:03
3. Umberto II 3:39
4. Umbre' 3:09
5. Tommaso Aniello 4:54
6. Fradiavolo 4:50
7. Farfarie 4:48
8. 'O Bilancio 3:16

Musicians:

Rick Wakeman Keyboards
Dave Sumner Guitar
Mario Fasciano Drums/Percussion/Vocals

Exact Audio Copy V1.0 beta 3 from 29. August 2011

EAC extraction logfile from 31. May 2012, 17:18

Rick Wakeman & Mario Fasciano / Black Knights at the court of Ferdinand IV (WCPCD 1009)

Used drive : HL-DT-STDVDRAM GE20NU11 Adapter: 0 ID: 1

Read mode : Secure
Utilize accurate stream : Yes
Defeat audio cache : Yes
Make use of C2 pointers : No

Read offset correction : 667
Overread into Lead-In and Lead-Out : No
Fill up missing offset samples with silence : Yes
Delete leading and trailing silent blocks : No
Null samples used in CRC calculations : Yes
Used interface : Native Win32 interface for Win NT & 2000

Used output format : User Defined Encoder
Selected bitrate : 896 kBit/s
Quality : High
Add ID3 tag : No
Command line compressor : C:\Program Files\EAC 3\Exact Audio Copy\Flac\flac.exe
Additional command line options : -V -8 %source%


TOC of the extracted CD

Track | Start | Length | Start sector | End sector
––––––––––––––––––––––––––––-
1 | 0:00.00 | 5:09.00 | 0 | 23174
2 | 5:09.00 | 6:03.00 | 23175 | 50399
3 | 11:12.00 | 3:39.47 | 50400 | 66871
4 | 14:51.47 | 3:09.53 | 66872 | 81099
5 | 18:01.25 | 4:54.22 | 81100 | 103171
6 | 22:55.47 | 4:50.53 | 103172 | 124974
7 | 27:46.25 | 4:58.00 | 124975 | 147324
8 | 32:44.25 | 3:13.62 | 147325 | 161861


Range status and errors

Selected range

Filename C:\Olaf der Weisse\Rick Wakeman & Mario Fasciano (1994) Black Knights at the court of Ferdinand IV (WCPCD 1009)\Rick Wakeman & Mario Fasciano - Black Knights at the court of Ferdinand IV (WCPCD 1009).wav

Peak level 78.2 %
Extraction speed 1.8 X
Range quality 100.0 %
Test CRC 3C097C46
Copy CRC 3C097C46
Copy OK

No errors occurred


AccurateRip summary

Track 1 not present in database
Track 2 not present in database
Track 3 not present in database
Track 4 not present in database
Track 5 not present in database
Track 6 not present in database
Track 7 not present in database
Track 8 not present in database

None of the tracks are present in the AccurateRip database

End of status report

foobar2000 1.2.4 / Dynamic Range Meter 1.1.1
log date: 2013-04-25 14:40:15

––––––––––––––––––––––––––––––––––––––––
Analyzed: Rick Wakeman & Mario Fasciano / Black Knights at the court of Ferdinand IV (WCPCD 1009)
––––––––––––––––––––––––––––––––––––––––

DR Peak RMS Duration Track
––––––––––––––––––––––––––––––––––––––––
DR14 -4.12 dB -21.75 dB 5:09 01-E vuje'
DR12 -4.27 dB -19.38 dB 6:03 02-Favola
DR14 -2.13 dB -20.18 dB 3:40 03-Umberto II
DR13 -7.38 dB -25.23 dB 3:10 04-Umbe'
DR13 -5.00 dB -21.27 dB 4:54 05-Tommaso Aniello
DR14 -3.83 dB -22.29 dB 4:51 06-Fradiavolo
DR14 -4.69 dB -21.46 dB 4:58 07-Farfarie
DR10 -9.11 dB -22.05 dB 3:14 08-'O bilancio
––––––––––––––––––––––––––––––––––––––––

Number of tracks: 8
Official DR value: DR13

Samplerate: 44100 Hz
Channels: 2
Bits per sample: 16
Bitrate: 744 kbps
Codec: FLAC

Rick Wakeman & Mario Fasciano -  Black Knights At The Court Of Ferdinand IV (1989)

All thanks go to Olaf der Weisse

Download Rick Wakeman & Mario Fasciano - Black Knights At The Court Of Ferdinand IV (1989):