Tags
Language
Tags

Monster Mike Welch & Mike Ledbetter - Right Place, Right Time (2017)

Posted By: SERTiL
Monster Mike Welch & Mike Ledbetter - Right Place, Right Time (2017)

Monster Mike Welch & Mike Ledbetter - Right Place, Right Time
EAC Rip | FLAC (tracks)+cue, log, m3u, covers | 50:21 min | 348 MB
Label: Delta Groove Music - DGPCD176 | Tracks: 12 | Rls.date: 2017
Blues, Electric Blues

With over 25 years under his belt, Boston-based blues guitarist Monster Mike Welch is handily considered a seasoned veteran of the international blues scene at just a mere 37 years old. Adorned with the nickname Monster Mike by actor/comedian Dan Aykroyd at the tender age of 13, Welch has since carved out a successful living as a highly accomplished and in-demand guitarist. To date, Welch has released six albums under his own name and in 2001, he joined the ranks of one of New England s most beloved blues institutions, Sugar Ray and the Bluetones. In addition, Welch has performed and recorded with Duke Robillard, Nick Moss, Johnny Winter, Darrell Nulisch and more recently, the Knickerbocker All-Stars, which has featured among others, Jimmie Vaughan and the aforementioned Robillard. No stranger to the Delta Groove family, Welch also appears on recordings by the Mannish Boys and Sugaray Rayford, as well as playing a central role in the critically acclaimed album, Fifty Shades of Blue, by Anthony Geraci and the Boston Blues All Stars. Welch has received two consecutive Blues Music Award nominations by the Blues Foundation for Instrumentalist-Guitar beginning in 2016.

Chicago's own Mike Ledbetter has had nothing short of a rich and multi-dimensional musical journey thus far. Before making a home in West Side Chicago and Memphis style blues, Ledbetter set his feet in various genres ranging from soul, gospel, pop, jazz, and even spent the better part of a decade performing on Chicago opera stages. Spending eight years under the tutelage of his mentor, Nick Moss, Ledbetter recorded and toured the world with Moss as his lead vocalist and rhythm guitarist. In this short time, he has made more than a lasting impression and developed a legion of fans. He's also worked with and earned the respect of many of his heroes and influences (Anson Funderburgh, Barrelhouse Chuck, Billy Flynn, Curtis Salgado, Jimmy Johnson, Lazy Lester, Ronnie Earl) as a member of the new school of blues/soul musician whose style is cemented in its Golden Era.

On Sunday, June 12, 2016, Welch and Ledbetter took part in a special tribute to the legendary Otis Rush at the 33rd Annual Chicago Blues Festival. The chemistry between these two was so instantaneous and such a natural fit, that it became readily apparent that an album together must soon follow. Right Place, Right Time is the result of this inspired collaboration, born out of a mutual love and respect for the classic blues era of the 50s and 60s and artists such as Otis Rush, Magic Sam, Elmore James and B.B. King. Accompanying Welch and Ledbetter is an all-star cast featuring pianist/organist Anthony Geraci, bassist Ronnie James Weber and drummer Marty Richards, along with special guests Laura Chavez on guitar and saxophonists Doug James and Sax Gordon. For Monster Mike Welch and Mike Ledbetter this album is not just about being in the right place at the right time, but knowing what to do with it when you find yourselves there.

Monster Mike Welch & Mike Ledbetter - Right Place, Right Time (2017)


TRACKLIST
01. Cry For Me Baby (Melvin London) 03:54
02. I Can't Please You (Jimmy Robins) 04:12
03. Kay Marie (Michael Ledbetter) 04:20
04. I Can't Stop Baby (Willie Dixon) 05:16
05. Down Home Girl (Artie Butler, Jerry Leiber) 04:43
06. How Long Can This Go On (Herman Parker) 03:43
07. Big Mama (Michael Ledbetter) 03:53
08. I'm Gonna Move To Another Country (Mike Welch) 04:49
09. Can't Sit Down (Michael Ledbetter) 04:06
10. Cryin' Won't Help You (Hudson Whittaker) 03:41
11. Goodbye Baby (Elmore James) 03:36
12. Brewster Avenue Bump (Mike Welch) 04:12

PERSONNEL
Michael Ledbetter - All Lead Vocals, Rhythm Guitar (12)
Monster Mike Welch - Guitar
Anthony Geraci - Piano, Hammond Organ
Ronnie James Weber - Bass
Marty Richards - Drums

Laura Chavez - Qutro Guitar Solo (3), Middle Guitar Solo (6), Guitar Fills And Middle Guitar Solo (7), 1st Middle Guitar Solo (12)
Sax Gordon - Tenor Sax (2,4,5,10)
Doug James - Baritone And Tenor Sax (2,4,5,10)
Kit Holliday - Background Vocals (11)
Jeannette Ocampo Welch - Background Vocals (11)

Exact Audio Copy V1.1 from 23. June 2015

EAC extraction logfile from 1. June 2017, 20:25

Monster Mike Welch & Mike Ledbetter / Right Place, Right Time

Used drive : TSSTcorpCDDVDW SH-224DB Adapter: 1 ID: 0

Read mode : Secure
Utilize accurate stream : Yes
Defeat audio cache : Yes
Make use of C2 pointers : No

Read offset correction : 6
Overread into Lead-In and Lead-Out : No
Fill up missing offset samples with silence : Yes
Delete leading and trailing silent blocks : No
Null samples used in CRC calculations : Yes
Used interface : Native Win32 interface for Win NT & 2000
Gap handling : Appended to previous track

Used output format : User Defined Encoder
Selected bitrate : 1024 kBit/s
Quality : High
Add ID3 tag : No
Command line compressor : C:\Program Files (x86)\Exact Audio Copy\win64\flac.exe
Additional command line options : -8 -V -T "ARTIST=%artist%" -T "TITLE=%title%" -T "ALBUM=%albumtitle%" -T "DATE=%year%" -T "TRACKNUMBER=%tracknr%" -T "GENRE=%genre%" -T "COMMENT=%comment%" %source% -o %dest%


TOC of the extracted CD

Track | Start | Length | Start sector | End sector
––––––––––––––––––––––––––––-
1 | 0:00.00 | 3:54.09 | 0 | 17558
2 | 3:54.09 | 4:12.01 | 17559 | 36459
3 | 8:06.10 | 4:20.13 | 36460 | 55972
4 | 12:26.23 | 5:15.69 | 55973 | 79666
5 | 17:42.17 | 4:43.24 | 79667 | 100915
6 | 22:25.41 | 3:42.71 | 100916 | 117636
7 | 26:08.37 | 3:53.06 | 117637 | 135117
8 | 30:01.43 | 4:49.04 | 135118 | 156796
9 | 34:50.47 | 4:06.27 | 156797 | 175273
10 | 38:56.74 | 3:40.72 | 175274 | 191845
11 | 42:37.71 | 3:36.03 | 191846 | 208048
12 | 46:13.74 | 4:11.65 | 208049 | 226938


Track 1

Filename D:\Sket4er\Monster Mike Welch & Mike Ledbetter - Right Place, Right Time (2017)\01 Cry For Me Baby.wav

Pre-gap length 0:00:02.00

Peak level 99.9 %
Extraction speed 1.9 X
Track quality 100.0 %
Test CRC D4B7C143
Copy CRC D4B7C143
Track not present in AccurateRip database
Copy OK

Track 2

Filename D:\Sket4er\Monster Mike Welch & Mike Ledbetter - Right Place, Right Time (2017)\02 I Can't Please You.wav

Peak level 99.9 %
Extraction speed 1.9 X
Track quality 99.9 %
Test CRC CF58CFB9
Copy CRC CF58CFB9
Track not present in AccurateRip database
Copy OK

Track 3

Filename D:\Sket4er\Monster Mike Welch & Mike Ledbetter - Right Place, Right Time (2017)\03 Kay Marie.wav

Peak level 97.7 %
Extraction speed 2.3 X
Track quality 100.0 %
Test CRC DC7E9F5E
Copy CRC DC7E9F5E
Track not present in AccurateRip database
Copy OK

Track 4

Filename D:\Sket4er\Monster Mike Welch & Mike Ledbetter - Right Place, Right Time (2017)\04 I Can't Stop Baby.wav

Peak level 99.9 %
Extraction speed 2.6 X
Track quality 100.0 %
Test CRC 18063CB8
Copy CRC 18063CB8
Track not present in AccurateRip database
Copy OK

Track 5

Filename D:\Sket4er\Monster Mike Welch & Mike Ledbetter - Right Place, Right Time (2017)\05 Down Home Gir.wav

Peak level 99.9 %
Extraction speed 2.7 X
Track quality 100.0 %
Test CRC 5D545103
Copy CRC 5D545103
Track not present in AccurateRip database
Copy OK

Track 6

Filename D:\Sket4er\Monster Mike Welch & Mike Ledbetter - Right Place, Right Time (2017)\06 How Long Can This Go On.wav

Peak level 99.9 %
Extraction speed 2.8 X
Track quality 100.0 %
Test CRC 509EA07C
Copy CRC 509EA07C
Track not present in AccurateRip database
Copy OK

Track 7

Filename D:\Sket4er\Monster Mike Welch & Mike Ledbetter - Right Place, Right Time (2017)\07 Big Mama.wav

Peak level 99.9 %
Extraction speed 2.9 X
Track quality 100.0 %
Test CRC 36187CA5
Copy CRC 36187CA5
Track not present in AccurateRip database
Copy OK

Track 8

Filename D:\Sket4er\Monster Mike Welch & Mike Ledbetter - Right Place, Right Time (2017)\08 I'm Gonna Move To Another Country.wav

Peak level 99.9 %
Extraction speed 3.1 X
Track quality 100.0 %
Test CRC A618896D
Copy CRC A618896D
Track not present in AccurateRip database
Copy OK

Track 9

Filename D:\Sket4er\Monster Mike Welch & Mike Ledbetter - Right Place, Right Time (2017)\09 Can't Sit Down.wav

Peak level 99.9 %
Extraction speed 3.1 X
Track quality 100.0 %
Test CRC 18C55A84
Copy CRC 18C55A84
Track not present in AccurateRip database
Copy OK

Track 10

Filename D:\Sket4er\Monster Mike Welch & Mike Ledbetter - Right Place, Right Time (2017)\10 Cryin' Won't Help You.wav

Peak level 99.9 %
Extraction speed 3.2 X
Track quality 100.0 %
Test CRC B670B91D
Copy CRC B670B91D
Track not present in AccurateRip database
Copy OK

Track 11

Filename D:\Sket4er\Monster Mike Welch & Mike Ledbetter - Right Place, Right Time (2017)\11 Goodbye Baby.wav

Peak level 99.9 %
Extraction speed 3.3 X
Track quality 100.0 %
Test CRC 0B58F508
Copy CRC 0B58F508
Track not present in AccurateRip database
Copy OK

Track 12

Filename D:\Sket4er\Monster Mike Welch & Mike Ledbetter - Right Place, Right Time (2017)\12 Brewster Avenue Bump.wav

Peak level 99.9 %
Extraction speed 3.4 X
Track quality 100.0 %
Test CRC 77A4E5B3
Copy CRC 77A4E5B3
Track not present in AccurateRip database
Copy OK


None of the tracks are present in the AccurateRip database

No errors occurred

End of status report

–– CUETools DB Plugin V2.1.6

[CTDB TOCID: 0Z1iqMbLOR_7DcOcGXP_iyKP1C8-] found
Submit result: 0Z1iqMbLOR_7DcOcGXP_iyKP1C8- has been confirmed
Track | CTDB Status
1 | (4/5) Accurately ripped
2 | (4/5) Accurately ripped
3 | (4/5) Accurately ripped
4 | (4/5) Accurately ripped
5 | (4/5) Accurately ripped
6 | (4/5) Accurately ripped
7 | (4/5) Accurately ripped
8 | (4/5) Accurately ripped
9 | (4/5) Accurately ripped
10 | (4/5) Accurately ripped
11 | (4/5) Accurately ripped
12 | (4/5) Accurately ripped


==== Log checksum 2A7C6DD72579BC0C095E9825C7CFE12AC4595CCD5295BC40AF6D84E34B0F0A73 ====


Monster Mike Welch & Mike Ledbetter - Right Place, Right Time (2017)


Thanks to the Original customer.