Subcategories
Tags
Language
Tags

Riverside: Collection (2007 - 2018)

Posted By: v3122
Riverside: Collection (2007 - 2018)

Riverside: Collection (2007 - 2018)
EAC | Flac(Image) + Cue + Log & MP3 CBR 320Kbps
9CD | Label: Various | ~ 2451 or 980 Mb | Artwork(jpg) -> 402 Mb
Progressive Rock, Progressive Metal

Drawn together by a shared love of heavy metal and progressive rock, Riverside emerged in the early 2000s in Warsaw, Poland. Founded by mutual friends who intended to use their backgrounds in metal to explore new territory in prog rock along the lines of Dream Theater, Porcupine Tree, and Tool, the quartet began creating spacious and experimental music with a metal edge on their 2003 debut, Out of Myself. They hit their stride in the late 2000s, topping the Polish charts in 2009 with their fourth full-length outing, Anno Domini High Definition. The untimely death of guitarist Piotr Grudziński in 2016 put the band's future in jeopardy, but they reconvened in 2018 as a trio for the studio LP Wasteland.

Riverside were founded in 2001 in Warsaw, Poland, by Mariusz Duda (vocals, bass, guitar), Piotr Grudziński (guitar), Piotr Kozieradzki (drums), and Jacek Melnicki (keyboards). The quartet members intended to use their backgrounds in metal to explore new territory in prog rock along the lines of Dream Theater and Tool, creating spacious and experimental music with a metal edge. Even before their first record was finished, Riverside began to experience creative differences, with Melnicki (who was later replaced by current keyboard player Michal Lapaj) splitting from the group to pursue his own studio projects in 2003. Later that year, the band issued its full-length debut, Out of Myself, which was released the following year in the U.S. on Laser's Edge.

After the success of their first record, the bandmembers got back to work on new material. In 2005, they released the EP Voices in My Head, gaining the attention of InsideOut, which released their second album, Second Life Syndrome, later that year. In 2007, after a European tour in support of Dream Theater, the group released Rapid Eye Movement. In 2009, they put out another studio record, Anno Domini High Definition (on Mystic Productions), which quickly became the best-selling record in Poland. Shrine of New Generation Slaves, the band's fifth studio long-player, arrived in 2013, followed in 2015 by Love, Fear and the Time Machine.

Tragedy befell Riverside at the start of 2016, when Grudzinski suffered from fatal heart failure, putting the future of the band in question. Determined to continue, the band released a compilation of ambient electronic instrumentals titled Eye of the Soundscape. Issued in 2016, it contained all the bonus material from Shrine of New Generation Slaves as well as four new tracks – the lengthy "Where the River Flows," "Eye of the Soundscape," "Shine," and "Sleepwalkers" – that accounted for a third of the 100-plus-minute release. Electing to soldier on as a trio, the band returned to the studio in 2018 and released the apocalypse-themed Wasteland. Touring in support of the album, the band was joined by guitarist Maciej Meller (Quidam, Meller Gołyźniak Duda), who became a permanent member in 2020. That same year marked by the release of the concert LP Lost 'N' Found: Live in Tilburg, which was recorded during the band's 2015 European tour in support of Love, Fear and the Time Machine, featuring Grudzinski on guitar.

by Gregory Heaney, allmusic
Riverside: Collection (2007 - 2018)

Riverside: Collection (2007 - 2018):

Riverside: Collection (2007 - 2018)

Tracklist CD01-02. 2007 - Rapid Eye Movement 2CD (Special Edition 2009) (Inside Out Music IOMSECD 283 Germany):

CD1:
01. Beyond The Eyelids (7:57)
02. Rainbow Box (3:36)
03. 02 Panic Room (5:30)
04. Schizophrenic Prayer (4:20)
05. Parasomnia (8:10)
06. Through The Other Side (4:05)
07. Embryonic (4:10)
08. Cybernetic Pillow (4:46)
09. Ultimate Trip (13:13)

Exact Audio Copy V1.0 beta 3 from 29. August 2011

EAC extraction logfile from 11. September 2013, 9:53

Riverside / Rapid Eye Movement (CD 1)

Used drive : TSSTcorpCDDVDW SH-224BB Adapter: 1 ID: 0

Read mode : Secure
Utilize accurate stream : Yes
Defeat audio cache : Yes
Make use of C2 pointers : No

Read offset correction : 6
Overread into Lead-In and Lead-Out : No
Fill up missing offset samples with silence : Yes
Delete leading and trailing silent blocks : No
Null samples used in CRC calculations : Yes
Used interface : Installed external ASPI interface

Used output format : Internal WAV Routines
Sample format : 44.100 Hz; 16 Bit; Stereo


TOC of the extracted CD

Track | Start | Length | Start sector | End sector
––––––––––––––––––––––––––––-
1 | 0:00.00 | 7:56.60 | 0 | 35759
2 | 7:56.60 | 3:36.34 | 35760 | 51993
3 | 11:33.19 | 5:29.53 | 51994 | 76721
4 | 17:02.72 | 4:20.35 | 76722 | 96256
5 | 21:23.32 | 8:10.33 | 96257 | 133039
6 | 29:33.65 | 4:05.26 | 133040 | 151440
7 | 33:39.16 | 4:10.29 | 151441 | 170219
8 | 37:49.45 | 4:45.70 | 170220 | 191664
9 | 42:35.40 | 13:13.01 | 191665 | 251140


Range status and errors

Selected range

Filename G:\Riverside\2007 - Rapid Eye Movement 2CD (Special Edition 2009) (Inside Out Music IOMSECD 283 Germany)\CD1\Riverside - Rapid Eye Movement (CD 1).wav

Peak level 98.9 %
Extraction speed 4.6 X
Range quality 99.9 %
Test CRC BBFFF640
Copy CRC BBFFF640
Copy OK

No errors occurred


AccurateRip summary

Track 1 accurately ripped (confidence 11) [2D59E479] (AR v2)
Track 2 accurately ripped (confidence 11) [09877C66] (AR v2)
Track 3 accurately ripped (confidence 11) [9559269F] (AR v2)
Track 4 accurately ripped (confidence 11) [5639BD75] (AR v2)
Track 5 accurately ripped (confidence 11) [33529818] (AR v2)
Track 6 accurately ripped (confidence 11) [1241EA69] (AR v2)
Track 7 accurately ripped (confidence 11) [3C94E1BA] (AR v2)
Track 8 accurately ripped (confidence 11) [FE2BF493] (AR v2)
Track 9 accurately ripped (confidence 10) [821DDA2D] (AR v2)

All tracks accurately ripped

End of status report

==== Log checksum CD138F033F6A7C1F437DAD642861E56AC05AAD6846CE01D77F0CE6E9DAFB0662 ====


[CUETools log; Date: 11.09.2013 10:02:54; Version: 2.1.4]
[CTDB TOCID: or6wnTwIv02cRmJ4.RS61VxI3MI-] found.
Track | CTDB Status
1 | (19/40) Accurately ripped
2 | (19/40) Accurately ripped
3 | (19/40) Accurately ripped
4 | (19/40) Accurately ripped
5 | (19/40) Accurately ripped
6 | (19/40) Accurately ripped
7 | (19/40) Accurately ripped
8 | (19/40) Accurately ripped
9 | (19/40) Accurately ripped
[AccurateRip ID: 0011ac60-0081465e-780d1409] found.
Track [ CRC | V2 ] Status
01 [01d02eb9|2d59e479] (016+011/178) Accurately ripped
02 [46cd74dc|09877c66] (016+011/176) Accurately ripped
03 [7f0a1d85|9559269f] (016+011/177) Accurately ripped
04 [c05a7522|5639bd75] (016+011/177) Accurately ripped
05 [6563afc3|33529818] (016+011/177) Accurately ripped
06 [0d645b7a|1241ea69] (016+011/177) Accurately ripped
07 [b3457b51|3c94e1ba] (016+011/177) Accurately ripped
08 [6fab941b|fe2bf493] (016+011/177) Accurately ripped
09 [171e5ff4|821dda2d] (016+010/171) Accurately ripped
Offsetted by -36:
01 [2fa6a3b0] (003/178) Accurately ripped
02 [571c2dd4] (003/176) Accurately ripped
03 [e3824048] (003/177) Accurately ripped
04 [be6989f0] (003/177) Accurately ripped
05 [50a5e539] (003/177) Accurately ripped
06 [cdb38b6d] (003/177) Accurately ripped
07 [8f586e03] (003/177) Accurately ripped
08 [b8f9f069] (003/177) Accurately ripped
09 [f0f1bdb5] (003/171) Accurately ripped

Track Peak [ CRC32 ] [W/O NULL] [ LOG ]
– 98,9 [BBFFF640] [C726DED0] CRC32
01 98,2 [91DAED32] [AAC488A1]
02 98,2 [C3CCC1C6] [6A86D96E]
03 98,9 [5D27116C] [D6DFF21D]
04 98,2 [E50A2912] [B6C15BA6]
05 98,9 [244FEF40] [62CC2603]
06 78,6 [3231035D] [C9A0F7B6]
07 82,0 [641E0985] [3B8E50AC]
08 98,2 [4BDAD7A1] [250BC452]
09 98,2 [84564F3D] [6C2B927D]



CD2:
01. Behind The Eyelids (6:18)
02. Lucid Dream IV (4:33)
03. 02 Panic Room (Remix) (3:24)
04. Back To The River (6:29)
05. Rapid Eye Movement (12:40)

Exact Audio Copy V1.0 beta 3 from 29. August 2011

EAC extraction logfile from 11. September 2013, 10:38

Riverside / Rapid Eye Movement (Disc Two)

Used drive : TSSTcorpCDDVDW SH-224BB Adapter: 1 ID: 0

Read mode : Secure
Utilize accurate stream : Yes
Defeat audio cache : Yes
Make use of C2 pointers : No

Read offset correction : 6
Overread into Lead-In and Lead-Out : No
Fill up missing offset samples with silence : Yes
Delete leading and trailing silent blocks : No
Null samples used in CRC calculations : Yes
Used interface : Installed external ASPI interface

Used output format : Internal WAV Routines
Sample format : 44.100 Hz; 16 Bit; Stereo


TOC of the extracted CD

Track | Start | Length | Start sector | End sector
––––––––––––––––––––––––––––-
1 | 0:00.00 | 6:18.21 | 0 | 28370
2 | 6:18.21 | 4:33.00 | 28371 | 48845
3 | 10:51.21 | 3:24.14 | 48846 | 64159
4 | 14:15.35 | 6:29.35 | 64160 | 93369
5 | 20:44.70 | 12:39.39 | 93370 | 150333


Range status and errors

Selected range

Filename G:\Riverside\2007 - Rapid Eye Movement 2CD (Special Edition 2009) (Inside Out Music IOMSECD 283 Germany)\CD2\Riverside - Rapid Eye Movement (Disc Two).wav

Peak level 98.8 %
Extraction speed 2.8 X
Range quality 100.0 %
Test CRC 4E3B2F3A
Copy CRC 4E3B2F3A
Copy OK

No errors occurred


AccurateRip summary

Track 1 accurately ripped (confidence 2) [C1F22821] (AR v2)
Track 2 accurately ripped (confidence 2) [1110C818] (AR v2)
Track 3 accurately ripped (confidence 2) [FF501520] (AR v2)
Track 4 accurately ripped (confidence 2) [36B7F776] (AR v2)
Track 5 accurately ripped (confidence 2) [100010DC] (AR v2)

All tracks accurately ripped

End of status report

==== Log checksum 4B38028137D3F5519C93F07A8FAAE56FEEB3321010F1433562F215AD6561A743 ====


[CUETools log; Date: 11.09.2013 10:42:11; Version: 2.1.4]
[CTDB TOCID: a677NfOpIx5qt4GDwLVCkxXuwtg-] found.
Track | CTDB Status
1 | (8/8) Accurately ripped
2 | (8/8) Accurately ripped
3 | (8/8) Accurately ripped
4 | (8/8) Accurately ripped
5 | (8/8) Accurately ripped
[AccurateRip ID: 0005e039-001be7a7-3c07d405] found.
Track [ CRC | V2 ] Status
01 [a9fc4c2d|c1f22821] (02+02/87) Accurately ripped
02 [f32eb5e7|1110c818] (02+02/86) Accurately ripped
03 [b57bb425|ff501520] (02+02/86) Accurately ripped
04 [7572a51c|36b7f776] (02+02/86) Accurately ripped
05 [b3c84691|100010dc] (02+02/87) Accurately ripped
Offsetted by 676:
01 [7282a1c5] (58/87) Accurately ripped
02 [a0212493] (57/86) Accurately ripped
03 [b33f63e1] (57/86) Accurately ripped
04 [ddbd7334] (57/86) Accurately ripped
05 [be90caf3] (58/87) Accurately ripped

Track Peak [ CRC32 ] [W/O NULL] [ LOG ]
– 98,8 [4E3B2F3A] [3D9C18D0] CRC32
01 98,8 [44FFB547] [DBC89A83]
02 98,8 [6BF4C0A0] [F1363C2E]
03 98,8 [57427A7E] [8BEB1D73]
04 98,8 [C7477461] [B1760C94]
05 98,8 [637693EA] [A952FCFF]


Riverside: Collection (2007 - 2018)

Tracklist CD03-04. 2008 - Reality Dream (Live) 2CD (Not On Label Poland):

CD1:
01. The Same River (11:31)
02. Out of Myself (3:39)
03. Volte-Face (8:47)
04. Rainbow Box (3:36)
05. 02 Panic Room (4:09)
06. I Turned You Down (5:05)
07. Reality Dream III (4:57)
08. The Curtain Falls (9:38)

Exact Audio Copy V1.0 beta 3 from 29. August 2011

EAC extraction logfile from 10. September 2013, 11:57

Riverside / Reality Dream cd1

Used drive : TSSTcorpCDDVDW SH-224BB Adapter: 1 ID: 0

Read mode : Secure
Utilize accurate stream : Yes
Defeat audio cache : Yes
Make use of C2 pointers : No

Read offset correction : 6
Overread into Lead-In and Lead-Out : No
Fill up missing offset samples with silence : Yes
Delete leading and trailing silent blocks : No
Null samples used in CRC calculations : Yes
Used interface : Installed external ASPI interface

Used output format : Internal WAV Routines
Sample format : 44.100 Hz; 16 Bit; Stereo


TOC of the extracted CD

Track | Start | Length | Start sector | End sector
––––––––––––––––––––––––––––-
1 | 0:00.00 | 11:31.25 | 0 | 51849
2 | 11:31.25 | 3:39.06 | 51850 | 68280
3 | 15:10.31 | 8:47.35 | 68281 | 107840
4 | 23:57.66 | 3:35.49 | 107841 | 124014
5 | 27:33.40 | 4:09.26 | 124015 | 142715
6 | 31:42.66 | 5:04.57 | 142716 | 165572
7 | 36:47.48 | 4:57.15 | 165573 | 187862
8 | 41:44.63 | 9:38.12 | 187863 | 231224


Range status and errors

Selected range

Filename G:\Riverside - дискография lossless\2008 - Reality Dream (Live) 2CD (Not On Label Poland)\CD1\Riverside - Reality Dream cd1.wav

Peak level 98.8 %
Extraction speed 7.6 X
Range quality 100.0 %
Test CRC 11A20379
Copy CRC 11A20379
Copy OK

No errors occurred


AccurateRip summary

Track 1 accurately ripped (confidence 4) [DCDC79C5] (AR v1)
Track 2 accurately ripped (confidence 4) [FA500649] (AR v1)
Track 3 accurately ripped (confidence 4) [870D1D64] (AR v1)
Track 4 accurately ripped (confidence 4) [3478A6D0] (AR v1)
Track 5 accurately ripped (confidence 4) [E95C3C21] (AR v1)
Track 6 accurately ripped (confidence 4) [D3BE891B] (AR v1)
Track 7 accurately ripped (confidence 4) [B536654B] (AR v1)
Track 8 accurately ripped (confidence 4) [0512A90E] (AR v1)

All tracks accurately ripped

End of status report

==== Log checksum 2DF35A649B4D5B52C619F85DDE31FCEF84743A658751C3E97F1151193EBE81CF ====


[CUETools log; Date: 10.09.2013 12:48:46; Version: 2.1.4]
[CTDB TOCID: DN9ujXObDmprxwcddGaSyjjFJw0-] found.
Track | CTDB Status
1 | (2/2) Accurately ripped
2 | (2/2) Accurately ripped
3 | (2/2) Accurately ripped
4 | (2/2) Accurately ripped
5 | (2/2) Accurately ripped
6 | (2/2) Accurately ripped
7 | (2/2) Accurately ripped
8 | (2/2) Accurately ripped
[AccurateRip ID: 00107844-006a3073-6a0c0b08] found.
Track [ CRC | V2 ] Status
01 [dcdc79c5|15c8b3ca] (4+0/4) Accurately ripped
02 [fa500649|a542e772] (4+0/4) Accurately ripped
03 [870d1d64|e1688a52] (4+0/4) Accurately ripped
04 [3478a6d0|85e7f965] (4+0/4) Accurately ripped
05 [e95c3c21|8c86b28b] (4+0/4) Accurately ripped
06 [d3be891b|3e855fd0] (4+0/4) Accurately ripped
07 [b536654b|019edac3] (4+0/4) Accurately ripped
08 [0512a90e|7602ec8a] (4+0/4) Accurately ripped

Track Peak [ CRC32 ] [W/O NULL] [ LOG ]
– 98,8 [11A20379] [05574DC7] CRC32
01 98,8 [5634EFBC] [FED64171]
02 98,8 [5FABC25F] [760CFA7C]
03 98,8 [0028C2DA] [7762C3F8]
04 98,8 [AFB8BCE6] [D4FC9B8E]
05 98,8 [027081FB] [BF3A5840]
06 98,8 [E3B33E85] [5D0EBE29]
07 98,8 [3F2F189B] [4EEF0B18]
08 98,8 [B0A1F36A] [83AC007D]



CD2:
01. Parasomnia (7:46)
02. Second Life Syndrome (16:13)
03. Back to the River (6:16)
04. Conceiving You (3:39)
05. Before (6:08)
06. Ultimate Trip (13:46)

Exact Audio Copy V1.0 beta 3 from 29. August 2011

EAC extraction logfile from 10. September 2013, 12:40

Riverside / Reality Dream cd2

Used drive : TSSTcorpCDDVDW SH-224BB Adapter: 1 ID: 0

Read mode : Secure
Utilize accurate stream : Yes
Defeat audio cache : Yes
Make use of C2 pointers : No

Read offset correction : 6
Overread into Lead-In and Lead-Out : No
Fill up missing offset samples with silence : Yes
Delete leading and trailing silent blocks : No
Null samples used in CRC calculations : Yes
Used interface : Installed external ASPI interface

Used output format : Internal WAV Routines
Sample format : 44.100 Hz; 16 Bit; Stereo


TOC of the extracted CD

Track | Start | Length | Start sector | End sector
––––––––––––––––––––––––––––-
1 | 0:00.00 | 7:45.44 | 0 | 34918
2 | 7:45.44 | 16:12.60 | 34919 | 107878
3 | 23:58.29 | 6:15.43 | 107879 | 136046
4 | 30:13.72 | 3:39.18 | 136047 | 152489
5 | 33:53.15 | 6:08.04 | 152490 | 180093
6 | 40:01.19 | 13:46.17 | 180094 | 242060


Range status and errors

Selected range

Filename G:\Riverside - дискография lossless\2008 - Reality Dream (Live) 2CD (Not On Label Poland)\CD2\Riverside - Reality Dream cd2.wav

Peak level 98.8 %
Extraction speed 7.4 X
Range quality 99.9 %
Test CRC C81ED69C
Copy CRC C81ED69C
Copy OK

No errors occurred


AccurateRip summary

Track 1 accurately ripped (confidence 4) [ED4A8441] (AR v1)
Track 2 accurately ripped (confidence 4) [1F941CDA] (AR v1)
Track 3 accurately ripped (confidence 4) [2673605E] (AR v1)
Track 4 accurately ripped (confidence 4) [3C0D73C8] (AR v1)
Track 5 accurately ripped (confidence 4) [E504AD59] (AR v1)
Track 6 accurately ripped (confidence 4) [6719B64A] (AR v1)

All tracks accurately ripped

End of status report

==== Log checksum 8D98CB5490365AA34FB1D7A5D073088C8D2544F171C6A1D0BD2255CC88CF6565 ====


[CUETools log; Date: 10.09.2013 12:49:28; Version: 2.1.4]
[CTDB TOCID: INNd4wjX6OSuR1lubB.NMQ6npc0-] found.
Track | CTDB Status
1 | (2/2) Accurately ripped
2 | (2/2) Accurately ripped
3 | (2/2) Accurately ripped
4 | (2/2) Accurately ripped
5 | (2/2) Accurately ripped
6 | (2/2) Accurately ripped
[AccurateRip ID: 000d05f2-004448e1-3e0c9b06] found.
Track [ CRC | V2 ] Status
01 [ed4a8441|07e25c79] (4+0/4) Accurately ripped
02 [1f941cda|d92ce290] (4+0/4) Accurately ripped
03 [2673605e|cb007ef0] (4+0/4) Accurately ripped
04 [3c0d73c8|dda53ee8] (4+0/4) Accurately ripped
05 [e504ad59|195df67a] (4+0/4) Accurately ripped
06 [6719b64a|f1d2ae2e] (4+0/4) Accurately ripped

Track Peak [ CRC32 ] [W/O NULL] [ LOG ]
– 98,8 [C81ED69C] [83406C8C] CRC32
01 98,8 [ECEBCC53] [77B03B29]
02 98,8 [914AD90E] [07D70B27]
03 98,8 [34AB235D] [6F9AD9D3]
04 98,8 [85CB98A1] [F7AA66E5]
05 98,8 [28D270DF] [9C40595D]
06 98,8 [035B6A09] [40C5C288]


Riverside: Collection (2007 - 2018)

Tracklist CD05. 2008 - Schizophrenic Prayer (EP) (Mystic Production MYSTCD 053 Poland):

01. Schizophrenic Prayer (album version) (4:18)
02. Rainbow Trip (6:07)
03. Behind the Eyelids (6:10)
04. Rapid Eye Movement (12:37)
05. Schizophrenic Prayer (remix) (3:36)

Отчёт EAC об извлечении, выполненном 4. мая 2009, 21:27 для диска:
Riverside / Schizophrenic Prayer (EP)

Дисковод: ASUS DRW-2014L1T Adapter: 5 ID: 0
Режим чтения: Точный (C2: нет, Точный поток: да, Отключение кэша: да)
Коррекция смещения при чтении: 6
Экстрачтение областей Lead-in и Lead-out : Нет

Выходной формат: Внутренние WAV-операции
44.100 Гц; 16 бит; стерео

Другие параметры:
Заполнение пропущенных сэмплов тишиной : Да
Удаление блоков с тишиной в начале и конце : Нет
Установленный внешний ASPI-интерфейс


Статус диапазона и ошибки
Выбранный диапазон
Имя файла C:\Documents and Settings\Администратор\Рабочий стол\RS_SP-EP[1]\2008 - Schizophrenic Prayer (EP)\CDImage.wav

Пиковый уровень 96.6 %
Качество диапазона 100.0 %
CRC 4E0EC044
Копирование… OK

Ошибок не произошло

Конец отчёта


[CUETools log; Date: 10.09.2013 10:00:12; Version: 2.1.4]
[CTDB TOCID: NWHOdRce6oM1lBFVmoHRrVWdftQ-] found.
Track | CTDB Status
1 | (6/6) Accurately ripped
2 | (6/6) Accurately ripped
3 | (6/6) Accurately ripped
4 | (6/6) Accurately ripped
5 | (6/6) Accurately ripped
[AccurateRip ID: 0006689f-001ed686-4307b005] disk not present in database.

Track Peak [ CRC32 ] [W/O NULL]
– 96,6 [813426C0] [4E0EC044]
01 96,0 [ADBF7383] [3CC14DD7]
02 96,6 [B6037A55] [79F43FEA]
03 96,6 [0DF6E01A] [DAD6CE31]
04 96,6 [5EA24F28] [3FEC1AEB]
05 96,6 [DCB5B828] [7F0C790B]


Riverside: Collection (2007 - 2018)

Tracklist CD06-07. 2015 - Love, Fear and the Time Machine 2CD (Limited Edition Mediabook) (Mystic Production MYSTCD 288 Poland):

CD1:
01. Lost (Why Should I Be Frightened By a Hat?) (5:53)
02. Under the Pillow (6:47)
03. #Addicted (4:54)
04. Caterpillar and the Barbed Wire (6:56)
05. Saturate Me (7:09)
06. Afloat (3:13)
07. Discard Your Fear (6:43)
08. Towards the Blue Horizon (8:10)
09. Time Travellers (6:43)
10. Found (The Unexpected Flaw of Searching) (4:03)

Exact Audio Copy V1.1 from 23. June 2015

EAC extraction logfile from 27. September 2015, 18:01

Riverside / Love, Fear and the Time Machine

Used drive : ASUS DRW-24B3LT Adapter: 1 ID: 0

Read mode : Secure
Utilize accurate stream : Yes
Defeat audio cache : Yes
Make use of C2 pointers : No

Read offset correction : 6
Overread into Lead-In and Lead-Out : No
Fill up missing offset samples with silence : Yes
Delete leading and trailing silent blocks : No
Null samples used in CRC calculations : Yes
Used interface : Native Win32 interface for Win NT & 2000

Used output format : Internal WAV Routines
Sample format : 44.100 Hz; 16 Bit; Stereo


TOC of the extracted CD

Track | Start | Length | Start sector | End sector
––––––––––––––––––––––––––––-
1 | 0:00.00 | 5:52.49 | 0 | 26448
2 | 5:52.49 | 6:47.04 | 26449 | 56977
3 | 12:39.53 | 4:53.38 | 56978 | 78990
4 | 17:33.16 | 6:56.20 | 78991 | 110210
5 | 24:29.36 | 7:09.37 | 110211 | 142422
6 | 31:38.73 | 3:12.66 | 142423 | 156888
7 | 34:51.64 | 6:42.67 | 156889 | 187105
8 | 41:34.56 | 8:09.38 | 187106 | 223818
9 | 49:44.19 | 6:42.59 | 223819 | 254027
10 | 56:27.03 | 4:03.04 | 254028 | 272256


Range status and errors

Selected range

Filename D:\Osieron\Desktop\Test&Copy\Riverside - Love, Fear and the Time Machine.wav

Peak level 98.7 %
Extraction speed 5.9 X
Range quality 99.9 %
Test CRC 0BD26719
Copy CRC 0BD26719
Copy OK

No errors occurred


AccurateRip summary

Track 1 not present in database
Track 2 not present in database
Track 3 not present in database
Track 4 not present in database
Track 5 not present in database
Track 6 not present in database
Track 7 not present in database
Track 8 not present in database
Track 9 not present in database
Track 10 not present in database

None of the tracks are present in the AccurateRip database

End of status report

==== Log checksum 1EE2C2A96F80A34450B086BE0857F19AC9D3925E332088F6154D9CF03F15E5C4 ====


[CUETools log; Date: 08.10.2015 10:39:59; Version: 2.1.4]
[CTDB TOCID: tOPuIMi24fADRiUp3ufRvL1WJ8A-] found.
Track | CTDB Status
1 | (150/150) Accurately ripped
2 | (150/150) Accurately ripped
3 | (150/150) Accurately ripped
4 | (150/150) Accurately ripped
5 | (150/150) Accurately ripped
6 | (150/150) Accurately ripped
7 | (150/150) Accurately ripped
8 | (149/150) Accurately ripped
9 | (150/150) Accurately ripped
10 | (150/150) Accurately ripped
[AccurateRip ID: 0017071f-00b87a53-910e2e0a] disk not present in database.

Track Peak [ CRC32 ] [W/O NULL] [ LOG ]
– 98,7 [0BD26719] [4C21036D] CRC32
01 98,7 [C3E63B8D] [ECC9A7AB]
02 98,7 [34DA97E8] [171D7DBD]
03 98,7 [39A6E7DC] [CA2C6E33]
04 98,7 [5EFA267F] [19D16D3D]
05 98,7 [6CC8E515] [E6E7E043]
06 94,7 [4F95ECEF] [261D7E4E]
07 98,7 [B4D8133C] [45EB8501]
08 98,7 [C28A43FD] [F82FD169]
09 98,7 [4CCEB388] [261408C7]
10 98,7 [708C995D] [7814D20E]



CD2:
01. Heavenland (5:00)
02. Return (6:51)
03. Aether (8:44)
04. Machines (3:54)
05. Promise (2:44)

Exact Audio Copy V1.1 from 23. June 2015

EAC extraction logfile from 27. September 2015, 18:24

Riverside / Day Session

Used drive : ASUS DRW-24B3LT Adapter: 1 ID: 0

Read mode : Secure
Utilize accurate stream : Yes
Defeat audio cache : Yes
Make use of C2 pointers : No

Read offset correction : 6
Overread into Lead-In and Lead-Out : No
Fill up missing offset samples with silence : Yes
Delete leading and trailing silent blocks : No
Null samples used in CRC calculations : Yes
Used interface : Native Win32 interface for Win NT & 2000

Used output format : Internal WAV Routines
Sample format : 44.100 Hz; 16 Bit; Stereo


TOC of the extracted CD

Track | Start | Length | Start sector | End sector
––––––––––––––––––––––––––––-
1 | 0:00.00 | 5:00.34 | 0 | 22533
2 | 5:00.34 | 6:50.41 | 22534 | 53324
3 | 11:51.00 | 8:44.25 | 53325 | 92649
4 | 20:35.25 | 3:54.07 | 92650 | 110206
5 | 24:29.32 | 2:43.38 | 110207 | 122469


Range status and errors

Selected range

Filename D:\Osieron\Desktop\Test&Copy\Riverside - Day Session.wav

Peak level 98.7 %
Extraction speed 4.9 X
Range quality 100.0 %
Test CRC 7AEDE84E
Copy CRC 7AEDE84E
Copy OK

No errors occurred


AccurateRip summary

Track 1 not present in database
Track 2 not present in database
Track 3 not present in database
Track 4 not present in database
Track 5 not present in database

None of the tracks are present in the AccurateRip database

End of status report

==== Log checksum A6C10247DBD326D7E0EE57BDAF8DAD1FC3A5F3BFA76EB7EDBB4D7A62450538DF ====


[CUETools log; Date: 08.10.2015 10:40:28; Version: 2.1.4]
[CTDB TOCID: CAPa.WGKZ.iS74IzB0BwStouNSg-] found.
Track | CTDB Status
1 | (41/41) Accurately ripped
2 | (41/41) Accurately ripped
3 | (41/41) Accurately ripped
4 | (41/41) Accurately ripped
5 | (41/41) Accurately ripped
[AccurateRip ID: 00061f22-001c677b-2c066005] disk not present in database.

Track Peak [ CRC32 ] [W/O NULL] [ LOG ]
– 98,7 [7AEDE84E] [FD8F51DF] CRC32
01 98,7 [61A70804] [577F4F4B]
02 98,7 [0D221A1C] [A462CA6F]
03 98,7 [BB1B8268] [945FA21C]
04 98,7 [22C215C8] [91228EE7]
05 98,7 [DCDC8CAE] [9D0B87FF]


Riverside: Collection (2007 - 2018)

Tracklist CD08. 2018 - Vale Of Tears (EP) (Mystic Production Poland):

01. Vale of Tears (Album Version) (4:49)

Exact Audio Copy V1.3 from 2. September 2016

EAC extraction logfile from 28. October 2018, 16:57

Riverside / Vale of Tears (CD-S)

Used drive : ASUS DRW-24B3LT Adapter: 1 ID: 0

Read mode : Secure
Utilize accurate stream : Yes
Defeat audio cache : Yes
Make use of C2 pointers : No

Read offset correction : 6
Overread into Lead-In and Lead-Out : No
Fill up missing offset samples with silence : Yes
Delete leading and trailing silent blocks : No
Null samples used in CRC calculations : Yes
Used interface : Native Win32 interface for Win NT & 2000

Used output format : Internal WAV Routines
Sample format : 44.100 Hz; 16 Bit; Stereo


TOC of the extracted CD

Track | Start | Length | Start sector | End sector
––––––––––––––––––––––––––––-
1 | 0:00.00 | 4:48.56 | 0 | 21655


Range status and errors

Selected range

Filename D:\Osieron\My Documents\Desktop\Test&Copy\Riverside - Vale of Tears (CD-S).wav

Peak level 98.7 %
Extraction speed 3.5 X
Range quality 100.0 %
Test CRC A36ABBD1
Copy CRC A36ABBD1
Copy OK

No errors occurred


AccurateRip summary

Track 1 not present in database

None of the tracks are present in the AccurateRip database

End of status report

==== Log checksum 56E5EDD65414FFA4EEA34799D362F7760ECEF2DA19BE1E0EA3E722D251517810 ====


[CUETools log; Date: 31.03.2021 18:43:28; Version: 2.1.4]
[AccurateRip ID: 00005498-0000a931-02012001] found.
Track [ CRC | V2 ] Status
01 [70006f11|5e9755ed] (0+2/2) Accurately ripped

Track Peak [ CRC32 ] [W/O NULL] [ LOG ]
– 98,7 [A36ABBD1] [5458F381] CRC32
01 98,7 [A36ABBD1] [5458F381] CRC32


Riverside: Collection (2007 - 2018)

Tracklist CD09. 2018 - Wasteland (Mystic Production MYSTCD 346 Poland):

01. The Day After (1:48)
02. Acid Rain (6:03)
03. Vale Of Tears (4:49)
04. Guardian Angel (4:24)
05. Lament (6:11)
06. The Struggle For Survival (9:32)
07. River Down Below (5:43)
08. Wasteland (8:27)
09. The Night Before (3:59)

Exact Audio Copy V1.3 from 2. September 2016

EAC extraction logfile from 28. October 2018, 17:40

Riverside / Wasteland

Used drive : ASUS DRW-24B3LT Adapter: 1 ID: 0

Read mode : Secure
Utilize accurate stream : Yes
Defeat audio cache : Yes
Make use of C2 pointers : No

Read offset correction : 6
Overread into Lead-In and Lead-Out : No
Fill up missing offset samples with silence : Yes
Delete leading and trailing silent blocks : No
Null samples used in CRC calculations : Yes
Used interface : Native Win32 interface for Win NT & 2000

Used output format : Internal WAV Routines
Sample format : 44.100 Hz; 16 Bit; Stereo


TOC of the extracted CD

Track | Start | Length | Start sector | End sector
––––––––––––––––––––––––––––-
1 | 0:00.00 | 1:48.16 | 0 | 8115
2 | 1:48.16 | 6:02.72 | 8116 | 35337
3 | 7:51.13 | 4:48.50 | 35338 | 56987
4 | 12:39.63 | 4:24.04 | 56988 | 76791
5 | 17:03.67 | 6:10.65 | 76792 | 104606
6 | 23:14.57 | 9:31.58 | 104607 | 147489
7 | 32:46.40 | 5:43.02 | 147490 | 173216
8 | 38:29.42 | 8:27.34 | 173217 | 211275
9 | 46:57.01 | 3:58.48 | 211276 | 229173


Range status and errors

Selected range

Filename D:\Osieron\My Documents\Desktop\Test&Copy\Riverside - Wasteland.wav

Peak level 98.7 %
Extraction speed 5.7 X
Range quality 100.0 %
Test CRC 6441A981
Copy CRC 6441A981
Copy OK

No errors occurred


AccurateRip summary

Track 1 cannot be verified as accurate (confidence 1) [2D88D8D8], AccurateRip returned [579BB3A5] (AR v2)
Track 2 cannot be verified as accurate (confidence 1) [C1926F66], AccurateRip returned [A9355480] (AR v2)
Track 3 cannot be verified as accurate (confidence 1) [DD1CBF44], AccurateRip returned [1394B806] (AR v2)
Track 4 cannot be verified as accurate (confidence 1) [31A54AF6], AccurateRip returned [BA0FC735] (AR v2)
Track 5 cannot be verified as accurate (confidence 1) [67663D61], AccurateRip returned [52E6A7F5] (AR v2)
Track 6 cannot be verified as accurate (confidence 1) [487FCCBF], AccurateRip returned [4923D129] (AR v2)
Track 7 cannot be verified as accurate (confidence 1) [0B19A4E9], AccurateRip returned [3B3BAEF1] (AR v2)
Track 8 cannot be verified as accurate (confidence 1) [CD773C7E], AccurateRip returned [2047022A] (AR v2)
Track 9 cannot be verified as accurate (confidence 1) [5B4FFB54], AccurateRip returned [FA783BFB] (AR v2)

No tracks could be verified as accurate
You may have a different pressing from the one(s) in the database

End of status report

==== Log checksum 5E7C37B5B90D467AACC481162073D12BCC4CA8401166F820DC13C6FA8760DFAC ====


[CUETools log; Date: 31.03.2021 18:45:50; Version: 2.1.4]
[AccurateRip ID: 000fea36-0079a947-6e0bef09] found.
Track [ CRC | V2 ] Status
01 [7848f223|2d88d8d8] (003+049/119) Accurately ripped
02 [75e76603|c1926f66] (003+050/120) Accurately ripped
03 [6955c924|dd1cbf44] (003+050/120) Accurately ripped
04 [26c80fd8|31a54af6] (003+050/120) Accurately ripped
05 [5c980e2c|67663d61] (003+050/120) Accurately ripped
06 [90a4f56f|487fccbf] (003+050/120) Accurately ripped
07 [ee325ea8|0b19a4e9] (003+050/120) Accurately ripped
08 [c35bd536|cd773c7e] (003+050/119) Accurately ripped
09 [e2c240ec|5b4ffb54] (003+049/118) Accurately ripped
Offsetted by -12:
01 [a0bfa103] (000/119) No match (V2 was not tested)
02 [57d5996b] (000/120) No match (V2 was not tested)
03 [9b43bd98] (000/120) No match (V2 was not tested)
04 [ab0cd470] (000/120) No match (V2 was not tested)
05 [423ff01c] (000/120) No match (V2 was not tested)
06 [8847ead7] (000/120) No match (V2 was not tested)
07 [18f82b64] (000/120) No match (V2 was not tested)
08 [0e34d032] (000/119) No match (V2 was not tested)
09 [7e24ce24] (000/118) No match (V2 was not tested)

Track Peak [ CRC32 ] [W/O NULL] [ LOG ]
– 98,7 [6441A981] [8881F3E9] CRC32
01 98,7 [EFC01D00] [4A9453F5]
02 98,7 [DD17DBA3] [802943B5]
03 98,7 [5CD3607B] [5458F381]
04 98,7 [104CD180] [4C11B914]
05 98,7 [351D01D8] [C60C2E8D]
06 98,7 [70101018] [951B1B34]
07 98,7 [F0BB1AD5] [1BA87D92]
08 98,7 [0DD06C99] [795E41F1]
09 98,7 [911D601C] [F9A5459F]


All thanks go to the original releasers

Riverside in my Blog

Download Riverside: Collection (2007 - 2018):