Subcategories

Richard Brautigan - Listening To Richard Brautigan (1970) {2005 Collector's Choice} **[RE-UP]**

Posted By: TestTickles
Richard Brautigan - Listening To Richard Brautigan (1970) {2005 Collector's Choice} **[RE-UP]**

Richard Brautigan - Listening To Richard Brautigan (1970) {2005 Collector's Choice}
EAC Rip | FLAC with CUE and log | scans | 312 mb
MP3 CBR 320kbps | RAR | 132 mb
Genre: spoken word, poetry

Listening To Richard Brautigan was the first and only album released by poet and writer Richard Brautigan. The album was recorded and originally meant for release in 1969 on The Beatles' Apple Records subsidiary, Zapple. The label released works by George Harrison and John Lennon & Yoko Ono, but it only went as far as two releases before The Beatles' manager at the time, Allen Klein, decided to shelve its release, despite it getting an acetate made by Apple. The album would be released by EMI subsidiary Harvest Records. This comes from a CD release made by Collector's Choice in 2005.

Richard Brautigan - Listening To Richard Brautigan (1970) {2005 Collector's Choice} **[RE-UP]**

01. The Telephone Door To Richard Brautigan
02. Trout Fishing In America
03. Love Poem
04. A Confederate General From Big Sur
05. Here Are The Sounds Of My Life In San Francisco
06. The Pill Versus The Springhill Mine Disaster
07. Revenge Of The Lawn
08. The Telephone Door That Leads Eventually To Some Love Poems
09. In Watermelon Sugar
10. Here Are Some More Sounds Of My Life
11. Short Stories About California
12. Boo, Forever

Richard Brautigan - Listening To Richard Brautigan (1970) {2005 Collector's Choice} **[RE-UP]**


EAC extraction logfile from 13. November 2007, 16:39 for CD
Richard Brautigan / Listening To Richard Brautigan

Used drive : LITE-ON DVDRW SOHW-1633S Adapter: 0 ID: 0
Read mode : Secure with NO C2, accurate stream, disable cache
Read offset correction : 12
Overread into Lead-In and Lead-Out : No

Used output format : Internal WAV Routines
44.100 Hz; 16 Bit; Stereo

Other options :
Fill up missing offset samples with silence : Yes
Delete leading and trailing silent blocks : No
Installed external ASPI interface


Track 1
Filename D:\FLAC\Richard Brautigan - Listening To Richard Brautigan (1970) [FLAC] {2005 Collector's Choice}\01 - The Telephone Door To Richard Brautigan.wav

Pre-gap length 0:00:02.00

Peak level 97.7 %
Track quality 100.0 %
Test CRC 55EA3FB3
Copy CRC 55EA3FB3
Copy OK

Track 2
Filename D:\FLAC\Richard Brautigan - Listening To Richard Brautigan (1970) [FLAC] {2005 Collector's Choice}\02 - Trout Fishing In America.wav

Pre-gap length 0:00:02.80

Peak level 97.7 %
Track quality 100.0 %
Test CRC F3F1D3DE
Copy CRC F3F1D3DE
Copy OK

Track 3
Filename D:\FLAC\Richard Brautigan - Listening To Richard Brautigan (1970) [FLAC] {2005 Collector's Choice}\03 - Love Poem.wav

Pre-gap length 0:00:02.80

Peak level 97.7 %
Track quality 100.0 %
Test CRC 6860C17A
Copy CRC 6860C17A
Copy OK

Track 4
Filename D:\FLAC\Richard Brautigan - Listening To Richard Brautigan (1970) [FLAC] {2005 Collector's Choice}\04 - A Confederate General From Big Sur.wav

Pre-gap length 0:00:02.80

Peak level 97.7 %
Track quality 100.0 %
Test CRC CBE080CE
Copy CRC CBE080CE
Copy OK

Track 5
Filename D:\FLAC\Richard Brautigan - Listening To Richard Brautigan (1970) [FLAC] {2005 Collector's Choice}\05 - Here Are The Sounds Of My Life In San Francisco.wav

Pre-gap length 0:00:02.80

Peak level 97.7 %
Track quality 100.0 %
Test CRC C7D6CA33
Copy CRC C7D6CA33
Copy OK

Track 6
Filename D:\FLAC\Richard Brautigan - Listening To Richard Brautigan (1970) [FLAC] {2005 Collector's Choice}\06 - The Pill Versus The Springhill Mine Disaster.wav

Pre-gap length 0:00:02.80

Peak level 97.7 %
Track quality 100.0 %
Test CRC 8EFCF32A
Copy CRC 8EFCF32A
Copy OK

Track 7
Filename D:\FLAC\Richard Brautigan - Listening To Richard Brautigan (1970) [FLAC] {2005 Collector's Choice}\07 - Revenge Of The Lawn.wav

Pre-gap length 0:00:02.80

Peak level 77.6 %
Track quality 99.9 %
Test CRC D8E9FDD0
Copy CRC D8E9FDD0
Copy OK

Track 8
Filename D:\FLAC\Richard Brautigan - Listening To Richard Brautigan (1970) [FLAC] {2005 Collector's Choice}\08 - The Telephone Door That Leads Eventually To Some Love Poems.wav

Pre-gap length 0:00:02.80

Peak level 97.7 %
Track quality 100.0 %
Test CRC 65B628A3
Copy CRC 65B628A3
Copy OK

Track 9
Filename D:\FLAC\Richard Brautigan - Listening To Richard Brautigan (1970) [FLAC] {2005 Collector's Choice}\09 - In Watermelon Sugar.wav

Pre-gap length 0:00:02.80

Peak level 97.7 %
Track quality 100.0 %
Test CRC 0DE701E2
Copy CRC 0DE701E2
Copy OK

Track 10
Filename D:\FLAC\Richard Brautigan - Listening To Richard Brautigan (1970) [FLAC] {2005 Collector's Choice}\10 - Here Are Some More Sounds Of My Life.wav

Pre-gap length 0:00:02.80

Peak level 97.7 %
Track quality 100.0 %
Test CRC 530274BF
Copy CRC 530274BF
Copy OK

Track 11
Filename D:\FLAC\Richard Brautigan - Listening To Richard Brautigan (1970) [FLAC] {2005 Collector's Choice}\11 - Short Stories About California.wav

Pre-gap length 0:00:02.60

Peak level 98.8 %
Track quality 100.0 %
Test CRC 1352C79C
Copy CRC 1352C79C
Copy OK

Track 12
Filename D:\FLAC\Richard Brautigan - Listening To Richard Brautigan (1970) [FLAC] {2005 Collector's Choice}\12 - Boo, Forever.wav

Pre-gap length 0:00:02.80

Peak level 97.7 %
Track quality 100.0 %
Test CRC 1D179DDA
Copy CRC 1D179DDA
Copy OK

No errors occured


End of status report
NITROFLARE (FLAC)
NITROFLARE (MP3)