Tags
Language
Tags

Richard Marx - Ballads (1994) {Capitol Japan}

Posted By: TestTickles
Richard Marx - Ballads (1994) {Capitol Japan}

Richard Marx - Ballads (1994) {Capitol Japan}
EAC Rip | FLAC with CUE and log | scans | 411 mb
MP3 CBR 320kbps | RAR | 184 mb
Genre: pop

Ballads is a 1994 compilation by American vocalist Richard Marx. Titled Ballads (Then, Now And Forever) elsewhere, the Japanese market was exquisite by limiting the title to just one word but featuring the same amount of massivity. This was released on Capitol.

Richard Marx - Ballads (1994) {Capitol Japan}

01. Now And Forever
02. Keep Coming Back
03. Hold On To The Nights
04. Silent Scream
05. Angelia
06. Right Here Waiting
07. Hazard
08. Children Of The Night
09. Endless Summer Nights
10. Now And Forever (Live Version)
11. Chains Around My Heart
12. Heaven Only Knows

Exact Audio Copy V1.1 from 23. June 2015

EAC extraction logfile from 24. July 2018, 08:34

Richard Marx / Ballads

Used drive : ASUS DRW-1612BL Adapter: 2 ID: 0

Read mode : Secure
Utilize accurate stream : Yes
Defeat audio cache : Yes
Make use of C2 pointers : No

Read offset correction : 6
Overread into Lead-In and Lead-Out : No
Fill up missing offset samples with silence : Yes
Delete leading and trailing silent blocks : No
Null samples used in CRC calculations : Yes
Used interface : Installed external ASPI interface
Gap handling : Appended to previous track

Used output format : User Defined Encoder
Selected bitrate : 128 kBit/s
Quality : High
Add ID3 tag : No
Command line compressor : C:\cuntfist\FLAC\Program Files\EAC\Exact Audio Copy\Flac\flac.exe
Additional command line options : -V -8 -T "Genre=%genre%" -T "Artist=%artist%" -T "Title=%title%" -T "Album=%albumtitle%" -T "Date=%year%" -T "Tracknumber=%tracknr%" -T "Comment=%comment%" %source%


TOC of the extracted CD

Track | Start | Length | Start sector | End sector
––––––––––––––––––––––––––––-
1 | 0:00.00 | 3:34.57 | 0 | 16106
2 | 3:34.57 | 5:27.15 | 16107 | 40646
3 | 9:01.72 | 4:23.58 | 40647 | 60429
4 | 13:25.55 | 3:52.25 | 60430 | 77854
5 | 17:18.05 | 4:10.35 | 77855 | 96639
6 | 21:28.40 | 4:24.10 | 96640 | 116449
7 | 25:52.50 | 4:48.40 | 116450 | 138089
8 | 30:41.15 | 4:44.22 | 138090 | 159411
9 | 35:25.37 | 4:15.20 | 159412 | 178556
10 | 39:40.57 | 3:47.70 | 178557 | 195651
11 | 43:28.52 | 4:42.48 | 195652 | 216849
12 | 48:11.25 | 5:39.20 | 216850 | 242294


Track 1

Filename C:\cuntfist\FLAC\Richard Marx - Ballads (1994) [FLAC] {Capitol Japan}\01 - Now And Forever.wav

Pre-gap length 0:00:02.00

Peak level 45.3 %
Extraction speed 2.1 X
Track quality 99.9 %
Test CRC DD33A301
Copy CRC DD33A301
Accurately ripped (confidence 11) [B8C3C243] (AR v2)
Copy OK

Track 2

Filename C:\cuntfist\FLAC\Richard Marx - Ballads (1994) [FLAC] {Capitol Japan}\02 - Keep Coming Back.wav

Pre-gap length 0:00:01.05

Peak level 83.4 %
Extraction speed 4.3 X
Track quality 100.0 %
Test CRC 5D061BE9
Copy CRC 5D061BE9
Accurately ripped (confidence 11) [F65239C6] (AR v2)
Copy OK

Track 3

Filename C:\cuntfist\FLAC\Richard Marx - Ballads (1994) [FLAC] {Capitol Japan}\03 - Hold On To The Nights.wav

Pre-gap length 0:00:01.35

Peak level 78.0 %
Extraction speed 3.0 X
Track quality 100.0 %
Test CRC D96F5E16
Copy CRC D96F5E16
Accurately ripped (confidence 11) [B04D7696] (AR v2)
Copy OK

Track 4

Filename C:\cuntfist\FLAC\Richard Marx - Ballads (1994) [FLAC] {Capitol Japan}\04 - Silent Scream.wav

Pre-gap length 0:00:01.30

Peak level 68.4 %
Extraction speed 4.7 X
Track quality 100.0 %
Test CRC 36983F48
Copy CRC 36983F48
Accurately ripped (confidence 10) [3D56AA90] (AR v2)
Copy OK

Track 5

Filename C:\cuntfist\FLAC\Richard Marx - Ballads (1994) [FLAC] {Capitol Japan}\05 - Angelia.wav

Pre-gap length 0:00:00.45

Peak level 94.3 %
Extraction speed 5.7 X
Track quality 100.0 %
Test CRC E55A2036
Copy CRC E55A2036
Accurately ripped (confidence 11) [D14BDEB3] (AR v2)
Copy OK

Track 6

Filename C:\cuntfist\FLAC\Richard Marx - Ballads (1994) [FLAC] {Capitol Japan}\06 - Right Here Waiting.wav

Pre-gap length 0:00:01.03

Peak level 79.4 %
Extraction speed 6.1 X
Track quality 100.0 %
Test CRC A4BB0381
Copy CRC A4BB0381
Accurately ripped (confidence 11) [DB78D402] (AR v2)
Copy OK

Track 7

Filename C:\cuntfist\FLAC\Richard Marx - Ballads (1994) [FLAC] {Capitol Japan}\07 - Hazard.wav

Pre-gap length 0:00:00.55

Peak level 66.7 %
Extraction speed 6.4 X
Track quality 100.0 %
Test CRC 1E90C30C
Copy CRC 1E90C30C
Accurately ripped (confidence 11) [875D3473] (AR v2)
Copy OK

Track 8

Filename C:\cuntfist\FLAC\Richard Marx - Ballads (1994) [FLAC] {Capitol Japan}\08 - Children Of The Night.wav

Pre-gap length 0:00:01.43

Peak level 84.4 %
Extraction speed 6.8 X
Track quality 100.0 %
Test CRC E57036AE
Copy CRC E57036AE
Accurately ripped (confidence 11) [ABF9B343] (AR v2)
Copy OK

Track 9

Filename C:\cuntfist\FLAC\Richard Marx - Ballads (1994) [FLAC] {Capitol Japan}\09 - Endless Summer Nights.wav

Pre-gap length 0:00:01.02

Peak level 86.1 %
Extraction speed 6.1 X
Track quality 99.9 %
Test CRC AE35AFE8
Copy CRC AE35AFE8
Accurately ripped (confidence 10) [DC0EC9EA] (AR v2)
Copy OK

Track 10

Filename C:\cuntfist\FLAC\Richard Marx - Ballads (1994) [FLAC] {Capitol Japan}\10 - Now And Forever (Live Version).wav

Pre-gap length 0:00:01.17

Peak level 61.7 %
Extraction speed 7.0 X
Track quality 100.0 %
Test CRC F1B3526C
Copy CRC F1B3526C
Accurately ripped (confidence 11) [03C104BA] (AR v2)
Copy OK

Track 11

Filename C:\cuntfist\FLAC\Richard Marx - Ballads (1994) [FLAC] {Capitol Japan}\11 - Chains Around My Heart.wav

Pre-gap length 0:00:01.50

Peak level 97.7 %
Extraction speed 7.4 X
Track quality 100.0 %
Test CRC 49DFEF36
Copy CRC 49DFEF36
Accurately ripped (confidence 11) [B5418419] (AR v2)
Copy OK

Track 12

Filename C:\cuntfist\FLAC\Richard Marx - Ballads (1994) [FLAC] {Capitol Japan}\12 - Heaven Only Knows.wav

Pre-gap length 0:00:01.10

Peak level 100.0 %
Extraction speed 7.1 X
Track quality 99.9 %
Test CRC F6214098
Copy CRC F6214098
Accurately ripped (confidence 10) [4AD7069D] (AR v2)
Copy OK


All tracks accurately ripped

No errors occurred

End of status report

–– CUETools DB Plugin V2.1.6

[CTDB TOCID: x71fNdS7yrs1u7U8AYGat05VOxk-] found
Submit result: x71fNdS7yrs1u7U8AYGat05VOxk- has been confirmed
Track | CTDB Status
1 | (57/60) Accurately ripped
2 | (56/60) Accurately ripped
3 | (58/60) Accurately ripped
4 | (59/60) Accurately ripped
5 | (58/60) Accurately ripped
6 | (58/60) Accurately ripped
7 | (57/60) Accurately ripped
8 | (57/60) Accurately ripped
9 | (57/60) Accurately ripped
10 | (59/60) Accurately ripped
11 | (56/60) Accurately ripped
12 | (55/60) Accurately ripped


==== Log checksum 27036462A9FD2E1056690F844360633416457BB6106967DEE2F5623A3E81ECDF ====


Richard Marx - Ballads (1994) {Capitol Japan}


Thank you to the original uploader.