Subcategories

Robert Plant - Sixty Six To Timbuktu (2003) [Special Edition, 2CD] Digipak

Posted By: Andi_Deris
Robert Plant - Sixty Six To Timbuktu (2003) [Special Edition, 2CD] Digipak

Robert Plant - Sixty Six To Timbuktu (2003) [Special Edition, 2CD] Digipak
EAC Rip | FLAC: Image+Cue+Log | 999 Mb | MP3 CBR 320 kbps | 404 Mb | Scans | 143 Mb | Time: 01:14:07 + 01:12:59
Genre: Classic Rock, Hard Rock, Blues Rock | Label: Mercury Records Ltd. | Cat.: 981 319-9

"Sixty Six To Timbuktu" is a double disc set of 35 songs spanning the career of this seminal artist from 1966 to present. It features previously unreleased tracks, limited release tracks, and classics from Robert Plant as well as The Honeydrippers.

Disc one assembles 16 songs from eight post-Zeppelin albums: the quartet's influence is audible in Tie Dye on the Highway or Tall Cool One, but you start to get a glimpse of the breadth of Plant's musical sympathies in his versions of Tim Buckley's Song to the Siren and the R&B standard Sea of Love.

The second disc covers his pre-Zep work with the Band of Joy (when Plant teamed up with Zep drummer John Bonham) and with Brit-blues doyen Alexis Korner, before voyaging out into Plant's latter-day fascination with techno, drum'n'bass and what, for some reason, we have to call world music. Look at it this way: if Zep hadn't bitten the dust, we would never have heard most of this amazing music.

Robert Plant - Sixty Six To Timbuktu (2003) [Special Edition, 2CD] Digipak

Robert Plant - Sixty Six To Timbuktu (2003) [Special Edition, 2CD] Digipak




Robert Plant - Sixty Six To Timbuktu (2003) [Special Edition, 2CD] Digipak


DISC ONE

01. Tie Dye On The Highway (5:10)
02. Upside Down (4:11)
03. Promised Land (4:59)
04. Tall Cool One (4:38)
05. Dirt In A Hole (4:44)
06. Calling To You (5:50)
07. 29 Palms (4:51)
08. If I Were A Carpenter (3:47)
09. Sea Of Love (3:05)
10. Darkness, Darkness (5:03)
11. Big Log (5:04)
12. Ship Of Fools (4:58)
13. I Believe (4:54)
14. Little By Little (4:42)
15. Heaven Knows (4:04)
16. Song To The Siren (4:06)

Robert Plant - Sixty Six To Timbuktu (2003) [Special Edition, 2CD] Digipak


DISC TWO

01. You'd Better Run (2:30)
02. Our Song (2:32)
03. Hey Joe (4:59)
04. For What It's Worth (3:30)
05. Operator (4:36)
06. Road To The Sun (5:36)
07. Philadelphia Baby (2:14)
08. Red For Danger (3:39)
09. Let's Have A Party (3:41)
10. Hey Jayne (5:23)
11. Louie, Louie (2:53)
12. Naked If I Want To (0:47)
13. 21 Years (3:31)
14. If It's Really Got To Be This Way (3:59)
15. Rude World (3:45)
16. Little Hands (4:20)
17. Life Begin Again (6:20)
18. Let The Boogie Woogie Roll (2:37)
19. Win My Train Fare Home (Live in Timbuktu) (6:09)

Notes

Remastering by John Dent and restoration by Jason Mitchell at LOUD
Compiled and Devised by Robert Plant

Exact Audio Copy V1.0 beta 3 from 29. August 2011

EAC extraction logfile from 22. December 2013, 21:18

Robert Plant / Sixty Six To Timbuktu (CD 1)

Used drive : PLEXTOR DVDR PX-L890SA Adapter: 1 ID: 0

Read mode : Secure
Utilize accurate stream : Yes
Defeat audio cache : Yes
Make use of C2 pointers : No

Read offset correction : 6
Overread into Lead-In and Lead-Out : No
Fill up missing offset samples with silence : Yes
Delete leading and trailing silent blocks : No
Null samples used in CRC calculations : Yes
Used interface : Native Win32 interface for Win NT & 2000

Used output format : User Defined Encoder
Selected bitrate : 768 kBit/s
Quality : High
Add ID3 tag : No
Command line compressor : G:\Program Files\Exact Audio Copy\FLAC\FLAC.EXE
Additional command line options : -V -8 -T "Date=%year%" -T "Genre=%genre%" %source%


TOC of the extracted CD

Track | Start | Length | Start sector | End sector
––––––––––––––––––––––––––––-
1 | 0:00.00 | 5:09.60 | 0 | 23234
2 | 5:09.60 | 4:10.55 | 23235 | 42039
3 | 9:20.40 | 4:59.33 | 42040 | 64497
4 | 14:19.73 | 4:37.57 | 64498 | 85329
5 | 18:57.55 | 4:44.05 | 85330 | 106634
6 | 23:41.60 | 5:49.65 | 106635 | 132874
7 | 29:31.50 | 4:51.13 | 132875 | 154712
8 | 34:22.63 | 3:47.17 | 154713 | 171754
9 | 38:10.05 | 3:04.55 | 171755 | 185609
10 | 41:14.60 | 5:03.25 | 185610 | 208359
11 | 46:18.10 | 5:03.53 | 208360 | 231137
12 | 51:21.63 | 4:58.25 | 231138 | 253512
13 | 56:20.13 | 4:54.27 | 253513 | 275589
14 | 61:14.40 | 4:41.50 | 275590 | 296714
15 | 65:56.15 | 4:04.00 | 296715 | 315014
16 | 70:00.15 | 4:06.13 | 315015 | 333477
17 | 76:38.28 | 3:15.43 | 344878 | 359545


Range status and errors

Selected range

Filename H:\Robert Plant Off\Robert Plant - Discography\2003. Sixty Six To Timbuktu\2003. Robert Plant - Sixty Six To Timbuktu (Mercury 981 319-9, EU)\Disc1\Sixty Six To Timbuktu (CD 1).wav

Peak level 100.0 %
Extraction speed 3.6 X
Range quality 100.0 %
Test CRC D65A4427
Copy CRC D65A4427
Copy OK

No errors occurred


AccurateRip summary

Track 1 accurately ripped (confidence 17) [0C5E5546] (AR v2)
Track 2 accurately ripped (confidence 17) [067560F7] (AR v2)
Track 3 accurately ripped (confidence 17) [4362BC9C] (AR v2)
Track 4 accurately ripped (confidence 17) [BA6DD6FE] (AR v2)
Track 5 accurately ripped (confidence 17) [DCC2EDF9] (AR v2)
Track 6 accurately ripped (confidence 17) [CDBCD1BA] (AR v2)
Track 7 accurately ripped (confidence 17) [8A3FE4C6] (AR v2)
Track 8 accurately ripped (confidence 17) [EF8AE7EB] (AR v2)
Track 9 accurately ripped (confidence 17) [3996541A] (AR v2)
Track 10 accurately ripped (confidence 17) [C9FE4FAB] (AR v2)
Track 11 accurately ripped (confidence 17) [D91D341B] (AR v2)
Track 12 accurately ripped (confidence 17) [BD0BA267] (AR v2)
Track 13 accurately ripped (confidence 17) [64CB87AD] (AR v2)
Track 14 accurately ripped (confidence 17) [38F3A2DE] (AR v2)
Track 15 accurately ripped (confidence 17) [B825794A] (AR v2)
Track 16 accurately ripped (confidence 17) [17D203F0] (AR v2)

All tracks accurately ripped

End of status report

–– CUETools DB Plugin V2.1.3

[CTDB TOCID: oIQjx758JuXDH8YiPXd3r9awga4-] found, Submit result: oIQjx758JuXDH8YiPXd3r9awga4- has been confirmed
[edb18eef] (7/8) Accurately ripped
[fa3f45d9] (1/8) No match


==== Log checksum EDEF2418031568FE9F025AAAB07FD7A86DAD878DD78B1A0AB9AAAB175785C776 ====

Exact Audio Copy V1.0 beta 3 from 29. August 2011

EAC extraction logfile from 22. December 2013, 21:55

Robert Plant / Sixty Six To Timbuktu - The Very Best Of 2

Used drive : PLEXTOR DVDR PX-L890SA Adapter: 1 ID: 0

Read mode : Secure
Utilize accurate stream : Yes
Defeat audio cache : Yes
Make use of C2 pointers : No

Read offset correction : 6
Overread into Lead-In and Lead-Out : No
Fill up missing offset samples with silence : Yes
Delete leading and trailing silent blocks : No
Null samples used in CRC calculations : Yes
Used interface : Native Win32 interface for Win NT & 2000

Used output format : User Defined Encoder
Selected bitrate : 768 kBit/s
Quality : High
Add ID3 tag : No
Command line compressor : G:\Program Files\Exact Audio Copy\FLAC\FLAC.EXE
Additional command line options : -V -8 -T "Date=%year%" -T "Genre=%genre%" %source%


TOC of the extracted CD

Track | Start | Length | Start sector | End sector
––––––––––––––––––––––––––––-
1 | 0:00.00 | 2:29.45 | 0 | 11219
2 | 2:29.45 | 2:31.60 | 11220 | 22604
3 | 5:01.30 | 4:58.33 | 22605 | 44987
4 | 9:59.63 | 3:30.22 | 44988 | 60759
5 | 13:30.10 | 4:36.23 | 60760 | 81482
6 | 18:06.33 | 5:35.52 | 81483 | 106659
7 | 23:42.10 | 2:13.73 | 106660 | 116707
8 | 25:56.08 | 3:38.45 | 116708 | 133102
9 | 29:34.53 | 3:40.42 | 133103 | 149644
10 | 33:15.20 | 5:23.13 | 149645 | 173882
11 | 38:38.33 | 2:52.62 | 173883 | 186844
12 | 41:31.20 | 0:46.73 | 186845 | 190367
13 | 42:18.18 | 3:30.40 | 190368 | 206157
14 | 45:48.58 | 3:59.17 | 206158 | 224099
15 | 49:48.00 | 3:45.10 | 224100 | 240984
16 | 53:33.10 | 4:19.35 | 240985 | 260444
17 | 57:52.45 | 6:19.35 | 260445 | 288904
18 | 64:12.05 | 2:36.55 | 288905 | 300659
19 | 66:48.60 | 6:09.10 | 300660 | 328344
20 | 75:29.70 | 3:27.48 | 339745 | 355317


Range status and errors

Selected range

Filename H:\Robert Plant Off\Robert Plant - Discography\2003. Sixty Six To Timbuktu\2003. Robert Plant - Sixty Six To Timbuktu (Mercury 981 319-9, EU)\Disc2\Sixty Six To Timbuktu (CD2).wav

Peak level 100.0 %
Extraction speed 3.5 X
Range quality 99.9 %
Test CRC 1C4C87F3
Copy CRC 1C4C87F3
Copy OK

No errors occurred


AccurateRip summary

Track 1 accurately ripped (confidence 20) [6BBF0EC2] (AR v2)
Track 2 accurately ripped (confidence 20) [E1CC7FE1] (AR v2)
Track 3 accurately ripped (confidence 20) [372D7FAF] (AR v2)
Track 4 accurately ripped (confidence 20) [6A108232] (AR v2)
Track 5 accurately ripped (confidence 20) [5BE343AB] (AR v2)
Track 6 accurately ripped (confidence 19) [4FAABE99] (AR v2)
Track 7 accurately ripped (confidence 20) [B3E8D77B] (AR v2)
Track 8 accurately ripped (confidence 20) [8C898FF2] (AR v2)
Track 9 accurately ripped (confidence 20) [8C6EC708] (AR v2)
Track 10 accurately ripped (confidence 20) [7C9588DA] (AR v2)
Track 11 accurately ripped (confidence 20) [2819D4B9] (AR v2)
Track 12 accurately ripped (confidence 20) [6082616C] (AR v2)
Track 13 accurately ripped (confidence 20) [09ED41C0] (AR v2)
Track 14 accurately ripped (confidence 19) [CE658996] (AR v2)
Track 15 accurately ripped (confidence 20) [9E4F03E8] (AR v2)
Track 16 accurately ripped (confidence 20) [F986AA69] (AR v2)
Track 17 accurately ripped (confidence 20) [D22211C2] (AR v2)
Track 18 accurately ripped (confidence 20) [758F7297] (AR v2)
Track 19 accurately ripped (confidence 20) [EB4BA89F] (AR v2)

All tracks accurately ripped

End of status report

–– CUETools DB Plugin V2.1.3

[CTDB TOCID: ZlCHpcazxiYXN5dtverCKWoNSWU-] found, Submit result: ZlCHpcazxiYXN5dtverCKWoNSWU- has been confirmed
[b86a68cb] (9/9) Accurately ripped


==== Log checksum D82CE1DD838E0C8969D1ABEB5493FF37B8C452E8596483AFB5489D3F08367259 ====


Many thanks to the original uploader: snakesharmer