Tags
Language
Tags

Robert King, The King's Consort - Bach's Contemporaries II: Sacred Music by Sebastian Knüpfer (2000)

Posted By: ArlegZ
Robert King, The King's Consort - Bach's Contemporaries II: Sacred Music by Sebastian Knüpfer (2000)

Robert King, The King's Consort - Bach's Contemporaries II: Sacred Music by Sebastian Knüpfer (2000)
EAC | FLAC | Image (Cue & Log) ~ 338 Mb | Total time: 79:38 | Scans included
Classical | Label: Hyperion | # CDA67160 | Recorded: 1999

Sebastian Knüpfer is yet another Baroque composer whose reputation and popularity have been overshadowed by J S Bach. Little of Knüpfer's music has previously been transcribed from its many manuscripts, let alone published. However, in his day Knüpfer was a respected and highly sought-after composer; his compositions were admired by his contemporaries and, according to his obituary, he 'composed quotations of the Psalms and other Biblical books with such sweetness and skilfulness that he delighted even the saddest hearts, and his name is spoken with admiration not only in Leipzig but also outside'.
As we have come to expect from Robert King and his King's Consort, the performances are of the highest standard with some of the finest singers on the early music platform today.

Performer:
Carolyn Sampson, soprano
Rebecca Outram, soprano
James Bowman, countertenor
Robin Blaze, countertenor
Charles Daniels, tenor
James Gilchrist, tenor
Peter Harvey, bass
Michael George, bass
The King's Consort
Robert King, conductor

Track List:
Sebastian Knüpfer (1633-1676)
Vom Himmel hoch, da komm ich her
01. Vom Himmel hoch, da komm ich her
02. Kommt, lasst uns gehen in die Stadt
03. Alleluia: Gelobet sei Gott
Was mein Gott will, das gescheh allzeit
04. Was mein Gott will, das gescheh allzeit
05. Gott ist mein Trost, mein' Zuversicht
06. Noch eins, Herr, will ich bitten dich
Wenn mein Stündlein vorhanden ist
07. Wenn mein Stündlein vorhanden ist
08. Ich bin ein Glied an deinem Leib
Ach Herr, strafe mich nicht in deinem Zorn
09. Ach Herr, strafe mich nicht in deinem Zorn
10. Denn im Tode gedenket man dein nicht
11. Weichet alle von mir, ihr Übeltäter
12. Quemadmodum desiderat cervus
Super flumina Babylonis
13. Super flumina Babylonis
14. Si oblitus fuero tui, Jerusalem
15. Exinanite, usque ad fundamentum
Jesus Christus, unser Heiland
16. Jesus Christus, unser Heiland
17. Der ohn' Sünde war geboren
18. Tod, Sünd, Teuffel, Leben und Genadt
Die Turteltaube lässt sich hören
19. Die Turteltaube lässt sich hören
20. Ich will den Vater bitten
21. Ihr werdet sehen und euer Herz wird sich freuen
22. Gelobet sei Gott und der Vater


Exact Audio Copy V1.3 from 2. September 2016

EAC extraction logfile from 5. May 2021, 10:26

The King's Consort & Robert King / Knüpfer . Sacred Music . King

Used drive : HL-DT-STDVD+-RW GT10N Adapter: 1 ID: 1

Read mode : Secure
Utilize accurate stream : Yes
Defeat audio cache : Yes
Make use of C2 pointers : No

Read offset correction : 102
Overread into Lead-In and Lead-Out : No
Fill up missing offset samples with silence : Yes
Delete leading and trailing silent blocks : No
Null samples used in CRC calculations : Yes
Used interface : Native Win32 interface for Win NT & 2000

Used output format : User Defined Encoder
Selected bitrate : 1024 kBit/s
Quality : High
Add ID3 tag : No
Command line compressor : C:\Program Files (x86)\Exact Audio Copy\FLAC\FLAC.EXE
Additional command line options : -6 -V -T "ARTIST=%artist%" -T "TITLE=%title%" -T "ALBUM=%albumtitle%" -T "DATE=%year%" -T "TRACKNUMBER=%tracknr%" -T "GENRE=%genre%" -T "COMMENT=%comment%" -T "BAND=%albuminterpret%" -T "ALBUMARTIST=%albuminterpret%" -T "COMPOSER=%composer%" %haslyrics%–tag-from-file=LYRICS="%lyricsfile%"%haslyrics% -T "DISCNUMBER=%cdnumber%" -T "TOTALDISCS=%totalcds%" -T "TOTALTRACKS=%numtracks%" %hascover%–picture="%coverfile%"%hascover% %source% -o %dest%


TOC of the extracted CD

Track | Start | Length | Start sector | End sector
––––––––––––––––––––––––––––-
1 | 0:00.00 | 3:54.52 | 0 | 17601
2 | 3:54.52 | 4:26.25 | 17602 | 37576
3 | 8:21.02 | 3:11.13 | 37577 | 51914
4 | 11:32.15 | 4:54.17 | 51915 | 73981
5 | 16:26.32 | 3:42.48 | 73982 | 90679
6 | 20:09.05 | 3:04.45 | 90680 | 104524
7 | 23:13.50 | 3:56.02 | 104525 | 122226
8 | 27:09.52 | 4:18.30 | 122227 | 141606
9 | 31:28.07 | 4:44.58 | 141607 | 162964
10 | 36:12.65 | 4:57.45 | 162965 | 185284
11 | 41:10.35 | 2:33.55 | 185285 | 196814
12 | 43:44.15 | 5:20.10 | 196815 | 220824
13 | 49:04.25 | 3:56.02 | 220825 | 238526
14 | 53:00.27 | 2:16.35 | 238527 | 248761
15 | 55:16.62 | 3:05.70 | 248762 | 262706
16 | 58:22.57 | 4:39.10 | 262707 | 283641
17 | 63:01.67 | 2:54.43 | 283642 | 296734
18 | 65:56.35 | 3:05.10 | 296735 | 310619
19 | 69:01.45 | 2:01.50 | 310620 | 319744
20 | 71:03.20 | 2:52.47 | 319745 | 332691
21 | 73:55.67 | 1:28.23 | 332692 | 339314
22 | 75:24.15 | 4:12.47 | 339315 | 358261


Range status and errors

Selected range

Filename C:\_RIPs\BACH'S CONTEMPORARIES . KING\BC-2 Knüpfer . Sacred Music . King\BC2-Knupfer-Sacred_Music-King.wav

Peak level 100.0 %
Extraction speed 2.2 X
Range quality 99.9 %
Test CRC 482BE4F7
Copy CRC 482BE4F7
Copy OK

No errors occurred


AccurateRip summary

Track 1 accurately ripped (confidence 10) [77916CDB] (AR v2)
Track 2 accurately ripped (confidence 10) [A18796D9] (AR v2)
Track 3 accurately ripped (confidence 10) [AB389668] (AR v2)
Track 4 accurately ripped (confidence 10) [AD75D92E] (AR v2)
Track 5 accurately ripped (confidence 10) [CB48F3C1] (AR v2)
Track 6 accurately ripped (confidence 10) [4FD7EE19] (AR v2)
Track 7 accurately ripped (confidence 10) [83D151F5] (AR v2)
Track 8 accurately ripped (confidence 10) [F48BCEA7] (AR v2)
Track 9 accurately ripped (confidence 10) [97E769DD] (AR v2)
Track 10 accurately ripped (confidence 10) [45ADA459] (AR v2)
Track 11 accurately ripped (confidence 10) [3CAEB82A] (AR v2)
Track 12 accurately ripped (confidence 10) [BD0ECDA2] (AR v2)
Track 13 accurately ripped (confidence 10) [EE014934] (AR v2)
Track 14 accurately ripped (confidence 10) [05B3707E] (AR v2)
Track 15 accurately ripped (confidence 10) [92F9FBFE] (AR v2)
Track 16 accurately ripped (confidence 10) [6E980A3C] (AR v2)
Track 17 accurately ripped (confidence 10) [7A8B5370] (AR v2)
Track 18 accurately ripped (confidence 10) [DD62B745] (AR v2)
Track 19 accurately ripped (confidence 10) [27575FD2] (AR v2)
Track 20 accurately ripped (confidence 10) [9992F346] (AR v2)
Track 21 accurately ripped (confidence 10) [F15B5BD3] (AR v2)
Track 22 accurately ripped (confidence 10) [CE46FA52] (AR v2)

All tracks accurately ripped

End of status report

–– CUETools DB Plugin V2.1.6

[CTDB TOCID: g4NHK_msedADL9fpYXEm9KiAeqQ-] found
Submit result: g4NHK_msedADL9fpYXEm9KiAeqQ- has been confirmed
Track | CTDB Status
1 | (14/14) Accurately ripped
2 | (14/14) Accurately ripped
3 | (14/14) Accurately ripped
4 | (14/14) Accurately ripped
5 | (14/14) Accurately ripped
6 | (14/14) Accurately ripped
7 | (14/14) Accurately ripped
8 | (13/14) Accurately ripped
9 | (14/14) Accurately ripped
10 | (14/14) Accurately ripped
11 | (14/14) Accurately ripped
12 | (14/14) Accurately ripped
13 | (14/14) Accurately ripped
14 | (14/14) Accurately ripped
15 | (14/14) Accurately ripped
16 | (14/14) Accurately ripped
17 | (14/14) Accurately ripped
18 | (14/14) Accurately ripped
19 | (14/14) Accurately ripped
20 | (14/14) Accurately ripped
21 | (14/14) Accurately ripped
22 | (14/14) Accurately ripped


==== Log checksum E946FC2BB2602B4CBA368ECE185AF4A4328FD0AA86039F18C5265D34B0396B2D ====

Robert King, The King's Consort - Bach's Contemporaries II: Sacred Music by Sebastian Knüpfer (2000)

Thanks to the original releaser