Subcategories
Tags
Language
Tags

Rod Stewart - The Mercury Anthology (1992)

Posted By: v3122
Rod Stewart - The Mercury Anthology (1992)

Rod Stewart - The Mercury Anthology (1992)
EAC | Flac(Image) + Cue + Log & MP3 CBR 320Kbps
2CD | Polygram, 512805-2 | ~ 866 or 334 Mb | Artwork(jpg) -> 10 Mb
Soft Rock, Ballad, Blues Rock, Rock & Roll, Classic Rock

A two-disc anthology of Rod Stewart's early Mercury recordings, which, in conjunction with the albums he recorded with the Faces, are inarguably his finest (nothing from the Faces records is included). Most of the highlights of his terrific first four albums are here – "Maggie May," "You Wear It Well," "Handbags and Gladrags," "Gasoline Alley" – as well as selections from the lukewarm Smiler, a live album recorded with the Faces, and a couple of rare B-sides.

by Stephen Thomas Erlewine, allmusic
Rod Stewart - The Mercury Anthology (1992):

Rod Stewart - The Mercury Anthology (1992)

Tracklist CD1:

01. Street Fighting Man
02. Man Of Constant Sorrow
03. An Old Raincoat Won't Ever Let You Down
04. Handbags And Gladrags
05. Gasoline Alley
06. It's All Over Now
07. Only A Hobo
08. Cut Across Shorty
09. My Way Of Giving
10. Country Comforts
11. Maggie May
12. (I Know) I'm Losing You
13. Mandolin Wind
14. Every Picture Tells A Story
15. Reason To Believe

Exact Audio Copy V1.0 beta 3 from 29. August 2011

EAC extraction logfile from 26. January 2013, 14:00

Rod Stewart / The Mercury Anthology

Used drive : ATAPI iHAS324 Y Adapter: 5 ID: 0

Read mode : Secure
Utilize accurate stream : Yes
Defeat audio cache : Yes
Make use of C2 pointers : No

Read offset correction : 48
Overread into Lead-In and Lead-Out : No
Fill up missing offset samples with silence : Yes
Delete leading and trailing silent blocks : No
Null samples used in CRC calculations : Yes
Used interface : Installed external ASPI interface
Gap handling : Appended to previous track

Used output format : User Defined Encoder
Selected bitrate : 1024 kBit/s
Quality : High
Add ID3 tag : No
Command line compressor : C:\Program Files\Exact Audio Copy\Flac\flac.exe
Additional command line options : -8 -V -T "ARTIST=%artist%" -T "TITLE=%title%" -T "ALBUM=%albumtitle%" -T "DATE=%year%" -T "TRACKNUMBER=%tracknr1%" -T "GENRE=%genre%" -T "PERFORMER=%albuminterpret%" -T "COMPOSER=%composer%" %haslyrics%–tag-from-file=LYRICS="%lyricsfile%"%haslyrics% -T "ALBUMARTIST=%albumartist%" -T "DISCNUMBER=%cdnumber%" -T "TOTALDISCS=%totalcds%" -T "TOTALTRACKS=%numtracks%" -T "COMMENT=%comment%" %source% -o %dest%


TOC of the extracted CD

Track | Start | Length | Start sector | End sector
––––––––––––––––––––––––––––-
1 | 0:00.32 | 5:10.43 | 32 | 23324
2 | 5:11.00 | 2:33.02 | 23325 | 34801
3 | 7:44.02 | 3:08.00 | 34802 | 48901
4 | 10:52.02 | 4:26.10 | 48902 | 68861
5 | 15:18.12 | 4:06.73 | 68862 | 87384
6 | 19:25.10 | 6:25.60 | 87385 | 116319
7 | 25:50.70 | 4:19.37 | 116320 | 135781
8 | 30:10.32 | 6:31.68 | 135782 | 165174
9 | 36:42.25 | 3:58.65 | 165175 | 183089
10 | 40:41.15 | 4:44.67 | 183090 | 204456
11 | 45:26.07 | 5:48.40 | 204457 | 230596
12 | 51:14.47 | 5:21.70 | 230597 | 254741
13 | 56:36.42 | 5:32.55 | 254742 | 279696
14 | 62:09.22 | 6:00.33 | 279697 | 306729
15 | 68:09.55 | 4:09.37 | 306730 | 325441


Track 1

Filename Z:\media\music\My Rips\Rod Stewart - The Mercury Anthology (1992)\01 - Street Fighting Man.wav

Pre-gap length 0:00:02.42

Peak level 99.7 %
Extraction speed 2.7 X
Track quality 100.0 %
Test CRC C4C0034F
Copy CRC C4C0034F
Accurately ripped (confidence 3) [D3EFFF51] (AR v2)
Copy OK

Track 2

Filename Z:\media\music\My Rips\Rod Stewart - The Mercury Anthology (1992)\02 - Man Of Constant Sorrow.wav

Pre-gap length 0:00:04.38

Peak level 73.9 %
Extraction speed 2.2 X
Track quality 99.9 %
Test CRC 84AD4BF2
Copy CRC 84AD4BF2
Accurately ripped (confidence 3) [999D5B24] (AR v2)
Copy OK

Track 3

Filename Z:\media\music\My Rips\Rod Stewart - The Mercury Anthology (1992)\03 - An Old Raincoat Won't Ever Let You Down.wav

Pre-gap length 0:00:01.42

Peak level 92.3 %
Extraction speed 2.9 X
Track quality 100.0 %
Test CRC 16177F44
Copy CRC 16177F44
Accurately ripped (confidence 3) [01F07DF7] (AR v2)
Copy OK

Track 4

Filename Z:\media\music\My Rips\Rod Stewart - The Mercury Anthology (1992)\04 - Handbags And Gladrags.wav

Pre-gap length 0:00:03.46

Peak level 93.3 %
Extraction speed 3.2 X
Track quality 100.0 %
Test CRC ADB955E5
Copy CRC ADB955E5
Accurately ripped (confidence 3) [AA08EB89] (AR v2)
Copy OK

Track 5

Filename Z:\media\music\My Rips\Rod Stewart - The Mercury Anthology (1992)\05 - Gasoline Alley.wav

Pre-gap length 0:00:01.56

Peak level 67.6 %
Extraction speed 3.0 X
Track quality 99.9 %
Test CRC A9E2E9C0
Copy CRC A9E2E9C0
Accurately ripped (confidence 3) [7AC83EA2] (AR v2)
Copy OK

Track 6

Filename Z:\media\music\My Rips\Rod Stewart - The Mercury Anthology (1992)\06 - It's All Over Now.wav

Pre-gap length 0:00:04.70

Peak level 77.6 %
Extraction speed 3.8 X
Track quality 100.0 %
Test CRC BFAB77BA
Copy CRC BFAB77BA
Accurately ripped (confidence 3) [95C1C736] (AR v2)
Copy OK

Track 7

Filename Z:\media\music\My Rips\Rod Stewart - The Mercury Anthology (1992)\07 - Only A Hobo.wav

Pre-gap length 0:00:04.17

Peak level 76.0 %
Extraction speed 3.8 X
Track quality 100.0 %
Test CRC E4C0ED26
Copy CRC E4C0ED26
Accurately ripped (confidence 3) [CDC14773] (AR v2)
Copy OK

Track 8

Filename Z:\media\music\My Rips\Rod Stewart - The Mercury Anthology (1992)\08 - Cut Across Shorty.wav

Pre-gap length 0:00:03.13

Peak level 93.8 %
Extraction speed 4.3 X
Track quality 100.0 %
Test CRC BC2EA1D2
Copy CRC BC2EA1D2
Accurately ripped (confidence 3) [6CEE0E4C] (AR v2)
Copy OK

Track 9

Filename Z:\media\music\My Rips\Rod Stewart - The Mercury Anthology (1992)\09 - My Way Of Giving.wav

Pre-gap length 0:00:01.66

Peak level 68.4 %
Extraction speed 4.3 X
Track quality 100.0 %
Test CRC 3A653403
Copy CRC 3A653403
Accurately ripped (confidence 3) [CF61AA02] (AR v2)
Copy OK

Track 10

Filename Z:\media\music\My Rips\Rod Stewart - The Mercury Anthology (1992)\10 - Country Comforts.wav

Pre-gap length 0:00:02.06

Peak level 99.1 %
Extraction speed 4.5 X
Track quality 100.0 %
Test CRC C991FAAF
Copy CRC C991FAAF
Accurately ripped (confidence 3) [64644D40] (AR v2)
Copy OK

Track 11

Filename Z:\media\music\My Rips\Rod Stewart - The Mercury Anthology (1992)\11 - Maggie May.wav

Pre-gap length 0:00:01.02

Peak level 92.5 %
Extraction speed 4.8 X
Track quality 100.0 %
Test CRC 86331C3C
Copy CRC 86331C3C
Accurately ripped (confidence 3) [DB3C905F] (AR v2)
Copy OK

Track 12

Filename Z:\media\music\My Rips\Rod Stewart - The Mercury Anthology (1992)\12 - (I Know) I'm Losing You.wav

Pre-gap length 0:00:02.80

Peak level 100.0 %
Extraction speed 5.0 X
Track quality 100.0 %
Test CRC 55A75767
Copy CRC 55A75767
Accurately ripped (confidence 3) [BE25A838] (AR v2)
Copy OK

Track 13

Filename Z:\media\music\My Rips\Rod Stewart - The Mercury Anthology (1992)\13 - Mandolin Wind.wav

Pre-gap length 0:00:01.29

Peak level 89.8 %
Extraction speed 5.2 X
Track quality 100.0 %
Test CRC A2595741
Copy CRC A2595741
Accurately ripped (confidence 3) [9F02C1D7] (AR v2)
Copy OK

Track 14

Filename Z:\media\music\My Rips\Rod Stewart - The Mercury Anthology (1992)\14 - Every Picture Tells A Story.wav

Pre-gap length 0:00:00.69

Peak level 88.4 %
Extraction speed 5.4 X
Track quality 100.0 %
Test CRC 3003171C
Copy CRC 3003171C
Accurately ripped (confidence 3) [36A94FF5] (AR v2)
Copy OK

Track 15

Filename Z:\media\music\My Rips\Rod Stewart - The Mercury Anthology (1992)\15 - Reason To Believe.wav

Pre-gap length 0:00:03.10

Peak level 99.4 %
Extraction speed 5.3 X
Track quality 100.0 %
Test CRC 8CEE6769
Copy CRC 8CEE6769
Accurately ripped (confidence 3) [6F5EE965] (AR v2)
Copy OK


All tracks accurately ripped

No errors occurred

End of status report

==== Log checksum 58E38BCF83D6A71829D45D28C49099168CD20EE19670D4B4B45DD24A50D35B6F ====


[CUETools log; Date: 23.06.2021 8:09:41; Version: 2.1.4]
Pregap length 00:00:32.
[AccurateRip ID: 00259e3c-01b2a528-c610f30f] found.
Track [ CRC | V2 ] Status
01 [33dd4c51|d3efff51] (23+31/82) Accurately ripped
02 [fc38bd69|999d5b24] (23+32/83) Accurately ripped
03 [0a38e811|01f07df7] (23+31/82) Accurately ripped
04 [eb3a7021|aa08eb89] (23+33/84) Accurately ripped
05 [87e28db0|7ac83ea2] (23+33/85) Accurately ripped
06 [7ccdffbc|95c1c736] (24+33/86) Accurately ripped
07 [c1457331|cdc14773] (23+33/85) Accurately ripped
08 [187d6278|6cee0e4c] (23+33/84) Accurately ripped
09 [1e0c07b1|cf61aa02] (23+33/85) Accurately ripped
10 [cf910cea|64644d40] (24+33/86) Accurately ripped
11 [bbc79d18|db3c905f] (24+32/84) Accurately ripped
12 [18b8968d|be25a838] (24+33/86) Accurately ripped
13 [6caf5530|9f02c1d7] (24+34/87) Accurately ripped
14 [bb44c8af|36a94ff5] (23+34/86) Accurately ripped
15 [2820fdfc|6f5ee965] (22+33/83) Accurately ripped
Offsetted by 330:
01 [dcca39fb] (06/82) Accurately ripped
02 [3c89d3d7] (06/83) Accurately ripped
03 [ad80ad25] (06/82) Accurately ripped
04 [2417c875] (06/84) Accurately ripped
05 [2f3dffaa] (06/85) Accurately ripped
06 [c4f403ea] (06/86) Accurately ripped
07 [fb7ee47f] (06/85) Accurately ripped
08 [6cbf672c] (06/84) Accurately ripped
09 [aa5e3713] (06/85) Accurately ripped
10 [fc7eeb8c] (06/86) Accurately ripped
11 [2de5892c] (06/84) Accurately ripped
12 [2745128f] (06/86) Accurately ripped
13 [bb3b3794] (06/87) Accurately ripped
14 [8d03ac27] (07/86) Accurately ripped
15 [5d5dfe56] (05/83) Accurately ripped

Track Peak [ CRC32 ] [W/O NULL] [ LOG ]
– 100,0 [ECFA0BF1] [8BCD67ED]
01 99,7 [C4C0034F] [006DD172] CRC32
02 73,9 [84AD4BF2] [1794B6BA] CRC32
03 92,3 [16177F44] [B856B11F] CRC32
04 93,3 [ADB955E5] [B7B356E6] CRC32
05 67,6 [A9E2E9C0] [2B85674E] CRC32
06 77,6 [BFAB77BA] [F1D49A77] CRC32
07 76,0 [E4C0ED26] [51F1F0A2] CRC32
08 93,8 [BC2EA1D2] [2C6077B2] CRC32
09 68,4 [3A653403] [4A82B7F5] CRC32
10 99,1 [C991FAAF] [A9BFC0CF] CRC32
11 92,5 [86331C3C] [C587DDB4] CRC32
12 100,0 [55A75767] [E945794F] CRC32
13 89,8 [A2595741] [FCE0D7CA] CRC32
14 88,4 [3003171C] [07331CF8] CRC32
15 99,4 [8CEE6769] [C511702E] CRC32


Rod Stewart - The Mercury Anthology (1992)

Tracklist CD2:

01. True Blue
02. Lost Paraguayos
03. Angel
04. You Wear It Well
05. I'd Rather Go Blind
06. Twistin' The Night Away
07. What Made Milwaukee Famous (Has Made A Loser Out Of Me)
08. Oh! No Not My Baby
09. Jodie
10. Stay With Me (Live)
11. I Wish It Would Rain (Live)
12. Jealous Guy (Live)
13. Sweet Little Rock'N Roller
14. Mine For Me
15. Let Me Be Your Car
16. Bring It On Home To Me / You Send Me
17. Farewell

Exact Audio Copy V1.0 beta 3 from 29. August 2011

EAC extraction logfile from 26. January 2013, 14:40

Rod Stewart / The Mercury Anthology

Used drive : ATAPI iHAS324 Y Adapter: 5 ID: 0

Read mode : Secure
Utilize accurate stream : Yes
Defeat audio cache : Yes
Make use of C2 pointers : No

Read offset correction : 48
Overread into Lead-In and Lead-Out : No
Fill up missing offset samples with silence : Yes
Delete leading and trailing silent blocks : No
Null samples used in CRC calculations : Yes
Used interface : Installed external ASPI interface
Gap handling : Appended to previous track

Used output format : User Defined Encoder
Selected bitrate : 1024 kBit/s
Quality : High
Add ID3 tag : No
Command line compressor : C:\Program Files\Exact Audio Copy\Flac\flac.exe
Additional command line options : -8 -V -T "ARTIST=%artist%" -T "TITLE=%title%" -T "ALBUM=%albumtitle%" -T "DATE=%year%" -T "TRACKNUMBER=%tracknr1%" -T "GENRE=%genre%" -T "PERFORMER=%albuminterpret%" -T "COMPOSER=%composer%" %haslyrics%–tag-from-file=LYRICS="%lyricsfile%"%haslyrics% -T "ALBUMARTIST=%albumartist%" -T "DISCNUMBER=%cdnumber%" -T "TOTALDISCS=%totalcds%" -T "TOTALTRACKS=%numtracks%" -T "COMMENT=%comment%" %source% -o %dest%


TOC of the extracted CD

Track | Start | Length | Start sector | End sector
––––––––––––––––––––––––––––-
1 | 0:00.32 | 3:31.65 | 32 | 15921
2 | 3:32.22 | 4:00.08 | 15922 | 33929
3 | 7:32.30 | 4:05.00 | 33930 | 52304
4 | 11:37.30 | 4:24.52 | 52305 | 72156
5 | 16:02.07 | 3:53.18 | 72157 | 89649
6 | 19:55.25 | 3:19.30 | 89650 | 104604
7 | 23:14.55 | 2:53.45 | 104605 | 117624
8 | 26:08.25 | 3:40.30 | 117625 | 134154
9 | 29:48.55 | 3:12.27 | 134155 | 148581
10 | 33:01.07 | 5:32.33 | 148582 | 173514
11 | 38:33.40 | 4:21.32 | 173515 | 193121
12 | 42:54.72 | 4:43.08 | 193122 | 214354
13 | 47:38.05 | 3:47.42 | 214355 | 231421
14 | 51:25.47 | 4:03.28 | 231422 | 249674
15 | 55:29.00 | 5:00.12 | 249675 | 272186
16 | 60:29.12 | 3:59.73 | 272187 | 290184
17 | 64:29.10 | 4:34.02 | 290185 | 310736


Track 1

Filename Z:\media\music\My Rips\Rod Stewart - The Mercury Anthology (1992)\01 - True Blue.wav

Pre-gap length 0:00:02.42

Peak level 89.0 %
Extraction speed 2.5 X
Track quality 100.0 %
Test CRC 0D2F8F64
Copy CRC 0D2F8F64
Accurately ripped (confidence 2) [9D1089E4] (AR v2)
Copy OK

Track 2

Filename Z:\media\music\My Rips\Rod Stewart - The Mercury Anthology (1992)\02 - Lost Paraguayos.wav

Peak level 83.9 %
Extraction speed 2.8 X
Track quality 100.0 %
Test CRC 321277EC
Copy CRC 321277EC
Accurately ripped (confidence 2) [14A4DEBD] (AR v2)
Copy OK

Track 3

Filename Z:\media\music\My Rips\Rod Stewart - The Mercury Anthology (1992)\03 - Angel.wav

Pre-gap length 0:00:02.70

Peak level 89.8 %
Extraction speed 2.7 X
Track quality 99.9 %
Test CRC 3252B99B
Copy CRC 3252B99B
Accurately ripped (confidence 2) [84C82CED] (AR v2)
Copy OK

Track 4

Filename Z:\media\music\My Rips\Rod Stewart - The Mercury Anthology (1992)\04 - You Wear It Well.wav

Pre-gap length 0:00:00.57

Peak level 97.6 %
Extraction speed 3.3 X
Track quality 100.0 %
Test CRC 45483D37
Copy CRC 45483D37
Accurately ripped (confidence 2) [7FB8F3A6] (AR v2)
Copy OK

Track 5

Filename Z:\media\music\My Rips\Rod Stewart - The Mercury Anthology (1992)\05 - I'd Rather Go Blind.wav

Pre-gap length 0:00:02.13

Peak level 96.7 %
Extraction speed 3.4 X
Track quality 100.0 %
Test CRC 0343A4AE
Copy CRC 0343A4AE
Accurately ripped (confidence 2) [23BEA9EB] (AR v2)
Copy OK

Track 6

Filename Z:\media\music\My Rips\Rod Stewart - The Mercury Anthology (1992)\06 - Twistin' The Night Away.wav

Peak level 100.0 %
Extraction speed 3.5 X
Track quality 100.0 %
Test CRC 249CB559
Copy CRC 249CB559
Accurately ripped (confidence 2) [78043A8F] (AR v2)
Copy OK

Track 7

Filename Z:\media\music\My Rips\Rod Stewart - The Mercury Anthology (1992)\07 - What Made Milwaukee Famous (Has Made A Loser Out Of Me).wav

Pre-gap length 0:00:03.80

Peak level 57.4 %
Extraction speed 3.0 X
Track quality 99.9 %
Test CRC 627145B3
Copy CRC 627145B3
Accurately ripped (confidence 2) [FB832F19] (AR v2)
Copy OK

Track 8

Filename Z:\media\music\My Rips\Rod Stewart - The Mercury Anthology (1992)\08 - Oh No Not My Baby.wav

Pre-gap length 0:00:00.53

Peak level 84.8 %
Extraction speed 3.3 X
Track quality 99.9 %
Test CRC B0BEB7F7
Copy CRC B0BEB7F7
Accurately ripped (confidence 2) [48EAE2D2] (AR v2)
Copy OK

Track 9

Filename Z:\media\music\My Rips\Rod Stewart - The Mercury Anthology (1992)\09 - Jodie.wav

Pre-gap length 0:00:02.10

Peak level 84.1 %
Extraction speed 3.9 X
Track quality 100.0 %
Test CRC 2DB54786
Copy CRC 2DB54786
Accurately ripped (confidence 2) [EE1A3837] (AR v2)
Copy OK

Track 10

Filename Z:\media\music\My Rips\Rod Stewart - The Mercury Anthology (1992)\10 - Stay With Me (Live).wav

Pre-gap length 0:00:03.13

Peak level 91.0 %
Extraction speed 4.3 X
Track quality 100.0 %
Test CRC E040B3D8
Copy CRC E040B3D8
Accurately ripped (confidence 2) [0236AB40] (AR v2)
Copy OK

Track 11

Filename Z:\media\music\My Rips\Rod Stewart - The Mercury Anthology (1992)\11 - I Wish It Would Rain (Live).wav

Peak level 61.9 %
Extraction speed 4.4 X
Track quality 100.0 %
Test CRC 6AA3E99C
Copy CRC 6AA3E99C
Accurately ripped (confidence 2) [809A5D00] (AR v2)
Copy OK

Track 12

Filename Z:\media\music\My Rips\Rod Stewart - The Mercury Anthology (1992)\12 - Jealous Guy (Live).wav

Peak level 76.9 %
Extraction speed 4.6 X
Track quality 100.0 %
Test CRC D1FE280E
Copy CRC D1FE280E
Accurately ripped (confidence 2) [73F3D952] (AR v2)
Copy OK

Track 13

Filename Z:\media\music\My Rips\Rod Stewart - The Mercury Anthology (1992)\13 - Sweet Little Rock 'N Roller.wav

Pre-gap length 0:00:01.86

Peak level 98.7 %
Extraction speed 4.6 X
Track quality 100.0 %
Test CRC C28DB526
Copy CRC C28DB526
Accurately ripped (confidence 2) [58E2A2B1] (AR v2)
Copy OK

Track 14

Filename Z:\media\music\My Rips\Rod Stewart - The Mercury Anthology (1992)\14 - Mine For Me.wav

Pre-gap length 0:00:03.33

Peak level 88.7 %
Extraction speed 4.2 X
Track quality 99.9 %
Test CRC A05CF373
Copy CRC A05CF373
Accurately ripped (confidence 2) [AFAA7E6D] (AR v2)
Copy OK

Track 15

Filename Z:\media\music\My Rips\Rod Stewart - The Mercury Anthology (1992)\15 - Let Me Be Your Car.wav

Pre-gap length 0:00:01.93

Peak level 100.0 %
Extraction speed 5.1 X
Track quality 100.0 %
Test CRC 79892ECA
Copy CRC 79892ECA
Accurately ripped (confidence 2) [17D746CA] (AR v2)
Copy OK

Track 16

Filename Z:\media\music\My Rips\Rod Stewart - The Mercury Anthology (1992)\16 - Bring It On Home To Me - You Send Me.wav

Pre-gap length 0:00:02.13

Peak level 86.2 %
Extraction speed 5.0 X
Track quality 100.0 %
Test CRC CF916991
Copy CRC CF916991
Accurately ripped (confidence 2) [327C4BA0] (AR v2)
Copy OK

Track 17

Filename Z:\media\music\My Rips\Rod Stewart - The Mercury Anthology (1992)\17 - Farewell.wav

Pre-gap length 0:00:01.04

Peak level 73.8 %
Extraction speed 5.3 X
Track quality 100.0 %
Test CRC C30D8F31
Copy CRC C30D8F31
Accurately ripped (confidence 2) [F8C4BBFB] (AR v2)
Copy OK


All tracks accurately ripped

No errors occurred

End of status report

==== Log checksum B269184A1E458EB5406F503F034D540766A47FDA7D825CED7AA3377598B80880 ====


[CUETools log; Date: 23.06.2021 8:13:57; Version: 2.1.4]
Pregap length 00:00:32.
[AccurateRip ID: 00294321-020e3ba1-05102f11] found.
Track [ CRC | V2 ] Status
01 [6d46897d|9d1089e4] (22+29/85) Accurately ripped
02 [5604b76b|14a4debd] (21+29/84) Accurately ripped
03 [061066e5|84c82ced] (21+29/83) Accurately ripped
04 [1ad03555|7fb8f3a6] (21+29/83) Accurately ripped
05 [2fe16a59|23bea9eb] (22+29/85) Accurately ripped
06 [b05812b3|78043a8f] (22+29/85) Accurately ripped
07 [6d8334e0|fb832f19] (21+29/84) Accurately ripped
08 [226f84ab|48eae2d2] (21+29/83) Accurately ripped
09 [cd2026f1|ee1a3837] (21+29/83) Accurately ripped
10 [3cbd29f0|0236ab40] (21+29/84) Accurately ripped
11 [67eae031|809a5d00] (22+29/85) Accurately ripped
12 [f782243f|73f3d952] (21+28/84) Accurately ripped
13 [2ae33078|58e2a2b1] (21+29/84) Accurately ripped
14 [33a639a6|afaa7e6d] (21+29/83) Accurately ripped
15 [e82439bb|17d746ca] (19+29/82) Accurately ripped
16 [19974b8f|327c4ba0] (20+29/83) Accurately ripped
17 [5394ddab|f8c4bbfb] (21+29/83) Accurately ripped
Offsetted by -2418:
01 [7c8e3068] (05/85) Accurately ripped
02 [ccc9796a] (05/84) Accurately ripped
03 [ea1a99d1] (05/83) Accurately ripped
04 [63dc7183] (05/83) Accurately ripped
05 [618b8c7e] (05/85) Accurately ripped
06 [b7aee478] (05/85) Accurately ripped
07 [cbe3cc26] (05/84) Accurately ripped
08 [5d2397b9] (05/83) Accurately ripped
09 [5a00856d] (05/83) Accurately ripped
10 [e52ee7ad] (05/84) Accurately ripped
11 [6098dd6c] (05/85) Accurately ripped
12 [eec5a68f] (05/84) Accurately ripped
13 [1886d432] (05/84) Accurately ripped
14 [6ec4b3f0] (05/83) Accurately ripped
15 [0b2dca7b] (05/82) Accurately ripped
16 [e0c07eeb] (05/83) Accurately ripped
17 [1c20ecf7] (05/83) Accurately ripped
Offsetted by -115:
01 [fc7eb4b4] (04/85) Accurately ripped
02 [23281ec3] (04/84) Accurately ripped
03 [ee13d9f7] (03/83) Accurately ripped
04 [5d481bd2] (03/83) Accurately ripped
05 [205db297] (04/85) Accurately ripped
06 [ed23b76e] (04/85) Accurately ripped
07 [9dd51661] (04/84) Accurately ripped
08 [e3b140f8] (03/83) Accurately ripped
09 [cc33ed9b] (03/83) Accurately ripped
10 [c97ee5b3] (04/84) Accurately ripped
11 [859565a1] (04/85) Accurately ripped
12 [32a795ee] (05/84) Accurately ripped
13 [715f5377] (04/84) Accurately ripped
14 [cc0f1cbd] (04/83) Accurately ripped
15 [6d1705db] (04/82) Accurately ripped
16 [b639dd09] (04/83) Accurately ripped
17 [74853f4e] (03/83) Accurately ripped
Offsetted by -109:
01 [c1e32490] (00/85) No match
02 [2c50b781] (00/84) No match
03 [36905513] (00/83) No match
04 [b2db73f8] (00/83) No match (V2 was not tested)
05 [560531fa] (00/85) No match
06 [d34a2fad] (00/85) No match
07 [ce82e6ff] (00/84) No match
08 [2311ff7e] (00/83) No match
09 [8bb1c887] (00/83) No match (V2 was not tested)
10 [1d73954d] (00/84) No match
11 [8fc52d9a] (00/85) No match (V2 was not tested)
12 [e39c7b1b] (00/84) No match
13 [2675c9d9] (00/84) No match
14 [570769ef] (00/83) No match
15 [f6d9619b] (00/82) No match
16 [da935455] (00/83) No match
17 [c52acae8] (00/83) No match

Track Peak [ CRC32 ] [W/O NULL] [ LOG ]
– 100,0 [042F7E49] [7DBB0B10]
01 89,0 [0D2F8F64] [D07CDC69] CRC32
02 83,9 [321277EC] [5E839B82] CRC32
03 89,8 [3252B99B] [E5B56AE6] CRC32
04 97,6 [45483D37] [ACE0FB94] CRC32
05 96,7 [0343A4AE] [2B19F459] CRC32
06 100,0 [249CB559] [1E02F914] CRC32
07 57,4 [627145B3] [65086B0D] CRC32
08 84,8 [B0BEB7F7] [9674967F] CRC32
09 84,1 [2DB54786] [4B70339D] CRC32
10 91,0 [E040B3D8] [9AFF5EEB] CRC32
11 61,9 [6AA3E99C] [2979D363] CRC32
12 76,9 [D1FE280E] [09F08206] CRC32
13 98,7 [C28DB526] [4304708A] CRC32
14 88,7 [A05CF373] [C5F7467C] CRC32
15 100,0 [79892ECA] [41F70F28] CRC32
16 86,2 [CF916991] [0998E3DB] CRC32
17 73,8 [C30D8F31] [1B4053CF] CRC32


Rod Stewart - The Mercury Anthology (1992)

All thanks go to the original releaser

Rod Stewart in my Blog

Download Rod Stewart - The Mercury Anthology (1992):