Tags
Language
Tags

Rod Stewart - The Very Best Of Rod Stewart (1998)

Posted By: Andi_Deris
Rod Stewart - The Very Best Of Rod Stewart (1998)

Rod Stewart - The Very Best Of Rod Stewart (1998)
EAC Rip | FLAC: Image+Cue+Log | MP3 CBR 320 kbps | Scans
533 Mb | 183 Mb | Time: 01:17:41
Mercury Records | 558 873-2
Classic Rock, Soft Rock, Hard Rock

With his Sam Cooke phrasing and rough-as-sandpaper voice, Rod Stewart has been both brilliant ("Maggie May") and shameless ("Do Ya Think I'm Sexy?") during his four-decade career, and if he now seems well past his sell-by date, there's no denying that his distinctive voice is a pop culture wonder. This uneven best-of collection drawn from Stewart's often striking Mercury Records era (1969 to 1972) lacks key tracks like the epic "Every Picture Tells a Story," although it does have Stewart's wise cover of Tim Hardin's "Reason to Believe," the wonderfully ragged "Cut Across Shorty," and, of course, "Maggie May."

Rod Stewart - The Very Best Of Rod Stewart (1998)




Track Listing

01. Maggie May (05:18)
02. Country Comforts (04:46)
03. Street Fighting Man (05:08)
04. You Wear It Well (04:25)
05. Mandolin Wind (05:35)
06. Cut Across Shorty (06:32)
07. Man Of Constant Sorrow (02:34)
08. Twistin' The Night Away (03:17)
09. Find A Reason To Believe (04:11)
10. It's All Over Now (06:24)
11. Angel (04:07)
12. Sweet Little Rock 'N Roller (03:46)
13. (I Know) I'm Losing You (05:24)
14. Handbags & Gladrags (04:26)
15. True Blue (03:35)
16. Oh! No Not My Baby (03:40)
17. Farewell (04:33)

Compilation produced by Bas Hartong, Bill Levenson
Digitally remastered by Suha Gur

Exact Audio Copy V1.0 beta 2 from 29. April 2011

Отчёт EAC об извлечении, выполненном 11. октября 2011, 21:23

Rod Stewart / The Very Best Of

Дисковод: TSSTcorpCDDVDW SH-S223C Adapter: 3 ID: 0

Режим чтения : Достоверность
Использование точного потока : Да
Отключение кэша аудио : Да
Использование указателей C2 : Нет

Коррекция смещения при чтении : 697
Способность читать области Lead-in и Lead-out : Нет
Заполнение пропущенных сэмплов тишиной : Да
Удаление блоков с тишиной в начале и конце : Нет
При вычислениях CRC использовались нулевые сэмплы : Да
Интерфейс : Встроенный Win32-интерфейс для Win NT/2000

Выходной формат : Пользовательский кодировщик
Выбранный битрейт : 768 kBit/s
Качество : Высокий
Добавление ID3-тега : Нет
Утилита сжатия : C:\Program Files (x86)\Exact Audio Copy\FLAC\FLAC.EXE
Дополнительные параметры : -6 -V -T "ARTIST=%artist%" -T "TITLE=%title%" -T "ALBUM=%albumtitle%" -T "DATE=%year%" -T "TRACKNUMBER=%tracknr%" -T "GENRE=%genre%" -T "COMMENT=%comment%" -T "BAND=%albuminterpret%" -T "COMPOSER=%composer%" %haslyrics%–tag-from-


TOC извлечённого CD

Трек | Старт | Длительность | Начальный сектор | Конечный сектор
––––––––––––––––––––––––––––––––––-
1 | 0:00.00 | 5:17.37 | 0 | 23811
2 | 5:17.37 | 4:46.20 | 23812 | 45281
3 | 10:03.57 | 5:07.63 | 45282 | 68369
4 | 15:11.45 | 4:24.52 | 68370 | 88221
5 | 19:36.22 | 5:34.58 | 88222 | 113329
6 | 25:11.05 | 6:32.20 | 113330 | 142749
7 | 31:43.25 | 2:34.22 | 142750 | 154321
8 | 34:17.47 | 3:16.48 | 154322 | 169069
9 | 37:34.20 | 4:11.15 | 169070 | 187909
10 | 41:45.35 | 6:23.52 | 187910 | 216686
11 | 48:09.12 | 4:06.43 | 216687 | 235179
12 | 52:15.55 | 3:45.42 | 235180 | 252096
13 | 56:01.22 | 5:23.65 | 252097 | 276386
14 | 61:25.12 | 4:26.30 | 276387 | 296366
15 | 65:51.42 | 3:34.38 | 296367 | 312454
16 | 69:26.05 | 3:40.27 | 312455 | 328981
17 | 73:06.32 | 4:33.13 | 328982 | 349469


Характеристики диапазона извлечения и сообщения об ошибках

Выбранный диапазон

Имя файла C:\Music\Rod Stewart - The Very Best Of.wav

Пиковый уровень 100.0 %
Скорость извлечения 3.6 X
Качество диапазона 100.0 %
CRC теста 05390775
CRC копии 05390775
Копирование… OK

Ошибок не произошло


AccurateRip: сводка

Трек 1 : извлечено точно (доверие 2) [4FCC1395] (AR v1)
Трек 2 : извлечено точно (доверие 2) [AE14D7B8] (AR v1)
Трек 3 : извлечено точно (доверие 2) [CC6F191A] (AR v1)
Трек 4 : извлечено точно (доверие 2) [8AD14B9E] (AR v1)
Трек 5 : извлечено точно (доверие 2) [7A9A065C] (AR v1)
Трек 6 : извлечено точно (доверие 2) [7458904C] (AR v1)
Трек 7 : извлечено точно (доверие 2) [9746DA22] (AR v1)
Трек 8 : извлечено точно (доверие 2) [F36B8A03] (AR v1)
Трек 9 : извлечено точно (доверие 2) [8B41D84C] (AR v1)
Трек 10 : извлечено точно (доверие 2) [BEDC071E] (AR v1)
Трек 11 : извлечено точно (доверие 2) [A6D070EC] (AR v1)
Трек 12 : извлечено точно (доверие 2) [857120CA] (AR v1)
Трек 13 : извлечено точно (доверие 2) [7E47E40A] (AR v1)
Трек 14 : извлечено точно (доверие 2) [286B3BF8] (AR v1)
Трек 15 : извлечено точно (доверие 2) [0672299C] (AR v1)
Трек 16 : извлечено точно (доверие 2) [ED61E8E7] (AR v1)
Трек 17 : извлечено точно (доверие 2) [7F78299E] (AR v1)

Все треки извлечены точно

Конец отчёта

==== Контрольная сумма отчёта AFDA7A9E39850EFE9635B2C1E83229BEF51FD25CCC52F993371674F73B26E55C ====


Many thanks to the original uploader: dymd





Password: pass