Tags
Language
Tags

Rod Stewart - The Studio Albums 1975-2001 (2013) [Limited Edition] 14CD Box Set

Posted By: Andi_Deris
Rod Stewart - The Studio Albums 1975-2001 (2013) [Limited Edition] 14CD Box Set

Rod Stewart - The Studio Albums 1975-2001 (2013) [Limited Edition] 14CD Box Set
EAC Rip | FLAC: Image+Cue+Log | MP3 CBR 320 kbps | Scans
4.4 Gb | 1.7 Gb | 25 Mb | Time: 10:29:08
Warner Strategic Marketing/Warner Music Group Company E.U. | 8122797113
Classic Rock, Soft Rock, Hard Rock, Blue-Eyed Soul

Boxed Set of 14 Albums from Rod Stewart. They are the Studio Albums produced between 1975 and 2001. They are: Atlantic Crossing, A Night on the Town, Foot Loose and Fancy Free, Blondes Have More Fun, Foolish Behaviour, Tonight I'm Yours, Body Wishes, Camouflage, Every Beat of My Heart, Out of Order, Vagabond Heart, A Spanner in the Works, When We Were The New Boys, Human.

Rod Stewart - The Studio Albums 1975-2001 (2013) [Limited Edition] 14CD Box Set




Rod Stewart - The Studio Albums 1975-2001 (2013) [Limited Edition] 14CD Box Set


1975 Atlantic Crossing
EAC Rip | FLAC: Image+Cue+Log | MP3 CBR 320 kbps | Scans
333 Mb | 122 Mb | Time: 44:28
8122797113-1

Atlantic Crossing is Rod Stewart's sixth album, released in 1975. It peaked at number one in the UK (his fifth solo album to do so), and number nine on the Billboard Top Pop Albums chart.

Rod Stewart's sixth album was called Atlantic Crossing because the singer was literally crossing the Atlantic, making America his new home for reasons of the heart (he was fully enamored with actress Britt Ekland at the time) and the wallet (he was eager to escape Britain's restrictive tax rates). As it happens, 1975 was a perfect time for a new beginning for Stewart: the Faces were falling apart, his last LP, Smiler, wasn't roundly loved, and he had wrapped up his contract with Mercury and signed with Warner, so he completely rebooted, hiring legendary producer Tom Dowd to steer him through a slick, streamlined revamping of his signature sound.

Track Listing

01. Three Time Loser (04:05)
02. Alright For An Hour (04:18)
03. All In The Name Of Rock 'N' Roll (05:02)
04. Drift Away (03:44)
05. Stone Cold Sober (04:13)
06. I Don't Want To Talk About It (04:48)
07. It's Not The Spotlight (04:22)
08. This Old Heart Of Mine (04:05)
09. Still Love You (05:11)
10. Sailing (04:38)

Produced by Tom Dowd

Rod Stewart - The Studio Albums 1975-2001 (2013) [Limited Edition] 14CD Box Set


1976 A Night On The Town
EAC Rip | FLAC: Image+Cue+Log | MP3 CBR 320 kbps | Scans
305 Mb | 114 Mb | Time: 41:12
8122797113-2

A Night on the Town is Rod Stewart's seventh album, released in 1976. In some ways, it's easy to think of A Night on the Town, Rod Stewart's second album for Warner, as a reprisal of the first, cut with many of the same musicians as Atlantic Crossing, produced once again by Tom Dowd, and even following its predecessor's conceit of having a "Slow Side" and "Fast Side" (granted, this flips the two around, opening with the slow one first). Superficially, this seems true, but A Night on the Town has a crucial difference: despite its party-hearty title, this album finds Stewart folding folk back into his sound, a move that deepens the music tonally and emotionally, particularly in the case of "The Killing of Georgie (Pts. 1 & 2)," Rod's most ambitious original.

Track Listing

01. Tonight's The Night (Gonna Be Alright) (03:56)
02. The First Cut Is The Deepest (04:32)
03. Fool For You (03:49)
04. The Killing Of Georgie (Part I And II) (06:29)
05. The Balltrap (04:38)
06. Pretty Flamingo (03:27)
07. Big Bayou (03:54)
08. The Wild Side Of Life (05:10)
09. Trade Winds (05:18)

Produced by Tom Dowd

Rod Stewart - The Studio Albums 1975-2001 (2013) [Limited Edition] 14CD Box Set


1977 Foot Loose & Fancy Free
EAC Rip | FLAC: Image+Cue+Log | MP3 CBR 320 kbps | Scans
321 Mb | 124 Mb | Time: 44:45
8122797113-3

Foot Loose & Fancy Free is Rod Stewart's eighth album, released in November 1977 on Riva Records in the UK and Warner Bros in the US. Following the same formula as Atlantic Crossing and A Night on the Town, but not explicitly breaking the record into fast and slow sides, Foot Loose & Fancy Free was a limp effort from an increasingly complacent Rod Stewart. With the exception of the dumb, sleazy "Hot Legs," none of the rockers are discernible from each other, and this time he doesn't have a strong set of ballads to save him. The affectionately sappy acoustic ballad "You're in My Heart" was the big hit, but Stewart sounds completely convincing only on "I Was Only Joking." Coming at the end of the album, the song seems like a justification for the uninspired, by-the-book record that preceded it.

Track Listing

01. Hot Legs (05:16)
02. You're Insane (04:52)
03. You're In My Heart (The Final Acclaim) (04:31)
04. Born Loose (06:04)
05. You Keep Me Hangin' On (07:29)
06. (If Loving You Is Wrong) I Don't Want To Be Right (05:26)
07. You Got A Nerve (05:00)
08. I Was Only Joking (06:08)

Produced by Tom Dowd

Rod Stewart - The Studio Albums 1975-2001 (2013) [Limited Edition] 14CD Box Set


1978 Blondes Have More Fun
EAC Rip | FLAC: Image+Cue+Log | MP3 CBR 320 kbps | Scans
306 Mb | 120 Mb | Time: 43:15
8122797113-4

Blondes Have More Fun is Rod Stewart's ninth album, released in November 1978. As was the popular musical trend at the time, it is Stewart's foray into disco music, which although commercially successful, was critically divisive. The lead single "Da Ya Think I'm Sexy" became one of Stewart's biggest hits, peaking at No.1 in both the UK and US. The album has sold more than 14 million copies worldwide.

Track Listing

01. Da Ya Think I'm Sexy? (05:31)
02. Dirty Weekend (02:36)
03. Ain't Love A Bitch (04:40)
04. The Best Day Of My Life (04:22)
05. Is That The Thanks I Get? (04:33)
06. Attractive Female Wanted (04:17)
07. Blondes (Have More Fun) (03:47)
08. Last Summer (04:05)
09. Standin' In The Shadows Of Love (04:28)
10. Scarred And Scared (04:55)

Produced by Tom Dowd

Rod Stewart - The Studio Albums 1975-2001 (2013) [Limited Edition] 14CD Box Set


1980 Foolish Behaviour
EAC Rip | FLAC: Image+Cue+Log | MP3 CBR 320 kbps | Scans
293 Mb | 114 Mb | Time: 41:08
8122797113-5

Foolish Behaviour is Rod Stewart's tenth studio album released on 21 November 1980 and on the Riva label in the United Kingdom (RVLP 11) and on Warner Bros. Records in both The United States (HS 3485) and Germany (WB 56 865). Rod Stewart followed the faux-disco trash of Blondes Have More Fun with Foolish Behaviour, which sanded out most of the character of the previous album. The result was a bland but professional – even at their worst, Rod and his band are always professionals – collection, mainly comprised of dance-oriented, lightly synthesized pop/rock. The passionless "Passion" was the hit, but the only worthwhile song was the gorgeous "Oh God, I Wish I Was Home Tonight," which has the clever wit and self-depreciating melancholy of his finest work.

In the liner notes of the album the following dedication is attributed to Stewart:

This album is dedicated to the following personages:
All those who engage in a little foolish behaviour of a Friday night, All those who enjoy a good laugh and a drink, Those who don’t take life seriously, Scottish Football Supporters wherever they are, Tom Dowd, My band & last but not least, my Offsprings!

Track Listing

01. Better Off Dead (03:07)
02. Passion (05:33)
03. Foolish Behaviour (04:24)
04. So Soon We Change (03:45)
05. Oh God, I Wish I Was Home Tonight (05:01)
06. Gi' Me Wings (03:48)
07. My Girl (04:27)
08. She Won't Dance With Me (02:30)
09. Somebody Special (04:29)
10. Say It Ain't True (04:03)

Produced by Harry The Hook & Rod Stewart

Rod Stewart - The Studio Albums 1975-2001 (2013) [Limited Edition] 14CD Box Set


1981 Tonight I'm Yours
EAC Rip | FLAC: Image+Cue+Log | MP3 CBR 320 kbps | Scans
316 Mb | 115 Mb | Time: 41:40
8122797113-6

Tonight I'm Yours is the eleventh studio album by Rod Stewart, released in 1981. It features hints of classic rock, pop and new wave. The album had three hit singles, with the title track "Tonight I'm Yours (Don't Hurt Me)" (US Billboard No. 20, US Cash Box No. 15; Canada No. 2), "Young Turks" (US No. 5), and "How Long?" (US No. 49).

Though it lacks a truly great selection of songs, Tonight I'm Yours is a fine latter-day effort from Rod Stewart, and one of the last records that makes Rod sound like he's hip. Sporting a shiny new wave production, Tonight I'm Yours has a sleek, professional sound that can make even mindless rave-ups like "Tora, Tora, Tora (Out With the Boys)" a guilty pleasure. But the key to the album lies in songs like "Tonight I'm Yours" and the haunting "Young Turks," where Rod sounds totally at ease with a synth pop beat. They are some of the best examples of mainstream rock co-opting the nervy, quirky appeal of new wave, and they make Tonight I'm Yours an enjoyable, if lightweight, listen.

Track Listing

01. Tonight I'm Yours (Don't Hurt Me) (04:13)
02. How Long (04:14)
03. Tora, Tora, Tora (Out With The Boys) (04:32)
04. Tear It Up (02:29)
05. Only A Boy (04:10)
06. Just Like A Woman (03:58)
07. Jealous (04:33)
08. Sonny (04:04)
09. Young Turks (05:03)
10. Never Give Up On A Dream (04:23)

Produced by Rod Stewart & Jim Cregan

Rod Stewart - The Studio Albums 1975-2001 (2013) [Limited Edition] 14CD Box Set


1983 Body Wishes
EAC Rip | FLAC: Image+Cue+Log | MP3 CBR 320 kbps | Scans
299 Mb | 113 Mb | Time: 41:29
8122797113-7

Body Wishes is a studio album released by Rod Stewart on 10 June 1983. It was Stewart's 12th studio album and was released on Warner Bros. Records (WEA 92-3877-1). Body Wishes peaked at #5 in the UK where it went platinum on 18 July 1983. In the United States it failed to reach a sales certification, but did chart at #30.

Body Wishes has received poor reviews. Rolling Stone magazine, at the time of its release, gave it 2 out of 5 stars, calling it "his latest and surely one of his least", although they did praise the opening song, "Dancin' Alone", calling it "a Chuck Berry-styled Rock & Roller that is both lively and witty". Stephen Thomas Erlewine of AllMusic retrospectively gave the album 1.5 out of 5 stars, calling it "one of Rod Stewart's worst efforts." In the same review, "Baby Jane" and "What Am I Gonna Do (I'm So in Love with You)" are described as "first-rate, synth-laden pop/rock filler" only sounding "substantial" in comparison to the other songs on the album.

Track Listing

01. Dancin' Alone (04:02)
02. Baby Jane (04:44)
03. Move Me (03:36)
04. Body Wishes (04:41)
05. Sweet Surrender (04:01)
06. What Am I Gonna Do (I'm So In Love With You) (04:20)
07. Ghetto Blaster (04:09)
08. Ready Now (03:37)
09. Strangers Again (04:10)
10. Satisfied (04:09)

Produced by Tom Dowd

Rod Stewart - The Studio Albums 1975-2001 (2013) [Limited Edition] 14CD Box Set


1984 Camouflage
EAC Rip | FLAC: Image+Cue+Log | MP3 CBR 320 kbps | Scans
245 Mb | 106 Mb | Time: 37:50
8122797113-8

Camouflage is a studio album released by Rod Stewart on 18 June 1984 (see 1984 in music). It was Stewart's 13th studio album and was released on Warner Bros. Records (WEA 925 095-1). Three singles came from this album. They were "Infatuation", "Some Guys Have All the Luck", and a cover of the Free hit "All Right Now". The album marked a reunion of sorts between Stewart and Jeff Beck, who plays guitar on several tracks, as the two had been members of the influential 1960s group The Jeff Beck Group.

Track Listing

01. Infatuation (05:16)
02. All Right Now (04:42)
03. Some Guys Have All The Luck (04:34)
04. Can We Still Be Friends (03:51)
05. Bad For You (05:19)
06. Heart Is On The Line (04:05)
07. Camouflage (05:20)
08. Trouble (04:42)

Produced by Michael Omartian, (except "Bad for You" - Rod Stewart)

Rod Stewart - The Studio Albums 1975-2001 (2013) [Limited Edition] 14CD Box Set


1986 Every Beat Of My Heart
EAC Rip | FLAC: Image+Cue+Log | MP3 CBR 320 kbps | Scans
282 Mb | 118 Mb | Time: 42:34
8122797113-9

Every Beat of My Heart is an album by Rod Stewart. It is his fourteenth studio album, released in June 1986 (see 1986 in music). It was released on Warner Bros. Records (WX 53 / 925 446-1). Included on this album is the song "Love Touch", which gained popularity as the theme to the Robert Redford film Legal Eagles. "Love Touch" was written by Holly Knight, Mike Chapman, and Gene Black. The album also includes a cover of Lennon–McCartney's "In My Life", one of several times Rod covered them. It was released as a single which failed to chart. According to the liner notes, this album is dedicated to Rod's parents Bob and Elsie Stewart.

Track Listing

01. Here To Eternity (06:02)
02. Another Heartache (04:29)
03. A Night Like This (04:06)
04. Who's Gonna Take Me Home (The Rise And Fall Of A Budding Gigolo) (04:40)
05. Red Hot In Black (03:18)
06. Love Touch (Theme from Legal Eagles) (04:04)
07. In My Own Crazy Way (03:16)
08. Every Beat Of My Heart (05:19)
09. Ten Days Of Rain (05:23)
10. In My Life (01:56)

Produced by Bob Ezrin, (except "Love Touch" – Michael Chapman)

Rod Stewart - The Studio Albums 1975-2001 (2013) [Limited Edition] 14CD Box Set


1988 Out Of Order
EAC Rip | FLAC: Image+Cue+Log | MP3 CBR 320 kbps | Scans
338 Mb | 137 Mb | Time: 51:34
8122797113-10

Out of Order is the fifteenth studio album by Rod Stewart, released in 1988. It features the hit singles "Lost In You", "Forever Young", "My Heart Can't Tell You No", and "Crazy About Her". The album reached #20 on the Billboard 200, eventually going 2x Platinum record, which made it Stewart's best-selling album of the 1980s.

The album was considered by many critics a return to form after a series of less successful albums. Stephen Thomas Erlewine of AllMusic called it "well-constructed", and Rolling Stone magazine called it a "confident, well-written, high-voltage work". Robert Christgau, however, gave it a C, unfavorably comparing the album to the work of The Power Station.

Track Listing

01. Lost In You (05:02)
02. The Wild Horse (05:02)
03. Lethal Dose Of Love (04:40)
04. Forever Young (04:08)
05. My Heart Can't Tell Me No (05:15)
06. Dynamite (04:21)
07. Nobody Knows You When You're Down And Out (03:54)
08. Crazy About Her (04:59)
09. Try A Little Tenderness (04:32)
10. When I Was Your Man (05:15)
11. Almost Illegal (04:27)

Produced by Rod Stewart, Andy Taylor, Bernard Edwards

Rod Stewart - The Studio Albums 1975-2001 (2013) [Limited Edition] 14CD Box Set


1991 Vagabond Heart
EAC Rip | FLAC: Image+Cue+Log | MP3 CBR 320 kbps | Scans
392 Mb | 144 Mb | Time: 54:44
8122797113-11

Vagabond Heart is the 16th studio album by the singer-songwriter Rod Stewart, released in 1991. The album reached No. 10 in the US, and reached No. 2 in the UK. The album featured five singles, among them a cover for Robbie Robertson's song "Broken Arrow" (No. 20 in the US) and Van Morrison's song "Have I Told You Lately", which would become a hit two years later (in a live version) and is Rod Stewart's most recent top five solo hit in the US and the UK. The two biggest hits from the album were "Rhythm of My Heart" (No. 5 in the US) and "The Motown Song" (No. 10 in the US).

Track Listing

01. Rhythm Of My Heart (04:15)
02. Rebel Heart (04:10)
03. Broken Arrow (04:27)
04. It Takes Two (duet with Tina Turner) (04:15)
05. When A Man's In Love (05:34)
06. You Are Everything (04:10)
07. The Motown Song (04:00)
08. Go Out Dancing (04:20)
09. No Holding Back (05:48)
10. Have I Told You Lately (04:02)
11. Moment Of Glory (04:47)
12. If Only (04:57)

Produced by Bernard Edwards, Trevor Horn, Patrick Leonard, Richard Perry, Rod Stewart, Lenny Waronker

Rod Stewart - The Studio Albums 1975-2001 (2013) [Limited Edition] 14CD Box Set


1995 A Spanner In The Works
EAC Rip | FLAC: Image+Cue+Log | MP3 CBR 320 kbps | Scans
409 Mb | 151 Mb | Time: 57:19
8122797113-12

A Spanner in the Works is a studio album released by Rod Stewart on 26 May 1995. It is Stewart's seventeenth studio album and ended a four-year gap since his previous studio album. At the time it was Stewart's longest break between albums.

The album includes covers of Bob Dylan's "Sweetheart Like You" and The Blue Nile's "The Downtown Lights". The song "Muddy, Sam, And Otis", is his tribute to Muddy Waters, Sam Cooke, and Otis Redding. Track 12, later released as a single featuring the Scottish Euro '96 Football Squad, "Purple Heather" is a folk song that normally goes by the name "Wild Mountain Thyme". It is often credited as traditional, but was written by The McPeakes. "Leave Virginia Alone" was written by Tom Petty and recorded for his album Wildflowers, but was left off the finished album and given to Stewart instead.

Track Listing

01. Windy Town (05:13)
02. The Downtown Lights (06:34)
03. Leave Virginia Alone (04:07)
04. Sweetheart Like You (04:54)
05. This (05:19)
06. Lady Luck (04:25)
07. You're The Star (04:40)
08. Muddy, Sam And Otis (04:43)
09. Hang On St. Christopher (04:04)
10. Delicious (04:44)
11. Soothe Me (03:34)
12. Purple Heather (05:01)

Produced by Trevor Horn, Rod Stewart, et al.

Rod Stewart - The Studio Albums 1975-2001 (2013) [Limited Edition] 14CD Box Set


1998 When We Were The New Boys
EAC Rip | FLAC: Image+Cue+Log | MP3 CBR 320 kbps | Scans
318 Mb | 115 Mb | Time: 41:54
8122797113-13

When We Were the New Boys is a studio album released by Rod Stewart on 29 May 1998. It was Stewart's eighteenth studio album and was released on Warner Bros. Records (WEA 9362-46792-2). When We Were the New Boys rallied to #2 in the UK where it went gold on 15 June 1998. In the US the album would reach #44 on the charts.

The tracks are mostly covers, such as "Cigarettes & Alcohol" by Oasis, "Rocks" by Primal Scream, "Hotel Chambermaid" by Graham Parker, and "Superstar" by the band Superstar. Two ballads were included that were suggested by Elvis Costello: Ron Sexmith's "Secret Heart" and Nick Lowe's "Shelly My Love".

Track Listing

01. Cigarettes And Alcohol (04:04)
02. Ooh La La (04:16)
03. Rocks (04:45)
04. Superstar (04:21)
05. Secret Heart (04:07)
06. Hotel Chambermaid (03:50)
07. Shelly My Love (03:38)
08. When We Were The New Boys (04:41)
09. Weak (04:37)
10. What Do You Want Me To Do? (03:35)

Produced by Rod Stewart and Kevin Savigar

Rod Stewart - The Studio Albums 1975-2001 (2013) [Limited Edition] 14CD Box Set


2001 Human
EAC Rip | FLAC: Image+Cue+Log | MP3 CBR 320 kbps | Scans
350 Mb | 123 Mb | Time: 45:27
8122797113-14

Human is a studio album released by Rod Stewart on 12 March 2001. It was Stewart's nineteenth studio album and first, and only release, on Atlantic Records (Atlantic 7567-83411-2), a sister label to his previous label Warner Bros. Records. Besides being Stewart's first album on Atlantic, Human is his first album not to feature an original Stewart track. Of note is track 3, "Don’t Come Around Here", where Stewart is joined by Helicopter Girl.

Throughout his career, Rod Stewart has been remarkably skillful at adopting current musical trends, whether it was disco, new wave, adult contemporary, or even Brit-pop. Still, his records started to slip off the radar screen toward the end of the '90s, so he parted ways with Warner Bros. and signed to Atlantic, where he released Human in early 2001. Again, he tried to change with the times, which, theoretically, may have been a wise move, since his thoroughly credible trad rock When We Were the New Boys was largely ignored. Since he tried contemporary rock, it made sense that the pendulum would swing back and he would take a stab at contemporary soul.

Track Listing

01. Human (03:48)
02. Smitten (05:00)
03. Don't Come Around Here (with Helicopter Girl) (03:49)
04. Soul On Soul (04:31)
05. Loveless (04:00)
06. If I Had You (04:18)
07. Charlie Parker Loves Me (04:41)
08. It Was Love That We Needed (04:12)
09. To Be With You (03:56)
10. Run Back Into Yours Arms (03:26)
11. I Can't Deny It (03:44)

Produced by Gregg Alexander, Karl Gordon, Dennis Charles, Mark Taylor, Christopher Neil, Graham Stack, Brian Rawling, Danny Kortchmar

Exact Audio Copy V1.1 from 23. June 2015

Отчёт EAC об извлечении, выполненном 20. июня 2017, 16:58

Rod Stewart / Atlantic Crossing

Дисковод: ASUS DRW-24B3ST Adapter: 0 ID: 0

Режим чтения : Достоверность
Использование точного потока : Да
Отключение кэша аудио : Да
Использование указателей C2 : Нет

Коррекция смещения при чтении : 6
Способность читать области Lead-in и Lead-out : Нет
Заполнение пропущенных сэмплов тишиной : Да
Удаление блоков с тишиной в начале и конце : Нет
При вычислениях CRC использовались нулевые сэмплы : Да
Интерфейс : Установленный внешний ASPI-интерфейс

Выходной формат : Пользовательский кодировщик
Выбранный битрейт : 1024 kBit/s
Качество : Высокий
Добавление ID3-тега : Нет
Утилита сжатия : C:\Program Files (x86)\Exact Audio Copy\Flac\flac.exe
Дополнительные параметры : -V -8 -T "Date=%year%" -T "Genre=%genre%" %source%


TOC извлечённого CD

Трек | Старт | Длительность | Начальный сектор | Конечный сектор
––––––––––––––––––––––––––––––––––-
1 | 0:00.00 | 4:05.27 | 0 | 18401
2 | 4:05.27 | 4:18.30 | 18402 | 37781
3 | 8:23.57 | 5:01.58 | 37782 | 60414
4 | 13:25.40 | 3:44.07 | 60415 | 77221
5 | 17:09.47 | 4:12.53 | 77222 | 96174
6 | 21:22.25 | 4:48.05 | 96175 | 117779
7 | 26:10.30 | 4:22.22 | 117780 | 137451
8 | 30:32.52 | 4:05.23 | 137452 | 155849
9 | 34:38.00 | 5:11.17 | 155850 | 179191
10 | 39:49.17 | 4:37.73 | 179192 | 200039


Характеристики диапазона извлечения и сообщения об ошибках

Выбранный диапазон

Имя файла E:\Torrents\Rod Stewart - 2013 - The Studio Albums 1975 - 2001\1975 - Atlantic Crossing\Rod Stewart - Atlantic Crossing.wav

Пиковый уровень 99.9 %
Скорость извлечения 7.8 X
Качество диапазона 100.0 %
CRC теста 4CB3E26E
CRC копии 4CB3E26E
Копирование… OK

Ошибок не произошло


AccurateRip: сводка

Трек 1 : извлечено точно (доверие 3) [4BF93E99] (AR v2)
Трек 2 : извлечено точно (доверие 3) [8CE4320A] (AR v2)
Трек 3 : извлечено точно (доверие 3) [40DC1AB4] (AR v2)
Трек 4 : извлечено точно (доверие 3) [C175084B] (AR v2)
Трек 5 : извлечено точно (доверие 3) [1D97A27D] (AR v2)
Трек 6 : извлечено точно (доверие 3) [F8A146DB] (AR v2)
Трек 7 : извлечено точно (доверие 3) [258C41F4] (AR v2)
Трек 8 : извлечено точно (доверие 3) [C6A8F46C] (AR v2)
Трек 9 : извлечено точно (доверие 3) [8BFC7404] (AR v2)
Трек 10 : извлечено точно (доверие 3) [8936F257] (AR v2)

Все треки извлечены точно

Конец отчёта

==== Контрольная сумма отчёта BF9923E9A0700117D206441FA2785039B8E3C1CEF6B11D8FC1146521757D897B ====

Exact Audio Copy V1.1 from 23. June 2015

Отчёт EAC об извлечении, выполненном 20. июня 2017, 17:16

Rod Stewart / A Night On The Town

Дисковод: ASUS DRW-24B3ST Adapter: 0 ID: 0

Режим чтения : Достоверность
Использование точного потока : Да
Отключение кэша аудио : Да
Использование указателей C2 : Нет

Коррекция смещения при чтении : 6
Способность читать области Lead-in и Lead-out : Нет
Заполнение пропущенных сэмплов тишиной : Да
Удаление блоков с тишиной в начале и конце : Нет
При вычислениях CRC использовались нулевые сэмплы : Да
Интерфейс : Установленный внешний ASPI-интерфейс

Выходной формат : Пользовательский кодировщик
Выбранный битрейт : 1024 kBit/s
Качество : Высокий
Добавление ID3-тега : Нет
Утилита сжатия : C:\Program Files (x86)\Exact Audio Copy\Flac\flac.exe
Дополнительные параметры : -V -8 -T "Date=%year%" -T "Genre=%genre%" %source%


TOC извлечённого CD

Трек | Старт | Длительность | Начальный сектор | Конечный сектор
––––––––––––––––––––––––––––––––––-
1 | 0:00.00 | 3:55.62 | 0 | 17686
2 | 3:55.62 | 4:31.60 | 17687 | 38071
3 | 8:27.47 | 3:48.48 | 38072 | 55219
4 | 12:16.20 | 6:28.45 | 55220 | 84364
5 | 18:44.65 | 4:37.47 | 84365 | 105186
6 | 23:22.37 | 3:27.25 | 105187 | 120736
7 | 26:49.62 | 3:53.65 | 120737 | 138276
8 | 30:43.52 | 5:09.45 | 138277 | 161496
9 | 35:53.22 | 5:17.70 | 161497 | 185341


Характеристики диапазона извлечения и сообщения об ошибках

Выбранный диапазон

Имя файла E:\Torrents\Rod Stewart - 2013 - The Studio Albums 1975 - 2001\1976 - A Night On The Town\Rod Stewart - A Night On The Town.wav

Пиковый уровень 99.9 %
Скорость извлечения 7.7 X
Качество диапазона 100.0 %
CRC теста 96FB183F
CRC копии 96FB183F
Копирование… OK

Ошибок не произошло


AccurateRip: сводка

Трек 1 : извлечено точно (доверие 3) [12295012] (AR v2)
Трек 2 : извлечено точно (доверие 3) [FFBD0F70] (AR v2)
Трек 3 : извлечено точно (доверие 3) [4D3879E1] (AR v2)
Трек 4 : извлечено точно (доверие 3) [E8C631DE] (AR v2)
Трек 5 : извлечено точно (доверие 3) [2D1F644E] (AR v2)
Трек 6 : извлечено точно (доверие 3) [AE402517] (AR v2)
Трек 7 : извлечено точно (доверие 3) [7E7B973D] (AR v2)
Трек 8 : извлечено точно (доверие 3) [07B5BEAA] (AR v2)
Трек 9 : извлечено точно (доверие 3) [D7016A76] (AR v2)

Все треки извлечены точно

Конец отчёта

==== Контрольная сумма отчёта 4C84928934C05C3D246B62D846EBBBD19C90A9220F952C6744B22CA9B89DB071 ====

Exact Audio Copy V1.1 from 23. June 2015

Отчёт EAC об извлечении, выполненном 20. июня 2017, 17:31

Rod Stewart / Foot Loose & Fancy Free

Дисковод: ASUS DRW-24B3ST Adapter: 0 ID: 0

Режим чтения : Достоверность
Использование точного потока : Да
Отключение кэша аудио : Да
Использование указателей C2 : Нет

Коррекция смещения при чтении : 6
Способность читать области Lead-in и Lead-out : Нет
Заполнение пропущенных сэмплов тишиной : Да
Удаление блоков с тишиной в начале и конце : Нет
При вычислениях CRC использовались нулевые сэмплы : Да
Интерфейс : Установленный внешний ASPI-интерфейс

Выходной формат : Пользовательский кодировщик
Выбранный битрейт : 1024 kBit/s
Качество : Высокий
Добавление ID3-тега : Нет
Утилита сжатия : C:\Program Files (x86)\Exact Audio Copy\Flac\flac.exe
Дополнительные параметры : -V -8 -T "Date=%year%" -T "Genre=%genre%" %source%


TOC извлечённого CD

Трек | Старт | Длительность | Начальный сектор | Конечный сектор
––––––––––––––––––––––––––––––––––-
1 | 0:00.00 | 5:15.52 | 0 | 23676
2 | 5:15.52 | 4:51.60 | 23677 | 45561
3 | 10:07.37 | 4:30.38 | 45562 | 65849
4 | 14:38.00 | 6:04.27 | 65850 | 93176
5 | 20:42.27 | 7:28.48 | 93177 | 126824
6 | 28:11.00 | 5:26.10 | 126825 | 151284
7 | 33:37.10 | 4:59.65 | 151285 | 173774
8 | 38:37.00 | 6:07.50 | 173775 | 201349


Характеристики диапазона извлечения и сообщения об ошибках

Выбранный диапазон

Имя файла E:\Torrents\Rod Stewart - 2013 - The Studio Albums 1975 - 2001\1977 - Foot Loose & Fancy Free\Rod Stewart - Foot Loose & Fancy Free.wav

Пиковый уровень 100.0 %
Скорость извлечения 7.8 X
Качество диапазона 100.0 %
CRC теста 486D0758
CRC копии 486D0758
Копирование… OK

Ошибок не произошло


AccurateRip: сводка

Трек 1 : извлечено точно (доверие 2) [2F003B05] (AR v2)
Трек 2 : извлечено точно (доверие 2) [EE051E63] (AR v2)
Трек 3 : извлечено точно (доверие 2) [ED4B8F10] (AR v2)
Трек 4 : извлечено точно (доверие 2) [28507C62] (AR v2)
Трек 5 : извлечено точно (доверие 2) [C2FCAD48] (AR v2)
Трек 6 : извлечено точно (доверие 2) [7265D450] (AR v2)
Трек 7 : извлечено точно (доверие 2) [8FEBF11D] (AR v2)
Трек 8 : извлечено точно (доверие 2) [106B1D5D] (AR v2)

Все треки извлечены точно

Конец отчёта

==== Контрольная сумма отчёта FCBFE28D37CD76AA0F8ADDD19B6A65DC4FE6D669A70301719F7EF9B2A1080BCA ====

Exact Audio Copy V1.1 from 23. June 2015

Отчёт EAC об извлечении, выполненном 20. июня 2017, 18:03

Rod Stewart / Blondes Have More Fun

Дисковод: ASUS DRW-24B3ST Adapter: 0 ID: 0

Режим чтения : Достоверность
Использование точного потока : Да
Отключение кэша аудио : Да
Использование указателей C2 : Нет

Коррекция смещения при чтении : 6
Способность читать области Lead-in и Lead-out : Нет
Заполнение пропущенных сэмплов тишиной : Да
Удаление блоков с тишиной в начале и конце : Нет
При вычислениях CRC использовались нулевые сэмплы : Да
Интерфейс : Установленный внешний ASPI-интерфейс

Выходной формат : Пользовательский кодировщик
Выбранный битрейт : 1024 kBit/s
Качество : Высокий
Добавление ID3-тега : Нет
Утилита сжатия : C:\Program Files (x86)\Exact Audio Copy\Flac\flac.exe
Дополнительные параметры : -V -8 -T "Date=%year%" -T "Genre=%genre%" %source%


TOC извлечённого CD

Трек | Старт | Длительность | Начальный сектор | Конечный сектор
––––––––––––––––––––––––––––––––––-
1 | 0:00.00 | 5:31.25 | 0 | 24849
2 | 5:31.25 | 2:36.15 | 24850 | 36564
3 | 8:07.40 | 4:39.62 | 36565 | 57551
4 | 12:47.27 | 4:21.45 | 57552 | 77171
5 | 17:08.72 | 4:32.68 | 77172 | 97639
6 | 21:41.65 | 4:17.17 | 97640 | 116931
7 | 25:59.07 | 3:46.60 | 116932 | 133941
8 | 29:45.67 | 4:05.05 | 133942 | 152321
9 | 33:50.72 | 4:28.20 | 152322 | 172441
10 | 38:19.17 | 4:54.65 | 172442 | 194556


Характеристики диапазона извлечения и сообщения об ошибках

Выбранный диапазон

Имя файла E:\Torrents\Rod Stewart - 2013 - The Studio Albums 1975 - 2001\1978 - Blondes Have More Fun\Rod Stewart - Blondes Have More Fun.wav

Пиковый уровень 99.9 %
Скорость извлечения 2.9 X
Качество диапазона 100.0 %
CRC теста 19C9ADCB
CRC копии 19C9ADCB
Копирование… OK

Ошибок не произошло


AccurateRip: сводка

Трек 1 : извлечено точно (доверие 4) [57C1D68B] (AR v2)
Трек 2 : извлечено точно (доверие 4) [64AE8CF2] (AR v2)
Трек 3 : извлечено точно (доверие 4) [870BBDE7] (AR v2)
Трек 4 : извлечено точно (доверие 4) [059FEA59] (AR v2)
Трек 5 : извлечено точно (доверие 4) [58994384] (AR v2)
Трек 6 : извлечено точно (доверие 4) [04EBDF1A] (AR v2)
Трек 7 : извлечено точно (доверие 4) [5F10ED5C] (AR v2)
Трек 8 : извлечено точно (доверие 4) [E31E170C] (AR v2)
Трек 9 : извлечено точно (доверие 4) [C96270E1] (AR v2)
Трек 10 : извлечено точно (доверие 4) [3046FD5D] (AR v2)

Все треки извлечены точно

Конец отчёта

==== Контрольная сумма отчёта 6761E7C9BE7F63C1FA037583C2220FDA6EC3DC9E31608E7A0EE7191145525335 ====

Exact Audio Copy V1.1 from 23. June 2015

Отчёт EAC об извлечении, выполненном 20. июня 2017, 18:18

Rod Stewart / Foolish Behaviour

Дисковод: ASUS DRW-24B3ST Adapter: 0 ID: 0

Режим чтения : Достоверность
Использование точного потока : Да
Отключение кэша аудио : Да
Использование указателей C2 : Нет

Коррекция смещения при чтении : 6
Способность читать области Lead-in и Lead-out : Нет
Заполнение пропущенных сэмплов тишиной : Да
Удаление блоков с тишиной в начале и конце : Нет
При вычислениях CRC использовались нулевые сэмплы : Да
Интерфейс : Установленный внешний ASPI-интерфейс

Выходной формат : Пользовательский кодировщик
Выбранный битрейт : 1024 kBit/s
Качество : Высокий
Добавление ID3-тега : Нет
Утилита сжатия : C:\Program Files (x86)\Exact Audio Copy\Flac\flac.exe
Дополнительные параметры : -V -8 -T "Date=%year%" -T "Genre=%genre%" %source%


TOC извлечённого CD

Трек | Старт | Длительность | Начальный сектор | Конечный сектор
––––––––––––––––––––––––––––––––––-
1 | 0:00.00 | 3:07.00 | 0 | 14024
2 | 3:07.00 | 5:33.15 | 14025 | 39014
3 | 8:40.15 | 4:24.12 | 39015 | 58826
4 | 13:04.27 | 3:44.60 | 58827 | 75686
5 | 16:49.12 | 5:01.15 | 75687 | 98276
6 | 21:50.27 | 3:47.38 | 98277 | 115339
7 | 25:37.65 | 4:27.30 | 115340 | 135394
8 | 30:05.20 | 2:30.00 | 135395 | 146644
9 | 32:35.20 | 4:29.30 | 146645 | 166849
10 | 37:04.50 | 4:02.42 | 166850 | 185041


Характеристики диапазона извлечения и сообщения об ошибках

Выбранный диапазон

Имя файла E:\Torrents\Rod Stewart - 2013 - The Studio Albums 1975 - 2001\1980 - Foolish Behaviour\Rod Stewart - Foolish Behaviour.wav

Пиковый уровень 98.8 %
Скорость извлечения 7.7 X
Качество диапазона 100.0 %
CRC теста 3AE21F10
CRC копии 3AE21F10
Копирование… OK

Ошибок не произошло


AccurateRip: сводка

Трек 1 : извлечено точно (доверие 4) [FFCF5DF9] (AR v2)
Трек 2 : извлечено точно (доверие 4) [099C8ED9] (AR v2)
Трек 3 : извлечено точно (доверие 4) [B356492A] (AR v2)
Трек 4 : извлечено точно (доверие 4) [69F00C5F] (AR v2)
Трек 5 : извлечено точно (доверие 4) [59832109] (AR v2)
Трек 6 : извлечено точно (доверие 4) [F4A6BF16] (AR v2)
Трек 7 : извлечено точно (доверие 4) [14595CB0] (AR v2)
Трек 8 : извлечено точно (доверие 4) [2E57173C] (AR v2)
Трек 9 : извлечено точно (доверие 4) [ACA20496] (AR v2)
Трек 10 : извлечено точно (доверие 4) [7C8B3ECA] (AR v2)

Все треки извлечены точно

Конец отчёта

==== Контрольная сумма отчёта 5D0EB66817DCE1DBAF8832238A3E1DC07F577F71B3CFAA4217496A2AE04171F2 ====

Exact Audio Copy V1.1 from 23. June 2015

Отчёт EAC об извлечении, выполненном 20. июня 2017, 18:32

Rod Stewart / Tonight I'm Yours

Дисковод: ASUS DRW-24B3ST Adapter: 0 ID: 0

Режим чтения : Достоверность
Использование точного потока : Да
Отключение кэша аудио : Да
Использование указателей C2 : Нет

Коррекция смещения при чтении : 6
Способность читать области Lead-in и Lead-out : Нет
Заполнение пропущенных сэмплов тишиной : Да
Удаление блоков с тишиной в начале и конце : Нет
При вычислениях CRC использовались нулевые сэмплы : Да
Интерфейс : Установленный внешний ASPI-интерфейс

Выходной формат : Пользовательский кодировщик
Выбранный битрейт : 1024 kBit/s
Качество : Высокий
Добавление ID3-тега : Нет
Утилита сжатия : C:\Program Files (x86)\Exact Audio Copy\Flac\flac.exe
Дополнительные параметры : -V -8 -T "Date=%year%" -T "Genre=%genre%" %source%


TOC извлечённого CD

Трек | Старт | Длительность | Начальный сектор | Конечный сектор
––––––––––––––––––––––––––––––––––-
1 | 0:00.00 | 4:12.40 | 0 | 18939
2 | 4:12.40 | 4:14.22 | 18940 | 38011
3 | 8:26.62 | 4:32.03 | 38012 | 58414
4 | 12:58.65 | 2:28.57 | 58415 | 69571
5 | 15:27.47 | 4:10.13 | 69572 | 88334
6 | 19:37.60 | 3:57.62 | 88335 | 106171
7 | 23:35.47 | 4:33.15 | 106172 | 126661
8 | 28:08.62 | 4:04.03 | 126662 | 144964
9 | 32:12.65 | 5:03.25 | 144965 | 167714
10 | 37:16.15 | 4:22.70 | 167715 | 187434


Характеристики диапазона извлечения и сообщения об ошибках

Выбранный диапазон

Имя файла E:\Torrents\Rod Stewart - 2013 - The Studio Albums 1975 - 2001\1981 - Tonight I'm Yours\Rod Stewart - Tonight I'm Yours.wav

Пиковый уровень 99.9 %
Скорость извлечения 7.7 X
Качество диапазона 100.0 %
CRC теста 74D9B9D6
CRC копии 74D9B9D6
Копирование… OK

Ошибок не произошло


AccurateRip: сводка

Трек 1 : извлечено точно (доверие 2) [CC337531] (AR v2)
Трек 2 : извлечено точно (доверие 2) [CA82838C] (AR v2)
Трек 3 : извлечено точно (доверие 2) [74F0FE0A] (AR v2)
Трек 4 : извлечено точно (доверие 2) [BA72E309] (AR v2)
Трек 5 : извлечено точно (доверие 2) [54315B55] (AR v2)
Трек 6 : извлечено точно (доверие 2) [B73C2B24] (AR v2)
Трек 7 : извлечено точно (доверие 2) [83590BA4] (AR v2)
Трек 8 : извлечено точно (доверие 2) [5545520E] (AR v2)
Трек 9 : извлечено точно (доверие 2) [5882CCFC] (AR v2)
Трек 10 : извлечено точно (доверие 2) [598443CD] (AR v2)

Все треки извлечены точно

Конец отчёта

==== Контрольная сумма отчёта 88F8DDF0D8B36E4C87DB6124F1C6EEF79E2CEBDEA116DFF03735C21F483579B9 ====

Exact Audio Copy V1.1 from 23. June 2015

Отчёт EAC об извлечении, выполненном 20. июня 2017, 19:40

Rod Stewart / Body Wishes

Дисковод: ASUS DRW-24B3ST Adapter: 0 ID: 0

Режим чтения : Достоверность
Использование точного потока : Да
Отключение кэша аудио : Да
Использование указателей C2 : Нет

Коррекция смещения при чтении : 6
Способность читать области Lead-in и Lead-out : Нет
Заполнение пропущенных сэмплов тишиной : Да
Удаление блоков с тишиной в начале и конце : Нет
При вычислениях CRC использовались нулевые сэмплы : Да
Интерфейс : Установленный внешний ASPI-интерфейс

Выходной формат : Пользовательский кодировщик
Выбранный битрейт : 1024 kBit/s
Качество : Высокий
Добавление ID3-тега : Нет
Утилита сжатия : C:\Program Files (x86)\Exact Audio Copy\Flac\flac.exe
Дополнительные параметры : -V -8 -T "Date=%year%" -T "Genre=%genre%" %source%


TOC извлечённого CD

Трек | Старт | Длительность | Начальный сектор | Конечный сектор
––––––––––––––––––––––––––––––––––-
1 | 0:00.00 | 4:02.18 | 0 | 18167
2 | 4:02.18 | 4:43.37 | 18168 | 39429
3 | 8:45.55 | 3:36.10 | 39430 | 55639
4 | 12:21.65 | 4:41.13 | 55640 | 76727
5 | 17:03.03 | 4:00.55 | 76728 | 94782
6 | 21:03.58 | 4:20.27 | 94783 | 114309
7 | 25:24.10 | 4:08.65 | 114310 | 132974
8 | 29:33.00 | 3:36.68 | 132975 | 149242
9 | 33:09.68 | 4:10.22 | 149243 | 168014
10 | 37:20.15 | 4:08.38 | 168015 | 186652


Характеристики диапазона извлечения и сообщения об ошибках

Выбранный диапазон

Имя файла E:\Torrents\Rod Stewart - 2013 - The Studio Albums 1975 - 2001\1983 - Body Wishes\Rod Stewart - Body Wishes.wav

Пиковый уровень 89.1 %
Скорость извлечения 7.6 X
Качество диапазона 99.9 %
CRC теста CC3E3F2C
CRC копии CC3E3F2C
Копирование… OK

Ошибок не произошло


AccurateRip: сводка

Трек 1 : извлечено точно (доверие 2) [041083F1] (AR v2)
Трек 2 : извлечено точно (доверие 2) [59DF94B6] (AR v2)
Трек 3 : извлечено точно (доверие 2) [38746F96] (AR v2)
Трек 4 : извлечено точно (доверие 2) [BA704E87] (AR v2)
Трек 5 : извлечено точно (доверие 2) [E84C7D28] (AR v2)
Трек 6 : извлечено точно (доверие 2) [76903EBB] (AR v2)
Трек 7 : извлечено точно (доверие 2) [0F0DBECE] (AR v2)
Трек 8 : извлечено точно (доверие 2) [571A3472] (AR v2)
Трек 9 : извлечено точно (доверие 2) [F32E3EC2] (AR v2)
Трек 10 : извлечено точно (доверие 2) [06D55F29] (AR v2)

Все треки извлечены точно

Конец отчёта

==== Контрольная сумма отчёта 7F98E4A5BA35B13811F18944765AFBDC809ECAD90FA04D8A9AF487EC7A1EEAEB ====

Exact Audio Copy V1.1 from 23. June 2015

EAC extraction logfile from 3. September 2015, 17:13

Rod Stewart / Camouflage

Used drive : hp DVD-RAM SW830 Adapter: 1 ID: 0

Read mode : Secure
Utilize accurate stream : Yes
Defeat audio cache : Yes
Make use of C2 pointers : No

Read offset correction : 6
Overread into Lead-In and Lead-Out : No
Fill up missing offset samples with silence : Yes
Delete leading and trailing silent blocks : No
Null samples used in CRC calculations : Yes
Used interface : Native Win32 interface for Win NT & 2000

Used output format : User Defined Encoder
Selected bitrate : 896 kBit/s
Quality : High
Add ID3 tag : No
Command line compressor : C:\Program Files (x86)\Exact Audio Copy\Flac\flac.exe
Additional command line options : -V -8 %source%


TOC of the extracted CD

Track | Start | Length | Start sector | End sector
––––––––––––––––––––––––––––-
1 | 0:00.00 | 5:15.37 | 0 | 23661
2 | 5:15.37 | 4:42.23 | 23662 | 44834
3 | 9:57.60 | 4:34.22 | 44835 | 65406
4 | 14:32.07 | 3:51.08 | 65407 | 82739
5 | 18:23.15 | 5:18.57 | 82740 | 106646
6 | 23:41.72 | 4:04.70 | 106647 | 125016
7 | 27:46.67 | 5:19.70 | 125017 | 149011
8 | 33:06.62 | 4:42.08 | 149012 | 170169


Range status and errors

Selected range

Filename F:\Rod Stewart - Camouflage.wav

Peak level 78.6 %
Extraction speed 1.6 X
Range quality 100.0 %
Test CRC 8E5B62C6
Copy CRC 8E5B62C6
Copy OK

No errors occurred


AccurateRip summary

Track 1 accurately ripped (confidence 40) [39AE0BE6] (AR v2)
Track 2 accurately ripped (confidence 40) [D609D0C7] (AR v2)
Track 3 accurately ripped (confidence 40) [DB8A5634] (AR v2)
Track 4 accurately ripped (confidence 40) [011A2157] (AR v2)
Track 5 accurately ripped (confidence 40) [C9C086D7] (AR v2)
Track 6 accurately ripped (confidence 40) [4738A306] (AR v2)
Track 7 accurately ripped (confidence 40) [FA6B0797] (AR v2)
Track 8 accurately ripped (confidence 40) [9C1F03D6] (AR v2)

All tracks accurately ripped

End of status report

==== Log checksum C2B9A2E58FA92EF280E89B8FFDDB26C8823A8BE6635F58BE297F54575C1CBE51 ====

Exact Audio Copy V1.1 from 23. June 2015

EAC extraction logfile from 3. September 2015, 17:45

Rod Stewart / Every Beat Of My Heart

Used drive : hp DVD-RAM SW830 Adapter: 1 ID: 0

Read mode : Secure
Utilize accurate stream : Yes
Defeat audio cache : Yes
Make use of C2 pointers : No

Read offset correction : 6
Overread into Lead-In and Lead-Out : No
Fill up missing offset samples with silence : Yes
Delete leading and trailing silent blocks : No
Null samples used in CRC calculations : Yes
Used interface : Native Win32 interface for Win NT & 2000

Used output format : User Defined Encoder
Selected bitrate : 896 kBit/s
Quality : High
Add ID3 tag : No
Command line compressor : C:\Program Files (x86)\Exact Audio Copy\Flac\flac.exe
Additional command line options : -V -8 %source%


TOC of the extracted CD

Track | Start | Length | Start sector | End sector
––––––––––––––––––––––––––––-
1 | 0:00.00 | 6:01.47 | 0 | 27121
2 | 6:01.47 | 4:29.23 | 27122 | 47319
3 | 10:30.70 | 4:06.17 | 47320 | 65786
4 | 14:37.12 | 4:40.28 | 65787 | 86814
5 | 19:17.40 | 3:18.00 | 86815 | 101664
6 | 22:35.40 | 4:03.70 | 101665 | 119959
7 | 26:39.35 | 3:15.65 | 119960 | 134649
8 | 29:55.25 | 5:18.40 | 134650 | 158539
9 | 35:13.65 | 5:23.27 | 158540 | 182791
10 | 40:37.17 | 1:55.60 | 182792 | 191476


Range status and errors

Selected range

Filename F:\Rod Stewart - Every Beat Of My Heart.wav

Peak level 81.8 %
Extraction speed 4.1 X
Range quality 100.0 %
Test CRC DE73842B
Copy CRC DE73842B
Copy OK

No errors occurred


AccurateRip summary

Track 1 accurately ripped (confidence 41) [3AC9CD4C] (AR v2)
Track 2 accurately ripped (confidence 41) [7FD8A78E] (AR v2)
Track 3 accurately ripped (confidence 41) [CAC6A23F] (AR v2)
Track 4 accurately ripped (confidence 41) [90FA66B3] (AR v2)
Track 5 accurately ripped (confidence 41) [BD6A5088] (AR v2)
Track 6 accurately ripped (confidence 41) [7A4B2A1F] (AR v2)
Track 7 accurately ripped (confidence 41) [999239EE] (AR v2)
Track 8 accurately ripped (confidence 41) [65E1472A] (AR v2)
Track 9 accurately ripped (confidence 40) [1FDB07E2] (AR v2)
Track 10 accurately ripped (confidence 41) [BDB68FA7] (AR v2)

All tracks accurately ripped

End of status report

==== Log checksum 165544AC17CE062E170C43D771FAF8FC36A96358EB70E041B950500CD06C5E52 ====

Exact Audio Copy V1.1 from 23. June 2015

Отчёт EAC об извлечении, выполненном 20. июня 2017, 21:11

Rod Stewart / Out Of Order

Дисковод: ASUS DRW-24B3ST Adapter: 0 ID: 0

Режим чтения : Достоверность
Использование точного потока : Да
Отключение кэша аудио : Да
Использование указателей C2 : Нет

Коррекция смещения при чтении : 6
Способность читать области Lead-in и Lead-out : Нет
Заполнение пропущенных сэмплов тишиной : Да
Удаление блоков с тишиной в начале и конце : Нет
При вычислениях CRC использовались нулевые сэмплы : Да
Интерфейс : Установленный внешний ASPI-интерфейс

Выходной формат : Пользовательский кодировщик
Выбранный битрейт : 1024 kBit/s
Качество : Высокий
Добавление ID3-тега : Нет
Утилита сжатия : C:\Program Files (x86)\Exact Audio Copy\Flac\flac.exe
Дополнительные параметры : -V -8 -T "Date=%year%" -T "Genre=%genre%" %source%


TOC извлечённого CD

Трек | Старт | Длительность | Начальный сектор | Конечный сектор
––––––––––––––––––––––––––––––––––-
1 | 0:00.00 | 5:02.12 | 0 | 22661
2 | 5:02.12 | 5:01.58 | 22662 | 45294
3 | 10:03.70 | 4:39.72 | 45295 | 66291
4 | 14:43.67 | 4:08.00 | 66292 | 84891
5 | 18:51.67 | 5:14.63 | 84892 | 108504
6 | 24:06.55 | 4:20.70 | 108505 | 128074
7 | 28:27.50 | 3:53.60 | 128075 | 145609
8 | 32:21.35 | 4:59.05 | 145610 | 168039
9 | 37:20.40 | 4:31.60 | 168040 | 188424
10 | 41:52.25 | 5:14.35 | 188425 | 212009
11 | 47:06.60 | 4:26.62 | 212010 | 232021


Характеристики диапазона извлечения и сообщения об ошибках

Выбранный диапазон

Имя файла E:\Torrents\Rod Stewart - 2013 - The Studio Albums 1975 - 2001\1988 - Out Of Order\Rod Stewart - Out Of Order.wav

Пиковый уровень 94.4 %
Скорость извлечения 8.1 X
Качество диапазона 100.0 %
CRC теста E1CB9DFE
CRC копии E1CB9DFE
Копирование… OK

Ошибок не произошло


AccurateRip: сводка

Трек 1 : извлечено точно (доверие 2) [B8438180] (AR v2)
Трек 2 : извлечено точно (доверие 2) [8DE93455] (AR v2)
Трек 3 : извлечено точно (доверие 2) [FBB17460] (AR v2)
Трек 4 : извлечено точно (доверие 2) [BC8D1BD5] (AR v2)
Трек 5 : извлечено точно (доверие 2) [5DA55CDD] (AR v2)
Трек 6 : извлечено точно (доверие 2) [F9F59143] (AR v2)
Трек 7 : извлечено точно (доверие 2) [DA932DA7] (AR v2)
Трек 8 : извлечено точно (доверие 2) [7B52472E] (AR v2)
Трек 9 : извлечено точно (доверие 2) [23AB5CBD] (AR v2)
Трек 10 : извлечено точно (доверие 2) [D6C4FFBE] (AR v2)
Трек 11 : извлечено точно (доверие 2) [79FE746D] (AR v2)

Все треки извлечены точно

Конец отчёта

==== Контрольная сумма отчёта 3B79A27280DE0A1B1F340FF4F03833A6ABE365B35FEB38B8624D41A8F81282DB ====

Exact Audio Copy V1.1 from 23. June 2015

EAC extraction logfile from 3. September 2015, 19:00

Rod Stewart / Vagabond Heart

Used drive : hp DVD-RAM SW830 Adapter: 1 ID: 0

Read mode : Secure
Utilize accurate stream : Yes
Defeat audio cache : Yes
Make use of C2 pointers : No

Read offset correction : 6
Overread into Lead-In and Lead-Out : No
Fill up missing offset samples with silence : Yes
Delete leading and trailing silent blocks : No
Null samples used in CRC calculations : Yes
Used interface : Native Win32 interface for Win NT & 2000

Used output format : User Defined Encoder
Selected bitrate : 896 kBit/s
Quality : High
Add ID3 tag : No
Command line compressor : C:\Program Files (x86)\Exact Audio Copy\Flac\flac.exe
Additional command line options : -V -8 %source%


TOC of the extracted CD

Track | Start | Length | Start sector | End sector
––––––––––––––––––––––––––––-
1 | 0:00.33 | 4:14.65 | 33 | 19147
2 | 4:15.23 | 4:10.27 | 19148 | 37924
3 | 8:25.50 | 4:26.38 | 37925 | 57912
4 | 12:52.13 | 4:14.37 | 57913 | 76999
5 | 17:06.50 | 5:34.05 | 77000 | 102054
6 | 22:40.55 | 4:09.38 | 102055 | 120767
7 | 26:50.18 | 4:00.30 | 120768 | 138797
8 | 30:50.48 | 4:20.32 | 138798 | 158329
9 | 35:11.05 | 5:47.35 | 158330 | 184389
10 | 40:58.40 | 4:01.38 | 184390 | 202502
11 | 45:00.03 | 4:47.07 | 202503 | 224034
12 | 49:47.10 | 4:56.50 | 224035 | 246284


Range status and errors

Selected range

Filename F:\Rod Stewart - Vagabond Heart.wav

Peak level 100.0 %
Extraction speed 4.3 X
Range quality 99.9 %
Test CRC CE301FBA
Copy CRC CE301FBA
Copy OK

No errors occurred


AccurateRip summary

Track 1 accurately ripped (confidence 38) [FE0F9732] (AR v2)
Track 2 accurately ripped (confidence 38) [74552748] (AR v2)
Track 3 accurately ripped (confidence 38) [D856EFCE] (AR v2)
Track 4 accurately ripped (confidence 38) [287085B3] (AR v2)
Track 5 accurately ripped (confidence 38) [DB263575] (AR v2)
Track 6 accurately ripped (confidence 38) [C1C8B7AE] (AR v2)
Track 7 accurately ripped (confidence 38) [18F3AB33] (AR v2)
Track 8 accurately ripped (confidence 38) [5906839F] (AR v2)
Track 9 accurately ripped (confidence 38) [56EAB493] (AR v2)
Track 10 accurately ripped (confidence 38) [9ADE4AD1] (AR v2)
Track 11 accurately ripped (confidence 38) [F954728B] (AR v2)
Track 12 accurately ripped (confidence 37) [028D88AF] (AR v2)

All tracks accurately ripped

End of status report

==== Log checksum 2281AC49B76C817C1325C4CF4D667058926F383A56CFDAA796408DE29F1AAEEA ====

Exact Audio Copy V1.1 from 23. June 2015

Отчёт EAC об извлечении, выполненном 20. июня 2017, 21:51

Rod Stewart / A Spanner In The Works

Дисковод: ASUS DRW-24B3ST Adapter: 0 ID: 0

Режим чтения : Достоверность
Использование точного потока : Да
Отключение кэша аудио : Да
Использование указателей C2 : Нет

Коррекция смещения при чтении : 6
Способность читать области Lead-in и Lead-out : Нет
Заполнение пропущенных сэмплов тишиной : Да
Удаление блоков с тишиной в начале и конце : Нет
При вычислениях CRC использовались нулевые сэмплы : Да
Интерфейс : Установленный внешний ASPI-интерфейс

Выходной формат : Пользовательский кодировщик
Выбранный битрейт : 1024 kBit/s
Качество : Высокий
Добавление ID3-тега : Нет
Утилита сжатия : C:\Program Files (x86)\Exact Audio Copy\Flac\flac.exe
Дополнительные параметры : -V -8 -T "Date=%year%" -T "Genre=%genre%" %source%


TOC извлечённого CD

Трек | Старт | Длительность | Начальный сектор | Конечный сектор
––––––––––––––––––––––––––––––––––-
1 | 0:00.00 | 5:12.70 | 0 | 23469
2 | 5:12.70 | 6:33.40 | 23470 | 52984
3 | 11:46.35 | 4:07.30 | 52985 | 71539
4 | 15:53.65 | 4:54.27 | 71540 | 93616
5 | 20:48.17 | 5:19.20 | 93617 | 117561
6 | 26:07.37 | 4:25.30 | 117562 | 137466
7 | 30:32.67 | 4:40.00 | 137467 | 158466
8 | 35:12.67 | 4:42.35 | 158467 | 179651
9 | 39:55.27 | 4:04.20 | 179652 | 197971
10 | 43:59.47 | 4:43.45 | 197972 | 219241
11 | 48:43.17 | 3:33.65 | 219242 | 235281
12 | 52:17.07 | 5:00.68 | 235282 | 257849


Характеристики диапазона извлечения и сообщения об ошибках

Выбранный диапазон

Имя файла E:\Torrents\Rod Stewart - 2013 - The Studio Albums 1975 - 2001\1995 - A Spanner In The Works\Rod Stewart - A Spanner In The Works.wav

Пиковый уровень 100.0 %
Скорость извлечения 8.7 X
Качество диапазона 100.0 %
CRC теста 0B50A6D3
CRC копии 0B50A6D3
Копирование… OK

Ошибок не произошло


AccurateRip: сводка

Трек 1 : извлечено точно (доверие 7) [0C057242] (AR v2)
Трек 2 : извлечено точно (доверие 7) [DAA3E6DB] (AR v2)
Трек 3 : извлечено точно (доверие 7) [961EB1F1] (AR v2)
Трек 4 : извлечено точно (доверие 7) [865BBA06] (AR v2)
Трек 5 : извлечено точно (доверие 7) [09BBD694] (AR v2)
Трек 6 : извлечено точно (доверие 7) [7B3B776A] (AR v2)
Трек 7 : извлечено точно (доверие 7) [271C74DF] (AR v2)
Трек 8 : извлечено точно (доверие 7) [DE7FF207] (AR v2)
Трек 9 : извлечено точно (доверие 7) [F9800DC1] (AR v2)
Трек 10 : извлечено точно (доверие 7) [A4B40335] (AR v2)
Трек 11 : извлечено точно (доверие 7) [7AFD8161] (AR v2)
Трек 12 : извлечено точно (доверие 7) [A1584F49] (AR v2)

Все треки извлечены точно

Конец отчёта

==== Контрольная сумма отчёта B925509FB618EDB56D26256A3F08ED6C2F877117698BEC17DEB065375D3F7B0B ====

Exact Audio Copy V1.1 from 23. June 2015

Отчёт EAC об извлечении, выполненном 20. июня 2017, 22:09

Rod Stewart / When We Were The New Boys

Дисковод: ASUS DRW-24B3ST Adapter: 0 ID: 0

Режим чтения : Достоверность
Использование точного потока : Да
Отключение кэша аудио : Да
Использование указателей C2 : Нет

Коррекция смещения при чтении : 6
Способность читать области Lead-in и Lead-out : Нет
Заполнение пропущенных сэмплов тишиной : Да
Удаление блоков с тишиной в начале и конце : Нет
При вычислениях CRC использовались нулевые сэмплы : Да
Интерфейс : Установленный внешний ASPI-интерфейс

Выходной формат : Пользовательский кодировщик
Выбранный битрейт : 1024 kBit/s
Качество : Высокий
Добавление ID3-тега : Нет
Утилита сжатия : C:\Program Files (x86)\Exact Audio Copy\Flac\flac.exe
Дополнительные параметры : -V -8 -T "Date=%year%" -T "Genre=%genre%" %source%


TOC извлечённого CD

Трек | Старт | Длительность | Начальный сектор | Конечный сектор
––––––––––––––––––––––––––––––––––-
1 | 0:00.00 | 4:03.70 | 0 | 18294
2 | 4:03.70 | 4:16.20 | 18295 | 37514
3 | 8:20.15 | 4:45.07 | 37515 | 58896
4 | 13:05.22 | 4:20.68 | 58897 | 78464
5 | 17:26.15 | 4:07.22 | 78465 | 97011
6 | 21:33.37 | 3:49.53 | 97012 | 114239
7 | 25:23.15 | 3:38.05 | 114240 | 130594
8 | 29:01.20 | 4:40.45 | 130595 | 151639
9 | 33:41.65 | 4:37.05 | 151640 | 172419
10 | 38:18.70 | 3:34.57 | 172420 | 188526


Характеристики диапазона извлечения и сообщения об ошибках

Выбранный диапазон

Имя файла E:\Torrents\Rod Stewart - 2013 - The Studio Albums 1975 - 2001\1998 - When We Were The New Boys\Rod Stewart - When We Were The New Boys.wav

Пиковый уровень 100.0 %
Скорость извлечения 7.7 X
Качество диапазона 100.0 %
CRC теста 7F01F2D5
CRC копии 7F01F2D5
Копирование… OK

Ошибок не произошло


AccurateRip: сводка

Трек 1 : извлечено точно (доверие 2) [872F3106] (AR v2)
Трек 2 : извлечено точно (доверие 2) [22BC58FE] (AR v2)
Трек 3 : извлечено точно (доверие 2) [50DFA478] (AR v2)
Трек 4 : извлечено точно (доверие 2) [F0ED0CEC] (AR v2)
Трек 5 : извлечено точно (доверие 2) [225CFFC1] (AR v2)
Трек 6 : извлечено точно (доверие 2) [058EE619] (AR v2)
Трек 7 : извлечено точно (доверие 2) [3ACA42A6] (AR v2)
Трек 8 : извлечено точно (доверие 2) [4ABC3FC0] (AR v2)
Трек 9 : извлечено точно (доверие 2) [46493214] (AR v2)
Трек 10 : извлечено точно (доверие 2) [489663E1] (AR v2)

Все треки извлечены точно

Конец отчёта

==== Контрольная сумма отчёта 0717E5A132E6717B0D043F90DA6F1B19DD438332F553317FEEACDF7E6F435F29 ====

Exact Audio Copy V1.1 from 23. June 2015

Отчёт EAC об извлечении, выполненном 20. июня 2017, 22:23

Rod Stewart / Human

Дисковод: ASUS DRW-24B3ST Adapter: 0 ID: 0

Режим чтения : Достоверность
Использование точного потока : Да
Отключение кэша аудио : Да
Использование указателей C2 : Нет

Коррекция смещения при чтении : 6
Способность читать области Lead-in и Lead-out : Нет
Заполнение пропущенных сэмплов тишиной : Да
Удаление блоков с тишиной в начале и конце : Нет
При вычислениях CRC использовались нулевые сэмплы : Да
Интерфейс : Установленный внешний ASPI-интерфейс

Выходной формат : Пользовательский кодировщик
Выбранный битрейт : 1024 kBit/s
Качество : Высокий
Добавление ID3-тега : Нет
Утилита сжатия : C:\Program Files (x86)\Exact Audio Copy\Flac\flac.exe
Дополнительные параметры : -V -8 -T "Date=%year%" -T "Genre=%genre%" %source%


TOC извлечённого CD

Трек | Старт | Длительность | Начальный сектор | Конечный сектор
––––––––––––––––––––––––––––––––––-
1 | 0:00.00 | 3:48.17 | 0 | 17116
2 | 3:48.17 | 5:00.18 | 17117 | 39634
3 | 8:48.35 | 3:49.22 | 39635 | 56831
4 | 12:37.57 | 4:30.45 | 56832 | 77126
5 | 17:08.27 | 4:00.05 | 77127 | 95131
6 | 21:08.32 | 4:18.23 | 95132 | 114504
7 | 25:26.55 | 4:41.07 | 114505 | 135586
8 | 30:07.62 | 4:11.43 | 135587 | 154454
9 | 34:19.30 | 3:56.02 | 154455 | 172156
10 | 38:15.32 | 3:26.28 | 172157 | 187634
11 | 41:41.60 | 3:44.02 | 187635 | 204436


Характеристики диапазона извлечения и сообщения об ошибках

Выбранный диапазон

Имя файла E:\Torrents\Rod Stewart - 2013 - The Studio Albums 1975 - 2001\2001 - Human\Rod Stewart - Human.wav

Пиковый уровень 99.8 %
Скорость извлечения 7.9 X
Качество диапазона 100.0 %
CRC теста 6889A8D9
CRC копии 6889A8D9
Копирование… OK

Ошибок не произошло


AccurateRip: сводка

Трек 1 : извлечено точно (доверие 2) [E47BAAF5] (AR v2)
Трек 2 : извлечено точно (доверие 2) [B7BFFB34] (AR v2)
Трек 3 : извлечено точно (доверие 2) [8A34903D] (AR v2)
Трек 4 : извлечено точно (доверие 2) [BF442D58] (AR v2)
Трек 5 : извлечено точно (доверие 2) [8A5CB441] (AR v2)
Трек 6 : извлечено точно (доверие 2) [CE6DECBA] (AR v2)
Трек 7 : извлечено точно (доверие 2) [24A18ECA] (AR v2)
Трек 8 : извлечено точно (доверие 2) [C137733B] (AR v2)
Трек 9 : извлечено точно (доверие 2) [8CADE930] (AR v2)
Трек 10 : извлечено точно (доверие 2) [076BD3FA] (AR v2)
Трек 11 : извлечено точно (доверие 2) [D0B50FCC] (AR v2)

Все треки извлечены точно

Конец отчёта

==== Контрольная сумма отчёта EDBA97A09F6CD2752F5FCB173E4CD0B82DE9224651A1E674374545B3F08CE561 ====


Many thanks to the original uploader: Копысов





Password: pass