Tags
Language
Tags

Roger Daltrey - As Long As I Have You (2018)

Posted By: v3122
Roger Daltrey - As Long As I Have You (2018)

Roger Daltrey - As Long As I Have You (2018)
EAC | Flac(Image) + Cue + Log & MP3 CBR 320Kbps
Polydor, QVR 0106 | ~ 254 or 88 Mb | Scans(jpg) -> 7.91 Mb
Rock, Rhythm 'N' Blues, Blues Rock

As Long as I Have You was a long time coming for Roger Daltrey. Set aside the fact that it's his first solo album since 1992's Rocks in the Head: the album was nearly four years in the making, started after his 2014 Wilko Johnson collaboration, Going Back Home, and not released until June of 2018. During that time, Daltrey battled viral meningitis, a struggle that had him on the verge of ditching the record, but his old Who cohort Pete Townshend heard some rough mixes and encouraged the singer to finish, volunteering his services as a session musician. Townshend's presence may suggest that he contributed original songs, but that's not the case. He's strictly a guitarist, playing rhythm on the soul covers that dominate As Long as I Have You. While the album isn't strictly covers – Daltrey co-wrote two sentimental tunes, "Certified Rose" and "Always Heading Home" – the record is built upon older material, songs that allow Daltrey to tie his past to the present. He chooses some songs that date back to the '60s, when he was just starting out as a singer – Joe Tex's "The Love You Save"; the title track, which was originally cut by Garnet Mimms – and balances them with his '70s contemporaries (Stephen Stills' "How Far," Boz Scaggs' "I've Got Your Love," Stevie Wonder's "You Haven't Done Nothing") along with Nick Cave's "Into My Arms." Daltrey stumbles upon the latter – it's too somber and stately for his style – but the rest of the record finds him in a fleet fashion, alternating between soulful testifying and empathy. Like Going Back Home before it, As Long as I Have You benefits from Daltrey's diminished range, as it adds gravity and grit to his interpretation. This album also benefits from its tight backing band, which is graced with a swinging horn section but distinguished by Townshend playing a secondary, sympathetic role to Daltrey, helping to give this muscular, occasionally moving record an air of grace.

by Stephen Thomas Erlewine, allmusic
Roger Daltrey - As Long As I Have You (2018):

Roger Daltrey - As Long As I Have You (2018)

Tracklist:

01. As Long As I Have You (Fred Wise & Ben Weisman) 03:17
02. How Far (Stephen Stills) 03:04
03. Where Is A Man To Go? 04:05
04. Get On Out Of The Rain 03:31
05. I’ve Got Your Love 03:30
06. Into My Arms (Nick Cave) 04:09
07. You Haven’t Done Nothing (Stevie Wonder) 03:57
08. Out Of Sight, Out Of Mind 02:05
09. Certified Rose (Roger Daltrey) 03:15
10. The Love You Save 03:06
11. Always Heading Home (Roger Daltrey and Nigel Hinton) 03:26

Musicians:

Roger Daltrey – vocals
Pete Townshend – guitar on seven tracks
Sean Genockey – lead guitar (as guest musician)
Mick Talbot – keyboards (as guest musician)


Converted to Image (CUETools 2.1.4)

Exact Audio Copy V1.3 from 2. September 2016

EAC extraction logfile from 30. August 2018, 20:41

Roger Daltrey / As Long As I Have You

Used drive : TSSTcorpCDDVDW SH-224DB Adapter: 1 ID: 0

Read mode : Secure
Utilize accurate stream : Yes
Defeat audio cache : Yes
Make use of C2 pointers : No

Read offset correction : 6
Overread into Lead-In and Lead-Out : No
Fill up missing offset samples with silence : Yes
Delete leading and trailing silent blocks : No
Null samples used in CRC calculations : Yes
Used interface : Native Win32 interface for Win NT & 2000
Gap handling : Appended to previous track

Used output format : User Defined Encoder
Selected bitrate : 1024 kBit/s
Quality : High
Add ID3 tag : No
Command line compressor : C:\Program Files (x86)\Exact Audio Copy\win64\flac.exe
Additional command line options : -8 -V -T "ARTIST=%artist%" -T "TITLE=%title%" -T "ALBUM=%albumtitle%" -T "DATE=%year%" -T "TRACKNUMBER=%tracknr%" -T "GENRE=%genre%" -T "COMMENT=%comment%" %source% -o %dest%


TOC of the extracted CD

Track | Start | Length | Start sector | End sector
––––––––––––––––––––––––––––-
1 | 0:00.00 | 3:16.56 | 0 | 14755
2 | 3:16.56 | 3:03.44 | 14756 | 28524
3 | 6:20.25 | 4:04.56 | 28525 | 46880
4 | 10:25.06 | 3:31.08 | 46881 | 62713
5 | 13:56.14 | 3:29.38 | 62714 | 78426
6 | 17:25.52 | 4:09.13 | 78427 | 97114
7 | 21:34.65 | 3:57.06 | 97115 | 114895
8 | 25:31.71 | 2:04.69 | 114896 | 124264
9 | 27:36.65 | 3:14.52 | 124265 | 138866
10 | 30:51.42 | 3:06.07 | 138867 | 152823
11 | 33:57.49 | 3:26.01 | 152824 | 168274


Track 1

Filename F:\Sket4er\Roger Daltrey – As Long As I Have You 2018\01 As Long As I have You.wav

Pre-gap length 0:00:02.00

Peak level 100.0 %
Extraction speed 1.9 X
Track quality 100.0 %
Test CRC 38D0C607
Copy CRC 38D0C607
Cannot be verified as accurate (confidence 9) [03C1B293], AccurateRip returned [01D84DA5] (AR v2)
Copy OK

Track 2

Filename F:\Sket4er\Roger Daltrey – As Long As I Have You 2018\02 How Far.wav

Peak level 100.0 %
Extraction speed 1.7 X
Track quality 99.9 %
Test CRC 5780431D
Copy CRC 5780431D
Cannot be verified as accurate (confidence 9) [7EFB62A1], AccurateRip returned [A84807F7] (AR v2)
Copy OK

Track 3

Filename F:\Sket4er\Roger Daltrey – As Long As I Have You 2018\03 Where Is A Man To Go.wav

Peak level 100.0 %
Extraction speed 2.2 X
Track quality 100.0 %
Test CRC 3E072B85
Copy CRC 3E072B85
Cannot be verified as accurate (confidence 9) [D0BBED32], AccurateRip returned [F74E6C49] (AR v2)
Copy OK

Track 4

Filename F:\Sket4er\Roger Daltrey – As Long As I Have You 2018\04 Get On Out Of The Rain.wav

Peak level 100.0 %
Extraction speed 2.3 X
Track quality 100.0 %
Test CRC CD15D72D
Copy CRC CD15D72D
Cannot be verified as accurate (confidence 9) [70BD053E], AccurateRip returned [D9E36D3B] (AR v2)
Copy OK

Track 5

Filename F:\Sket4er\Roger Daltrey – As Long As I Have You 2018\05 I've Got Your Love.wav

Peak level 100.0 %
Extraction speed 2.0 X
Track quality 99.9 %
Test CRC 590591C2
Copy CRC 590591C2
Cannot be verified as accurate (confidence 9) [6F593F5C], AccurateRip returned [D9992EAB] (AR v2)
Copy OK

Track 6

Filename F:\Sket4er\Roger Daltrey – As Long As I Have You 2018\06 Into My Arms.wav

Peak level 95.5 %
Extraction speed 2.6 X
Track quality 100.0 %
Test CRC 1ACEB5F1
Copy CRC 1ACEB5F1
Cannot be verified as accurate (confidence 9) [21B9CAB9], AccurateRip returned [472CF93F] (AR v2)
Copy OK

Track 7

Filename F:\Sket4er\Roger Daltrey – As Long As I Have You 2018\07 You Haven't Done Nothing.wav

Peak level 100.0 %
Extraction speed 2.7 X
Track quality 100.0 %
Test CRC 197C6759
Copy CRC 197C6759
Cannot be verified as accurate (confidence 9) [1ECB2E65], AccurateRip returned [FB5F5F43] (AR v2)
Copy OK

Track 8

Filename F:\Sket4er\Roger Daltrey – As Long As I Have You 2018\08 Out Of Sight, Out Of Mind.wav

Peak level 100.0 %
Extraction speed 2.5 X
Track quality 100.0 %
Test CRC EC6869AC
Copy CRC EC6869AC
Cannot be verified as accurate (confidence 9) [797C3F93], AccurateRip returned [54F0059A] (AR v2)
Copy OK

Track 9

Filename F:\Sket4er\Roger Daltrey – As Long As I Have You 2018\09 Certified Rose.wav

Peak level 100.0 %
Extraction speed 2.8 X
Track quality 100.0 %
Test CRC 8E3BC811
Copy CRC 8E3BC811
Cannot be verified as accurate (confidence 9) [CBDCFF71], AccurateRip returned [C6BF6356] (AR v2)
Copy OK

Track 10

Filename F:\Sket4er\Roger Daltrey – As Long As I Have You 2018\10 The Love You Save.wav

Peak level 98.8 %
Extraction speed 2.9 X
Track quality 100.0 %
Test CRC 09A76490
Copy CRC 09A76490
Cannot be verified as accurate (confidence 9) [66B50444], AccurateRip returned [67140E8E] (AR v2)
Copy OK

Track 11

Filename F:\Sket4er\Roger Daltrey – As Long As I Have You 2018\11 Always Heading Home.wav

Suspicious position 0:03:25

Peak level 95.0 %
Extraction speed 0.4 X
Track quality 99.3 %
Test CRC 02A57666
Copy CRC F4A21450
Cannot be verified as accurate (confidence 9) [A84F0461], AccurateRip returned [761C9AD3] (AR v2)
Copy finished


No tracks could be verified as accurate

There were errors

End of status report

–– CUETools DB Plugin V2.1.6

[CTDB TOCID: 2KbXNu5OSyV471OScU9gaEx9AME-] found
Submit result: insufficient quality
Track | CTDB Status
1 | (84/84) Accurately ripped
2 | (84/84) Accurately ripped
3 | (84/84) Accurately ripped
4 | (84/84) Accurately ripped
5 | (84/84) Accurately ripped
6 | (84/84) Accurately ripped
7 | (84/84) Accurately ripped
8 | (84/84) Accurately ripped
9 | (84/84) Accurately ripped
10 | (84/84) Differs in 58 samples @02:34:00,02:34:33,02:41:03
11 | (84/84) Differs in 379 samples @02:07:66,02:40:00-02:40:01,02:47:37,02:48:64,02:49:06,02:49:23,02:50:33,03:11:45,03:15:70,03:16:12,03:16:29,03:17:05,03:18:33,03:18:50,03:18:67,03:19:09,03:19:43,03:25:38
If you are sure that your rip contains errors, you can use CUETools to repair it.


==== Log checksum 8F3DC735764D7ACEB0C859A5D0FB2C38F47A77030BD89CEAD0D35B2CCDB32E8C ====


[CUETools log; Date: 31.08.2018 23:07:49; Version: 2.1.4]
[AccurateRip ID: 000fadd9-0087b2d0-a008c30b] found.
Track [ CRC | V2 ] Status
01 [2be87b33|03c1b293] (0+0/9) No match
02 [b1beecc2|7efb62a1] (0+0/9) No match
03 [ccad67f5|d0bbed32] (0+0/9) No match
04 [ab1fcaba|70bd053e] (0+0/9) No match
05 [6bafdc4e|6f593f5c] (0+0/9) No match
06 [6eb7f38f|21b9cab9] (0+0/9) No match
07 [6f62d101|1ecb2e65] (0+0/9) No match
08 [bb21a9ed|797c3f93] (0+0/9) No match
09 [4a73672f|cbdcff71] (0+0/9) No match
10 [e94edaec|66b50444] (0+0/9) No match
11 [691accad|a84f0461] (0+0/9) No match
Offsetted by 6:
01 [2b8a84b0] (0/9) No match (V2 was not tested)
02 [dc7b5d0a] (0/9) No match (V2 was not tested)
03 [f52f9bb1] (0/9) No match (V2 was not tested)
04 [15efef60] (0/9) No match (V2 was not tested)
05 [d78d8858] (0/9) No match (V2 was not tested)
06 [9615d7a3] (0/9) No match (V2 was not tested)
07 [4dd51fe3] (0/9) No match (V2 was not tested)
08 [978bb2e7] (0/9) No match (V2 was not tested)
09 [46dbf245] (0/9) No match (V2 was not tested)
10 [3ba6bb94] (0/9) No match (V2 was not tested)
11 [4e6261bf] (0/9) No match (V2 was not tested)

Track Peak [ CRC32 ] [W/O NULL] [ LOG ]
– 100,0 [961F2468] [8347CF02]
01 100,0 [38D0C607] [DCE4C437] CRC32
02 100,0 [5780431D] [0E113C8D] CRC32
03 100,0 [3E072B85] [2C171A0E] CRC32
04 100,0 [CD15D72D] [F18C973E] CRC32
05 100,0 [590591C2] [AEBADB36] CRC32
06 95,5 [1ACEB5F1] [8AE1F4EB] CRC32
07 100,0 [197C6759] [014EF945] CRC32
08 100,0 [EC6869AC] [0F7B9BA6] CRC32
09 100,0 [8E3BC811] [7E8311EE] CRC32
10 98,8 [09A76490] [44EEC5B2] CRC32
11 95,0 [F4A21450] [3B16A873] CRC32


Roger Daltrey - As Long As I Have You (2018)

All thanks go to Sket4er

Download Roger Daltrey - As Long As I Have You (2018):