Tags
Language
Tags

Roger Taylor - Outsider (2021)

Posted By: v3122
Roger Taylor - Outsider (2021)

Roger Taylor - Outsider (2021)
EAC | Flac(Image) + Cue + Log & MP3 CBR 320Kbps
EMI, 00602435807003 | RU | ~ 289 or 109 Mb | Artwork(jpg) -> 77 Mb
Rock, Pop Rock

Outsider is Queen drummer Roger Taylor’s sixth solo album, and the first one he’s really got right…

~ loudersound.com
Roger Taylor - Outsider (2021):

Roger Taylor - Outsider (2021)

Tracklist:

01. Tides 03:40
02. I Know, I Know, I Know 03:52
03. More Kicks (Long Day's Journey into Night… Life) 04:57
04. Absolutely Anything 05:05
05. Gangsters Are Running Ths World 04:05
06. We’re All Just Trying To Get By (Featuring K T Tunstall) 02:53
07. Gangsters Are Running This World (Purple Version) 02:38
08. Isolation 03:35
09. The Clapping Song 02:56
10. Outsider 03:42
11. Foreign Sand (English Mix) 03:02
12. Journey’s End 06:59

Exact Audio Copy V1.6 from 23. October 2020

Отчёт EAC об извлечении, выполненном 14. октября 2021, 14:32

Roger Taylor / Outsider

Дисковод: ASUS DRW-24D5MT Adapter: 1 ID: 0

Режим чтения : Достоверность
Использование точного потока : Да
Отключение кэша аудио : Да
Использование указателей C2 : Нет

Коррекция смещения при чтении : 6
Способность читать области Lead-in и Lead-out : Нет
Заполнение пропущенных сэмплов тишиной : Да
Удаление блоков с тишиной в начале и конце : Нет
При вычислениях CRC использовались нулевые сэмплы : Да
Интерфейс : Встроенный Win32-интерфейс для Win NT/2000
Обработка зазоров : Добавлено к предыдущему треку

Выходной формат : Пользовательский кодировщик
Выбранный битрейт : 128 kBit/s
Качество : Высокий
Добавление ID3-тега : Нет
Утилита сжатия : C:\Program Files (x86)\Exact Audio Copy\Flac\flac.exe
Дополнительные параметры : -V -8 -T "Genre=%genre%" -T "Artist=%artist%" -T "Title=%title%" -T "Album=%albumtitle%" -T "Date=%year%" -T "Tracknumber=%tracknr%" -T "Comment=%comment%" %source%


TOC извлечённого CD

Трек | Старт | Длительность | Начальный сектор | Конечный сектор
––––––––––––––––––––––––––––––––––-
1 | 0:00.00 | 3:39.61 | 0 | 16485
2 | 3:39.61 | 3:51.63 | 16486 | 33873
3 | 7:31.49 | 4:56.04 | 33874 | 56077
4 | 12:27.53 | 5:04.33 | 56078 | 78910
5 | 17:32.11 | 4:04.15 | 78911 | 97225
6 | 21:36.26 | 2:52.48 | 97226 | 110173
7 | 24:28.74 | 2:37.06 | 110174 | 121954
8 | 27:06.05 | 3:24.06 | 121955 | 137260
9 | 30:30.11 | 2:55.39 | 137261 | 150424
10 | 33:25.50 | 3:41.12 | 150425 | 167011
11 | 37:06.62 | 3:01.61 | 167012 | 180647
12 | 40:08.48 | 6:58.09 | 180648 | 212006


Трек 1

Имя файла M:\Рипы\Новая папка (2)\01 - Tides.wav

Длина предзазора 0:00:02.00

Пиковый уровень 99.9 %
Скорость извлечения 4.7 X
Качество трека 100.0 %
CRC теста B0209480
CRC копии B0209480
Трек не обнаружен в базе AccurateRip
Копирование… OK

Трек 2

Имя файла M:\Рипы\Новая папка (2)\02 - I Know, I Know, I Know.wav

Пиковый уровень 99.9 %
Скорость извлечения 5.2 X
Качество трека 100.0 %
CRC теста 0A8FA25E
CRC копии 0A8FA25E
Трек не обнаружен в базе AccurateRip
Копирование… OK

Трек 3

Имя файла M:\Рипы\Новая папка (2)\03 - More Kicks (Long Day’s Journey Into Night… Life).wav

Пиковый уровень 99.9 %
Скорость извлечения 5.8 X
Качество трека 100.0 %
CRC теста 2CB55F41
CRC копии 2CB55F41
Трек не обнаружен в базе AccurateRip
Копирование… OK

Трек 4

Имя файла M:\Рипы\Новая папка (2)\04 - Absolutely Anything.wav

Пиковый уровень 99.8 %
Скорость извлечения 5.7 X
Качество трека 99.9 %
CRC теста E9E81A0F
CRC копии E9E81A0F
Трек не обнаружен в базе AccurateRip
Копирование… OK

Трек 5

Имя файла M:\Рипы\Новая папка (2)\05 - Gangsters Are Running This World.wav

Пиковый уровень 99.9 %
Скорость извлечения 6.5 X
Качество трека 100.0 %
CRC теста 888E6502
CRC копии 888E6502
Трек не обнаружен в базе AccurateRip
Копирование… OK

Трек 6

Имя файла M:\Рипы\Новая папка (2)\06 - We’re All Just Trying to Get By.wav

Пиковый уровень 100.0 %
Скорость извлечения 5.6 X
Качество трека 99.9 %
CRC теста 83A9A856
CRC копии 83A9A856
Трек не обнаружен в базе AccurateRip
Копирование… OK

Трек 7

Имя файла M:\Рипы\Новая папка (2)\07 - Gangsters Are Running This World (Purple version).wav

Пиковый уровень 99.9 %
Скорость извлечения 6.5 X
Качество трека 100.0 %
CRC теста 960EAFBF
CRC копии 960EAFBF
Трек не обнаружен в базе AccurateRip
Копирование… OK

Трек 8

Имя файла M:\Рипы\Новая папка (2)\08 - Isolation.wav

Пиковый уровень 99.9 %
Скорость извлечения 7.1 X
Качество трека 100.0 %
CRC теста A55F9054
CRC копии A55F9054
Трек не обнаружен в базе AccurateRip
Копирование… OK

Трек 9

Имя файла M:\Рипы\Новая папка (2)\09 - The Clapping Song.wav

Пиковый уровень 99.9 %
Скорость извлечения 7.1 X
Качество трека 100.0 %
CRC теста 1F34EDAC
CRC копии 1F34EDAC
Трек не обнаружен в базе AccurateRip
Копирование… OK

Трек 10

Имя файла M:\Рипы\Новая папка (2)\10 - Outsider.wav

Пиковый уровень 99.9 %
Скорость извлечения 7.5 X
Качество трека 100.0 %
CRC теста A6C9C883
CRC копии A6C9C883
Трек не обнаружен в базе AccurateRip
Копирование… OK

Трек 11

Имя файла M:\Рипы\Новая папка (2)\11 - Foreign Sand (English mix).wav

Пиковый уровень 84.8 %
Скорость извлечения 7.5 X
Качество трека 100.0 %
CRC теста B5B0F7E4
CRC копии B5B0F7E4
Трек не обнаружен в базе AccurateRip
Копирование… OK

Трек 12

Имя файла M:\Рипы\Новая папка (2)\12 - Journey’s End.wav

Пиковый уровень 99.9 %
Скорость извлечения 8.7 X
Качество трека 100.0 %
CRC теста EC37A227
CRC копии EC37A227
Трек не обнаружен в базе AccurateRip
Копирование… OK


Ни одного трека нет в базе AccurateRip

Ошибок не произошло

Конец отчёта

–– CUETools DB Plugin V2.1.6

[CTDB TOCID: WT7PY8gF3Nlr5IeBs1eC60TmWNg-] disk not present in database
Submit result: WT7PY8gF3Nlr5IeBs1eC60TmWNg- has been uploaded


==== Контрольная сумма отчёта FE919100DC0971D9B5748EB03E3BA8C51C85AD5C9B1716376F99663244FF9513 ====


[CUETools log; Date: 16.10.2021 1:51:45; Version: 2.1.4]
[AccurateRip ID: 0014c889-00c00552-8e0b0a0c] disk not present in database.

Track Peak [ CRC32 ] [W/O NULL] [ LOG ]
– 100,0 [115CB9C5] [09F12FCD]
01 99,9 [B0209480] [BFFF2AE0] CRC32
02 99,9 [0A8FA25E] [44D8F203] CRC32
03 99,9 [2CB55F41] [66A115B4] CRC32
04 99,8 [E9E81A0F] [CD6015DE] CRC32
05 99,9 [888E6502] [F7F67B98] CRC32
06 100,0 [83A9A856] [781CD8D6] CRC32
07 99,9 [960EAFBF] [0FEB4217] CRC32
08 99,9 [A55F9054] [28319378] CRC32
09 99,9 [1F34EDAC] [C8B81E77] CRC32
10 99,9 [A6C9C883] [86439ED7] CRC32
11 84,8 [B5B0F7E4] [377DB0F9] CRC32
12 99,9 [EC37A227] [FFB4B0E0] CRC32


Roger Taylor - Outsider (2021)

All thanks go to the original releaser

Roger Taylor in my Blog

Download Roger Taylor - Outsider (2021):