Tags
Language
Tags
April 2024
Su Mo Tu We Th Fr Sa
31 1 2 3 4 5 6
7 8 9 10 11 12 13
14 15 16 17 18 19 20
21 22 23 24 25 26 27
28 29 30 1 2 3 4

Ron Carter - Ron Carter's Great Big Band (2011)

Posted By: gribovar
Ron Carter - Ron Carter's Great Big Band (2011)

Ron Carter - Ron Carter's Great Big Band (2011)
EAC Rip | FLAC (tracks+.cue+log) - 352 MB | MP3 CBR 320 kbps (LAME 3.93) - 125 MB | Covers - 13 MB
Genre: Jazz, Big Band | RAR 3% Rec. | Label: Sunnyside/Crazy Scot Records (SSC 1293)

Ron Carter is one of the most recorded bassists in jazz. In his mid-seventies at the time of these sessions, he is very much still at the top of his game as he leads the first big-band date of his own, with potent arrangements by conductor Robert M. Freedman and including some of New York's busiest musicians, including Jerry Dodgion, Steve Wilson, Wayne Escoffery, and Scott Robinson in the woodwind section, brass players Steve Davis, Douglas Purviance, and Greg Gisbert, plus pianist Mulgrew Miller and drummer Lewis Nash, among others. Freedman's charts are short and sweet, all of them under five minutes, with much of the focus on imaginative writing and Carter's melodic bass central in the mix. The material spans from the 1920s to the present, played with imagination. The opening "Caravan" is taken far from its roots, transformed into a breezy bop vehicle, even slipping in a dissonant snippet of "Hot House." The setting of Dizzy Gillespie's "Con Alma" retains its Latin flavor, with a lush introduction by the brass and reeds and strong solos by Miller and Carter. Carter's inventive bass provides the undercurrent for the brisk interpretation of Wayne Shorter's marvelous jazz standard "Footprints," while the upbeat performance of Gerry Mulligan's "Line for Lyons" would have pleased its composer. Carter has long been a prolific composer, and his "Loose Change" is a funky affair with marvelous interplay among the brass and reeds, while "Opus 1.5 (Theme for C.B.)" is mellow and somber, with Charles Pillow's mellow English horn prominent and an intricate solo by Carter. With this delightful big-band date, the veteran bassist continues to surprise and delight listeners during a career spanning five-plus decades.
Tracklist:
01. Caravan
02. The Eternal Triangle
03. Pork Chop
04. Opus 1.5 (Theme for C.B.)
05. Con Alma
06. Sail Away
07. Opus One
08. Sweet Emma
09. Saint Louis Blues
10. Line for Lyons
11. Footprints
12. The Golden Striker
13. Loose Change

Total time: 53:17

Exact Audio Copy V1.0 beta 2 from 29. April 2011

EAC extraction logfile from 3. December 2011, 9:46

Ron Carter / Ron Carter's Great Big Band

Used drive : PIONEER DVD-RW DVR-115D Adapter: 4 ID: 0

Read mode : Secure
Utilize accurate stream : Yes
Defeat audio cache : Yes
Make use of C2 pointers : No

Read offset correction : 48
Overread into Lead-In and Lead-Out : No
Fill up missing offset samples with silence : Yes
Delete leading and trailing silent blocks : No
Null samples used in CRC calculations : Yes
Used interface : Native Win32 interface for Win NT & 2000
Gap handling : Appended to previous track

Used output format : User Defined Encoder
Selected bitrate : 128 kBit/s
Quality : High
Add ID3 tag : No
Command line compressor : C:\Program Files (x86)\Exact Audio Copy\Flac\flac.exe
Additional command line options : -8 -V -T "ARTIST=%artist%" -T "TITLE=%title%" -T "ALBUM=%albumtitle%" -T "DATE=%year%" -T "TRACKNUMBER=%tracknr%" -T "GENRE=%genre%" -T "PERFORMER=%albuminterpret%" -T "COMPOSER=%composer%" %haslyrics%–tag-from-file=LYRICS


TOC of the extracted CD

Track | Start | Length | Start sector | End sector
––––––––––––––––––––––––––––-
1 | 0:00.00 | 3:42.19 | 0 | 16668
2 | 3:42.19 | 3:04.35 | 16669 | 30503
3 | 6:46.54 | 3:47.19 | 30504 | 47547
4 | 10:33.73 | 3:42.40 | 47548 | 64237
5 | 14:16.38 | 4:29.25 | 64238 | 84437
6 | 18:45.63 | 4:23.39 | 84438 | 104201
7 | 23:09.27 | 3:33.56 | 104202 | 120232
8 | 26:43.08 | 5:19.14 | 120233 | 144171
9 | 32:02.22 | 4:33.42 | 144172 | 164688
10 | 36:35.64 | 3:36.18 | 164689 | 180906
11 | 40:12.07 | 4:54.50 | 180907 | 203006
12 | 45:06.57 | 3:59.34 | 203007 | 220965
13 | 49:06.16 | 4:10.43 | 220966 | 239758


Track 1

Filename J:\EAC Rips\Ron Carter - 2011 - Ron Carter's Great Big Band [FLAC]\01 - Caravan.wav

Pre-gap length 0:00:02.00

Peak level 98.8 %
Extraction speed 4.2 X
Track quality 100.0 %
Test CRC F7097DC4
Copy CRC F7097DC4
Track not present in AccurateRip database
Copy OK

Track 2

Filename J:\EAC Rips\Ron Carter - 2011 - Ron Carter's Great Big Band [FLAC]\02 - The Eternal Triangle.wav

Pre-gap length 0:00:01.81

Peak level 100.0 %
Extraction speed 1.1 X
Track quality 99.5 %
Test CRC A0EC4A5B
Copy CRC A0EC4A5B
Track not present in AccurateRip database
Copy OK

Track 3

Filename J:\EAC Rips\Ron Carter - 2011 - Ron Carter's Great Big Band [FLAC]\03 - Pork Chop.wav

Pre-gap length 0:00:03.54

Peak level 99.7 %
Extraction speed 4.9 X
Track quality 100.0 %
Test CRC 422598B0
Copy CRC 422598B0
Track not present in AccurateRip database
Copy OK

Track 4

Filename J:\EAC Rips\Ron Carter - 2011 - Ron Carter's Great Big Band [FLAC]\04 - Opus One Point Five.wav

Pre-gap length 0:00:03.25

Peak level 96.4 %
Extraction speed 5.3 X
Track quality 100.0 %
Test CRC D82DBA0D
Copy CRC D82DBA0D
Track not present in AccurateRip database
Copy OK

Track 5

Filename J:\EAC Rips\Ron Carter - 2011 - Ron Carter's Great Big Band [FLAC]\05 - Con Alma.wav

Pre-gap length 0:00:02.40

Peak level 99.8 %
Extraction speed 5.8 X
Track quality 100.0 %
Test CRC 1587CEC6
Copy CRC 1587CEC6
Track not present in AccurateRip database
Copy OK

Track 6

Filename J:\EAC Rips\Ron Carter - 2011 - Ron Carter's Great Big Band [FLAC]\06 - Sail Away.wav

Pre-gap length 0:00:02.92

Peak level 97.1 %
Extraction speed 6.1 X
Track quality 100.0 %
Test CRC 89BA3F67
Copy CRC 89BA3F67
Track not present in AccurateRip database
Copy OK

Track 7

Filename J:\EAC Rips\Ron Carter - 2011 - Ron Carter's Great Big Band [FLAC]\07 - Opus Number One.wav

Pre-gap length 0:00:02.70

Peak level 98.2 %
Extraction speed 6.2 X
Track quality 100.0 %
Test CRC 3B9BF024
Copy CRC 3B9BF024
Track not present in AccurateRip database
Copy OK

Track 8

Filename J:\EAC Rips\Ron Carter - 2011 - Ron Carter's Great Big Band [FLAC]\08 - Sweet Emma.wav

Pre-gap length 0:00:03.65

Peak level 98.8 %
Extraction speed 6.8 X
Track quality 100.0 %
Test CRC 2B14473B
Copy CRC 2B14473B
Track not present in AccurateRip database
Copy OK

Track 9

Filename J:\EAC Rips\Ron Carter - 2011 - Ron Carter's Great Big Band [FLAC]\09 - Saint Louis Blues.wav

Pre-gap length 0:00:03.38

Peak level 100.0 %
Extraction speed 6.3 X
Track quality 99.9 %
Test CRC ECA4C86C
Copy CRC ECA4C86C
Track not present in AccurateRip database
Copy OK

Track 10

Filename J:\EAC Rips\Ron Carter - 2011 - Ron Carter's Great Big Band [FLAC]\10 - Line for Lyons.wav

Pre-gap length 0:00:03.76

Peak level 100.0 %
Extraction speed 7.1 X
Track quality 100.0 %
Test CRC 23F16E85
Copy CRC 23F16E85
Track not present in AccurateRip database
Copy OK

Track 11

Filename J:\EAC Rips\Ron Carter - 2011 - Ron Carter's Great Big Band [FLAC]\11 - Footprints.wav

Pre-gap length 0:00:02.92

Peak level 100.0 %
Extraction speed 7.6 X
Track quality 100.0 %
Test CRC 3938FC05
Copy CRC 3938FC05
Track not present in AccurateRip database
Copy OK

Track 12

Filename J:\EAC Rips\Ron Carter - 2011 - Ron Carter's Great Big Band [FLAC]\12 - The Golden Striker.wav

Pre-gap length 0:00:03.08

Peak level 97.4 %
Extraction speed 7.6 X
Track quality 100.0 %
Test CRC 06968CF4
Copy CRC 06968CF4
Track not present in AccurateRip database
Copy OK

Track 13

Filename J:\EAC Rips\Ron Carter - 2011 - Ron Carter's Great Big Band [FLAC]\13 - Loose Change.wav

Pre-gap length 0:00:03.08

Peak level 99.0 %
Extraction speed 7.9 X
Track quality 100.0 %
Test CRC 8C058D3A
Copy CRC 8C058D3A
Track not present in AccurateRip database
Copy OK


None of the tracks are present in the AccurateRip database

No errors occurred

End of status report

–– CUETools DB Plugin V2.1.3

[CTDB TOCID: yvM_lGcMN9t_v1AFBtrq1HGR9a8-] disk not present in database, Submit result: yvM_lGcMN9t_v1AFBtrq1HGR9a8- has been uploaded


==== Log checksum CB7397EB4C90B2B22C475BF2B09E577E58F415362714047A8CB2620B8D375BC5 ====

[CUETools log; Date: 10.07.2023 23:57:05; Version: 2.1.4]
[CTDB TOCID: yvM_lGcMN9t_v1AFBtrq1HGR9a8-] found.
Track | CTDB Status
1 | (41/41) Accurately ripped
2 | (41/41) Accurately ripped
3 | (41/41) Accurately ripped
4 | (41/41) Accurately ripped
5 | (41/41) Accurately ripped
6 | (41/41) Accurately ripped
7 | (41/41) Accurately ripped
8 | (41/41) Accurately ripped
9 | (41/41) Accurately ripped
10 | (41/41) Accurately ripped
11 | (41/41) Accurately ripped
12 | (41/41) Accurately ripped
13 | (41/41) Accurately ripped
[AccurateRip ID: 0018bd54-00fac29e-b40c7c0d] found.
Track [ CRC | V2 ] Status
01 [29c57bd2|b9a7aae0] (00+24/24) Accurately ripped
02 [a8654990|476aea76] (00+24/24) Accurately ripped
03 [b70995e7|8ce341a3] (00+24/24) Accurately ripped
04 [240b9e03|d6ee23b9] (00+24/24) Accurately ripped
05 [662f78ea|526f715f] (00+24/24) Accurately ripped
06 [a810c8d4|57a57a2c] (00+24/24) Accurately ripped
07 [72c577a7|068861cb] (00+24/24) Accurately ripped
08 [37a00f13|a855af8d] (00+24/24) Accurately ripped
09 [a243e8f5|97889df2] (00+24/24) Accurately ripped
10 [97e505e4|87dca409] (00+24/24) Accurately ripped
11 [8a1cdcb8|0751bae8] (00+24/24) Accurately ripped
12 [4285b310|ba09de9f] (00+24/24) Accurately ripped
13 [6998f703|0c85eed3] (00+23/23) Accurately ripped

Track Peak [ CRC32 ] [W/O NULL] [ LOG ]
– 100,0 [514A362D] [D577557F]
01 98,8 [F7097DC4] [ED5CA4B1] CRC32
02 100,0 [A0EC4A5B] [3EE7BA2C] CRC32
03 99,7 [422598B0] [CC91B183] CRC32
04 96,4 [D82DBA0D] [EC67EFDB] CRC32
05 99,8 [1587CEC6] [B67818F0] CRC32
06 97,1 [89BA3F67] [059EB167] CRC32
07 98,2 [3B9BF024] [390043D8] CRC32
08 98,8 [2B14473B] [364E3A8A] CRC32
09 100,0 [ECA4C86C] [73ECDB11] CRC32
10 100,0 [23F16E85] [33B0E0EB] CRC32
11 100,0 [3938FC05] [73E4D352] CRC32
12 97,4 [06968CF4] [F220DF89] CRC32
13 99,0 [8C058D3A] [40E93103] CRC32

Thanks to the original releaser