Subcategories
Tags
Language
Tags

Tobias Ringborg, Malmö Opera Orchestra - Rossini: Le Comte Ory (2018) [BDRip]

Posted By: Vilboa
Tobias Ringborg, Malmö Opera Orchestra - Rossini: Le Comte Ory (2018) [BDRip]

Tobias Ringborg, Malmö Opera Orchestra - Rossini: Le Comte Ory (2018) [BDRip]
BluRay-rip | AVC | MKV 1920x1080 / 6 215 kbps / 29,97 fps | 141 min | 6,33 Gb
Audio: Français / AC3 / 2ch / 48.0 KHz / 192 Kbps
Classical | Naxos | Sub: French, English, German, Japanese, Korean

Gioachino Rossini was summoned to Paris in 1824 to breathe new life into its opera culture, and one of his most exciting innovations in this period was the creation of an entirely new genre of opera comedy. The risqué tale of Le Comte Ory had its origins in vaudeville theatre and is based on the story of a villainous Count who attempts the seduction of Countess Adele as she awaits the return of her husband from the Crusades. Le Comte Ory is the last of Rossini s comic operas, making full use of the libretto s farcical disguises and humor in one of his most colorfully orchestrated scores. This production, staged by Linda Mallik, features the Malmo Opera Orchestra and Chorus with world renowned soloists Leonardo Ferrando as Count Ory and Erika Miklosa as Countess Adele. Linda Mallik made her directorial debut in 2012 and received unanimous praise in the Swedish and international press, making her one of the most sought-after opera directors in Sweden. She has also staged Le Nozze di Figaro at NorrlandsOperan, M/S Aurora at the Berwaldhallen, Faust and Mayday Payday at Folkoperan in Stockholm, among others.

Cast:
Count Ory - Leonardo Ferrando
Tutor of Count Ory - Lars Arvidson
Isolier - Daniela Pini
Raimbaud - Igor Bakan
Countess Adèle - Erika Miklósa
Ragonde - Irina de Baghy
Alice - Danka Milačić
A Farmer / Peasant - Jonas Samuelsson
Gérald - Jacob Wistrand
Mainfroy - Eric Lavoipierre
Two Knights - Thomas Hildebrandt and Eric Roos
Two Ladies - Katarina Lundberg and Ellika Ström Meijling
A messenger - Edwin Forsell
Malmö Opera Chorus
Malmö Opera Orchestra
Conductor - Tobias Ringborg


General
Unique ID : 209155946716907955099650392573448862930 (0x9D59F85759F05706A90570398684BCD2)
Complete name : C:\LE COMTE ORY.mkv
Format : Matroska
Format version : Version 2
File size : 6.34 GiB
Duration : 2h 21mn
Overall bit rate : 6 396 Kbps
Movie name : LE COMTE ORY
Encoded date : UTC 2021-03-23 13:26:13
Writing application : DVDFab 9.1.6.8
Writing library : libebml v0.7.8 + libmatroska v0.8.1

Video
ID : 1
Format : AVC
Format/Info : Advanced Video Codec
Format profile : High@L4.1
Format settings, CABAC : Yes
Format settings, ReFrames : 2 frames
Format settings, GOP : M=3, N=24
Codec ID : V_MPEG4/ISO/AVC
Duration : 2h 21mn
Bit rate : 6 215 Kbps
Width : 1 920 pixels
Height : 1 080 pixels
Display aspect ratio : 16:9
Frame rate mode : Constant
Frame rate : 29.970 fps
Color space : YUV
Chroma subsampling : 4:2:0
Bit depth : 8 bits
Scan type : Progressive
Bits/(Pixel*Frame) : 0.100
Stream size : 6.02 GiB (95%)
Writing library : x264 core 142
Encoding settings : cabac=1 / ref=1 / deblock=1:-1:-1 / analyse=0x3:0 / me=hex / subme=5 / psy=0 / mixed_ref=0 / me_range=16 / chroma_me=1 / trellis=0 / 8x8dct=1 / cqm=0 / deadzone=21,11 / fast_pskip=1 / chroma_qp_offset=0 / threads=8 / lookahead_threads=2 / sliced_threads=0 / nr=0 / decimate=1 / interlaced=0 / bluray_compat=0 / constrained_intra=0 / bframes=2 / b_pyramid=0 / b_adapt=1 / b_bias=0 / direct=1 / weightb=1 / open_gop=0 / weightp=0 / keyint=24 / keyint_min=13 / scenecut=40 / intra_refresh=0 / rc=abr / mbtree=0 / bitrate=6215 / ratetol=1.0 / qcomp=0.60 / qpmin=0 / qpmax=69 / qpstep=4 / ip_ratio=1.40 / pb_ratio=1.30 / aq=1:1.00
Default : Yes
Forced : No
Color primaries : BT.709
Transfer characteristics : BT.709
Matrix coefficients : BT.709
Color range : Limited

Audio
ID : 2
Format : AC-3
Format/Info : Audio Coding 3
Mode extension : CM (complete main)
Format settings, Endianness : Big
Codec ID : A_AC3
Duration : 2h 21mn
Bit rate mode : Constant
Bit rate : 192 Kbps
Channel(s) : 2 channels
Channel positions : Front: L R
Sampling rate : 48.0 KHz
Bit depth : 16 bits
Compression mode : Lossy
Stream size : 195 MiB (3%)
Language : English
Default : Yes
Forced : No

Text #1
ID : 3
Format : VobSub
Codec ID : S_VOBSUB
Codec ID/Info : The same subtitle format used on DVDs
Language : French
Default : Yes
Forced : No

Text #2
ID : 4
Format : VobSub
Codec ID : S_VOBSUB
Codec ID/Info : The same subtitle format used on DVDs
Language : English
Default : No
Forced : No

Text #3
ID : 5
Format : VobSub
Codec ID : S_VOBSUB
Codec ID/Info : The same subtitle format used on DVDs
Language : German
Default : No
Forced : No

Text #4
ID : 6
Format : VobSub
Codec ID : S_VOBSUB
Codec ID/Info : The same subtitle format used on DVDs
Language : Japanese
Default : No
Forced : No

Text #5
ID : 7
Format : VobSub
Codec ID : S_VOBSUB
Codec ID/Info : The same subtitle format used on DVDs
Language : Korean
Default : No
Forced : No

Menu
00:00:00.000 : en:Chapter 01
00:00:25.725 : en:Chapter 02
00:03:28.274 : en:Chapter 03
00:10:20.453 : en:Chapter 04
00:15:17.950 : en:Chapter 05
00:18:53.599 : en:Chapter 06
00:20:55.487 : en:Chapter 07
00:23:11.356 : en:Chapter 08
00:29:23.728 : en:Chapter 09
00:32:41.326 : en:Chapter 10
00:36:03.628 : en:Chapter 11
00:38:46.824 : en:Chapter 12
00:45:59.256 : en:Chapter 13
00:47:39.990 : en:Chapter 14
00:53:35.745 : en:Chapter 15
00:55:18.515 : en:Chapter 16
00:59:15.385 : en:Chapter 17
01:01:25.548 : en:Chapter 18
01:04:22.491 : en:Chapter 19
01:06:47.670 : en:Chapter 20
01:10:51.046 : en:Chapter 21
01:19:43.645 : en:Chapter 22
01:23:40.782 : en:Chapter 23
01:26:04.125 : en:Chapter 24
01:33:00.875 : en:Chapter 25
01:36:56.410 : en:Chapter 26
01:37:31.212 : en:Chapter 27
01:41:44.665 : en:Chapter 28
01:42:38.118 : en:Chapter 29
01:48:39.279 : en:Chapter 30
01:52:57.937 : en:Chapter 31
01:55:04.631 : en:Chapter 32
01:59:30.630 : en:Chapter 33
02:09:11.944 : en:Chapter 34
02:12:32.611 : en:Chapter 35
02:14:04.069 : en:Chapter 36
02:17:12.924 : en:Chapter 37

Tobias Ringborg, Malmö Opera Orchestra - Rossini: Le Comte Ory (2018) [BDRip]