Subcategories

Rubinstein: Solo Piano Music (2 CDs, 1994)

Posted By: ch1525
Rubinstein: Solo Piano Music (2 CDs, 1994)

Rubinstein: Solo Piano Music (2 CDs)
Classical | EAC Secure Rip | FLAC (Separate Tracks) | Log (No CUE)| Full 600dpi Scans | 2:34:33 | Rapidshare.com (3% Recovery) | 1994 | 413 MB | Label: Hyperion
Leslie Howard

Two exceedingly well-filled discs give us the cream of Rubinstein's piano music, beginning with the delicious Melody in F, his most famous composition
Classic CD

Tracks:
1 Deux Mélodies, Op.3 - No.1 in F major (revised edition): Moderato "Melody in F"
2 Deux Mélodies, Op.3 - No.2 in B major: Andante
3 Deux Morceaux, Op.30 - No.1 in F minor: Première Barcarolle (Moderato)
4 Deux Morceaux, Op.30 - No.2 in D minor: Allegro appassionato
5 Trois Barcarolles - Deuxième Barcarolle in A minor, Op.45bis (Moderato assai)
6 Trois Barcarolles - Troisième Barcarolle in G minor, Op.50/3bis (Moderato con moto)
7 Trois Barcarolles - Quatrième Barcarolle in G major (Allegretto con moto)
8 Fantaisie in E minor, Op.77 - Adagio - Allegro con fuoco
9 Fantaisie in E minor, Op.77 - Moderato assai
10 Fantaisie in E minor, Op.77 - Allegro molto- Moderato- Allegro molto- Poco meno mosso- Presto
11 Fantaisie in E minor, Op.77 - Molto lento- Vivace assai- Tempo rubato- Quasi presto
12 Trois Caprices, Op.21 - No.1 in F sharp major: Allegretto scherzando
13 Trois Caprices, Op.21 - No.2 in D minor: Andante - Allegro
14 Trois Caprices, Op.21 - No.3 in E flat major: Allegro risoluto - Andante - Tempo1
15 Trois Sérénades, Op.22 - No.1 in F major: Moderato assai
16 Trois Sérénades, Op.22 - No.2 in G minor: Moderato assai
17 Trois Sérénades, Op.22 - No.3 in E flat major: Allegretto con moto
18 Thème et Variations, Op.88 - Theme: Lento - Allegro moderato (G major)
19 Thème et Variations, Op.88 - Variation I: Allegro (G Major)
20 Thème et Variations, Op.88 - Variation II: Andante con moto (E minor)
21 Thème et Variations, Op.88 - Variation III: Moderato con moto (C major)
22 Thème et Variations, Op.88 - Variation IV: Moderato (C minor)
23 Thème et Variations, Op.88 - Variation V: Moderato (G major)
24 Thème et Variations, Op.88 - Variation VI: Allegro non troppo (G minor)
25 Thème et Variations, Op.88 - Variation VII: Moderato assai (E flat major)
26 Thème et Variations, Op.88 - Variation VIII: Moderato asai (E flat minor)
27 Thème et Variations, Op.88 - Variation IX: Moderato (B major)
28 Thème et Variations, Op.88 - Variation X: Moderato (B minor)
29 Thème et Variations, Op.88 - Variation XI: Allegro (D major)
30 Thème et Variations, Op.88 - Variation XII: Allegro moderato (G major)

Exact Audio Copy V0.99 prebeta 4 from 23. January 2008

EAC extraction logfile from 12. March 2009, 13:46

Leslie Howard / Anton Rubinstein- Solo Piano Music

Used drive : _NEC DVD+-RW ND-3530A Adapter: 0 ID: 1

Read mode : Secure
Utilize accurate stream : Yes
Defeat audio cache : No
Make use of C2 pointers : Yes

Read offset correction : 48
Overread into Lead-In and Lead-Out : No
Fill up missing offset samples with silence : Yes
Delete leading and trailing silent blocks : No
Null samples used in CRC calculations : Yes
Used interface : Native Win32 interface for Win NT & 2000
Gap handling : Not detected, thus appended to previous track

Used output format : User Defined Encoder
Selected bitrate : 1024 kBit/s
Quality : High
Add ID3 tag : No
Command line compressor : C:\Program Files\Exact Audio Copy\FLAC\FLAC.EXE
Additional command line options : -5 -V -T "ARTIST=%a" -T "TITLE=%t" -T "ALBUM=%g" -T "DATE=%y" -T "TRACKNUMBER=%n" -T "GENRE=%m" -T "COMMENT=%e" %s -o %d


TOC of the extracted CD

Track | Start | Length | Start sector | End sector
––––––––––––––––––––––––––––-
1 | 0:00.32 | 4:20.25 | 32 | 19556
2 | 4:20.57 | 3:45.20 | 19557 | 36451
3 | 8:06.02 | 5:38.20 | 36452 | 61821
4 | 13:44.22 | 5:06.50 | 61822 | 84821
5 | 18:50.72 | 6:34.73 | 84822 | 114444
6 | 25:25.70 | 3:45.00 | 114445 | 131319
7 | 29:10.70 | 5:13.60 | 131320 | 154854
8 | 34:24.55 | 13:50.10 | 154855 | 217114
9 | 48:14.65 | 7:05.27 | 217115 | 249016
10 | 55:20.17 | 7:07.20 | 249017 | 281061
11 | 62:27.37 | 16:38.35 | 281062 | 355946


Track 1

Filename H:\EAC\Leslie Howard\Anton Rubinstein- Solo Piano Music\01 - Deux Melodies op.3 - No.1 in F major- Moderato.wav

Peak level 26.3 %
Track quality 100.0 %
Test CRC D3914C60
Copy CRC D3914C60
Accurately ripped (confidence 2) [3DAA2CED]
Copy OK

Track 2

Filename H:\EAC\Leslie Howard\Anton Rubinstein- Solo Piano Music\02 - Deux Melodies op.3 - No.2 in B major- Andante.wav

Peak level 26.1 %
Track quality 100.0 %
Test CRC 9BA26916
Copy CRC 9BA26916
Accurately ripped (confidence 2) [AFBCC2C9]
Copy OK

Track 3

Filename H:\EAC\Leslie Howard\Anton Rubinstein- Solo Piano Music\03 - Deux Morceaux op.30 - No.1 in F minor- Premiere Barcarolle (Moderato).wav

Peak level 41.9 %
Track quality 100.0 %
Test CRC 2D4C22B1
Copy CRC 2D4C22B1
Accurately ripped (confidence 2) [28DC48A5]
Copy OK

Track 4

Filename H:\EAC\Leslie Howard\Anton Rubinstein- Solo Piano Music\04 - Deux Morceaux op.30 - No.2 in D minor- Allegro appassionato.wav

Peak level 76.3 %
Track quality 100.0 %
Test CRC 57213F58
Copy CRC 57213F58
Accurately ripped (confidence 2) [E1BA72F0]
Copy OK

Track 5

Filename H:\EAC\Leslie Howard\Anton Rubinstein- Solo Piano Music\05 - Trois Barcarolles - Deuxieme Barcarolle in A minor op.45bis (Moderato assai).wav

Peak level 27.7 %
Track quality 100.0 %
Test CRC FED251BC
Copy CRC FED251BC
Accurately ripped (confidence 2) [837D585C]
Copy OK

Track 6

Filename H:\EAC\Leslie Howard\Anton Rubinstein- Solo Piano Music\06 - Trois Barcarolles - Troisieme Barcarolle in G minor op.50 no.3bis (Moderato con moto).wav

Peak level 26.4 %
Track quality 100.0 %
Test CRC 1C9E20C9
Copy CRC 1C9E20C9
Accurately ripped (confidence 2) [027F3A0F]
Copy OK

Track 7

Filename H:\EAC\Leslie Howard\Anton Rubinstein- Solo Piano Music\07 - Trois Barcarolles - Quatrieme Barcarolle in G major (Allegretto con moto).wav

Peak level 19.9 %
Track quality 100.0 %
Test CRC 65544330
Copy CRC 65544330
Accurately ripped (confidence 2) [7C884CC1]
Copy OK

Track 8

Filename H:\EAC\Leslie Howard\Anton Rubinstein- Solo Piano Music\08 - Fantaisie in E minor op.77 - Adagio - Allegro con fuoco.wav

Peak level 76.9 %
Track quality 100.0 %
Test CRC 1E92EFE9
Copy CRC 1E92EFE9
Accurately ripped (confidence 2) [AF5AE561]
Copy OK

Track 9

Filename H:\EAC\Leslie Howard\Anton Rubinstein- Solo Piano Music\09 - Fantaisie in E minor op.77 - Moderato assai.wav

Peak level 38.4 %
Track quality 100.0 %
Test CRC 9DB4FA4C
Copy CRC 9DB4FA4C
Accurately ripped (confidence 2) [F3FF70DA]
Copy OK

Track 10

Filename H:\EAC\Leslie Howard\Anton Rubinstein- Solo Piano Music\10 - Fantaisie in E minor op.77 - Allegro molto- Moderato- Allegro molto- Poco meno mosso- Presto.wav

Peak level 69.6 %
Track quality 100.0 %
Test CRC BF293316
Copy CRC BF293316
Accurately ripped (confidence 2) [90ACB480]
Copy OK

Track 11

Filename H:\EAC\Leslie Howard\Anton Rubinstein- Solo Piano Music\11 - Fantaisie in E minor op.77 - Molto lento- Vivace assai- Tempo rubato- Quasi presto.wav

Peak level 73.1 %
Track quality 100.0 %
Test CRC DF4278F4
Copy CRC D9FECB82
Accurately ripped (confidence 2) [1123CF9A]
Copy OK


All tracks accurately ripped

No errors occurred

End of status report

Exact Audio Copy V0.99 prebeta 4 from 23. January 2008

EAC extraction logfile from 12. March 2009, 15:34

Leslie Howard / Anton Rubinstein- Solo Piano Music CD2

Used drive : _NEC DVD+-RW ND-3530A Adapter: 0 ID: 1

Read mode : Secure
Utilize accurate stream : Yes
Defeat audio cache : No
Make use of C2 pointers : Yes

Read offset correction : 48
Overread into Lead-In and Lead-Out : No
Fill up missing offset samples with silence : Yes
Delete leading and trailing silent blocks : No
Null samples used in CRC calculations : Yes
Used interface : Native Win32 interface for Win NT & 2000
Gap handling : Appended to previous track

Used output format : User Defined Encoder
Selected bitrate : 1024 kBit/s
Quality : High
Add ID3 tag : No
Command line compressor : C:\Program Files\Exact Audio Copy\FLAC\FLAC.EXE
Additional command line options : -5 -V -T "ARTIST=%a" -T "TITLE=%t" -T "ALBUM=%g" -T "DATE=%y" -T "TRACKNUMBER=%n" -T "GENRE=%m" -T "COMMENT=%e" %s -o %d


TOC of the extracted CD

Track | Start | Length | Start sector | End sector
––––––––––––––––––––––––––––-
1 | 0:00.32 | 2:34.58 | 32 | 11639
2 | 2:35.15 | 5:53.72 | 11640 | 38186
3 | 8:29.12 | 5:10.33 | 38187 | 61469
4 | 13:39.45 | 4:34.60 | 61470 | 82079
5 | 18:14.30 | 6:21.45 | 82080 | 110699
6 | 24:36.00 | 8:45.62 | 110700 | 150136
7 | 33:21.62 | 2:13.38 | 150137 | 160149
8 | 35:35.25 | 1:29.72 | 160150 | 166896
9 | 37:05.22 | 3:13.08 | 166897 | 181379
10 | 40:18.30 | 2:14.30 | 181380 | 191459
11 | 42:32.60 | 3:25.20 | 191460 | 206854
12 | 45:58.05 | 3:12.30 | 206855 | 221284
13 | 49:10.35 | 1:37.67 | 221285 | 228626
14 | 50:48.27 | 2:32.18 | 228627 | 240044
15 | 53:20.45 | 4:45.62 | 240045 | 261481
16 | 58:06.32 | 4:20.15 | 261482 | 280996
17 | 62:26.47 | 2:20.30 | 280997 | 291526
18 | 64:47.02 | 1:57.20 | 291527 | 300321
19 | 66:44.22 | 8:44.05 | 300322 | 339626


Track 1

Filename H:\EAC\Leslie Howard\Anton Rubinstein- Solo Piano Music CD2\01 - Trois Caprices op.21 No.1 in F sharp major- Allegretto scherzando.wav

Pre-gap length 0:00:02.32

Peak level 34.6 %
Track quality 100.0 %
Test CRC ECAF331F
Copy CRC ECAF331F
Accurately ripped (confidence 2) [4E68ED5E]
Copy OK

Track 2

Filename H:\EAC\Leslie Howard\Anton Rubinstein- Solo Piano Music CD2\02 - Trois Caprices op.21 No.2 in D minor- Andante- Allegro.wav

Peak level 81.0 %
Track quality 100.0 %
Test CRC 483D0D4F
Copy CRC 483D0D4F
Accurately ripped (confidence 2) [8F9431DB]
Copy OK

Track 3

Filename H:\EAC\Leslie Howard\Anton Rubinstein- Solo Piano Music CD2\03 - Trois Caprices op.21 No.3 in E flat major- Allegro risoluto- Andante- Tempo1.wav

Peak level 57.5 %
Track quality 99.9 %
Test CRC 9E80ACCE
Copy CRC 9E80ACCE
Accurately ripped (confidence 2) [CFD8A801]
Copy OK

Track 4

Filename H:\EAC\Leslie Howard\Anton Rubinstein- Solo Piano Music CD2\04 - Trois Serenades op.22 No.1 in F major- Moderato assai.wav

Pre-gap length 0:00:01.60

Peak level 45.8 %
Track quality 100.0 %
Test CRC D49D0766
Copy CRC D49D0766
Accurately ripped (confidence 2) [129F300C]
Copy OK

Track 5

Filename H:\EAC\Leslie Howard\Anton Rubinstein- Solo Piano Music CD2\05 - Trois Serenades op.22 No.2 in G minor- Moderato assai.wav

Peak level 52.5 %
Track quality 100.0 %
Test CRC 41501A18
Copy CRC 41501A18
Accurately ripped (confidence 2) [A77F4DF7]
Copy OK

Track 6

Filename H:\EAC\Leslie Howard\Anton Rubinstein- Solo Piano Music CD2\06 - Trois Serenades op.22 No.3 in E flat major- Allegretto con moto.wav

Peak level 31.3 %
Track quality 100.0 %
Test CRC 12DC6A73
Copy CRC 12DC6A73
Accurately ripped (confidence 2) [44E06D8B]
Copy OK

Track 7

Filename H:\EAC\Leslie Howard\Anton Rubinstein- Solo Piano Music CD2\07 - Theme et Variations op.88 Theme- Lento- Allegro moderato (G major).wav

Pre-gap length 0:00:01.45

Peak level 66.9 %
Track quality 100.0 %
Test CRC 6853315A
Copy CRC 6853315A
Accurately ripped (confidence 2) [D7523C38]
Copy OK

Track 8

Filename H:\EAC\Leslie Howard\Anton Rubinstein- Solo Piano Music CD2\08 - Theme et Variations op.88 Variation I- Allegro (G Major).wav

Peak level 55.7 %
Track quality 100.0 %
Test CRC 28F391D7
Copy CRC 28F391D7
Accurately ripped (confidence 2) [ED2381F8]
Copy OK

Track 9

Filename H:\EAC\Leslie Howard\Anton Rubinstein- Solo Piano Music CD2\09 - Theme et Variations op.88 Variation II- Andante con moto (E minor).wav

Peak level 19.5 %
Track quality 100.0 %
Test CRC D9F4531F
Copy CRC D9F4531F
Accurately ripped (confidence 2) [197AE3B6]
Copy OK

Track 10

Filename H:\EAC\Leslie Howard\Anton Rubinstein- Solo Piano Music CD2\10 - Theme et Variations op.88 Variation III- Moderato con moto (C major).wav

Peak level 65.0 %
Track quality 100.0 %
Test CRC CC90DB6B
Copy CRC CC90DB6B
Accurately ripped (confidence 2) [716FAB6D]
Copy OK

Track 11

Filename H:\EAC\Leslie Howard\Anton Rubinstein- Solo Piano Music CD2\11 - Theme et Variations op.88 Variation IV- Moderato (C minor).wav

Peak level 46.6 %
Track quality 99.8 %
Test CRC 485D66CF
Copy CRC 485D66CF
Accurately ripped (confidence 2) [9B2BCB8C]
Copy OK

Track 12

Filename H:\EAC\Leslie Howard\Anton Rubinstein- Solo Piano Music CD2\12 - Theme et Variations op.88 Variation V- Moderato (G major).wav

Peak level 17.9 %
Track quality 100.0 %
Test CRC D36F2267
Copy CRC D36F2267
Accurately ripped (confidence 2) [0109BB79]
Copy OK

Track 13

Filename H:\EAC\Leslie Howard\Anton Rubinstein- Solo Piano Music CD2\13 - Theme et Variations op.88 Variation VI- Allegro non troppo (G minor).wav

Peak level 53.6 %
Track quality 100.0 %
Test CRC 21342DD6
Copy CRC 21342DD6
Accurately ripped (confidence 2) [0FA25154]
Copy OK

Track 14

Filename H:\EAC\Leslie Howard\Anton Rubinstein- Solo Piano Music CD2\14 - Theme et Variations op.88 Variation VII- Moderato assai (E flat major).wav

Peak level 25.2 %
Track quality 100.0 %
Test CRC 7CF74F77
Copy CRC 7CF74F77
Accurately ripped (confidence 2) [8833EAE1]
Copy OK

Track 15

Filename H:\EAC\Leslie Howard\Anton Rubinstein- Solo Piano Music CD2\15 - Theme et Variations op.88 Variation VIII- Moderato asai (E flat minor).wav

Peak level 53.3 %
Track quality 100.0 %
Test CRC 2CA9DFCE
Copy CRC 2CA9DFCE
Accurately ripped (confidence 2) [F1A0E436]
Copy OK

Track 16

Filename H:\EAC\Leslie Howard\Anton Rubinstein- Solo Piano Music CD2\16 - Theme et Variations op.88 Variation IX- Moderato (B major).wav

Peak level 12.1 %
Track quality 100.0 %
Test CRC FB9D1760
Copy CRC FB9D1760
Accurately ripped (confidence 2) [37B1DDBB]
Copy OK

Track 17

Filename H:\EAC\Leslie Howard\Anton Rubinstein- Solo Piano Music CD2\17 - Theme et Variations op.88 Variation X- Moderato (B minor).wav

Peak level 72.5 %
Track quality 100.0 %
Test CRC 7BF90127
Copy CRC 7BF90127
Accurately ripped (confidence 2) [6E70C8A2]
Copy OK

Track 18

Filename H:\EAC\Leslie Howard\Anton Rubinstein- Solo Piano Music CD2\18 - Theme et Variations op.88 Variation XI- Allegro (D major).wav

Peak level 47.1 %
Track quality 100.0 %
Test CRC 151CFEE7
Copy CRC 151CFEE7
Accurately ripped (confidence 2) [9DA09E92]
Copy OK

Track 19

Filename H:\EAC\Leslie Howard\Anton Rubinstein- Solo Piano Music CD2\19 - Theme et Variations op.88 Variation XII- Allegro moderato (G major).wav

Peak level 81.2 %
Track quality 100.0 %
Test CRC 4CB3519D
Copy CRC 7927775E
Accurately ripped (confidence 2) [5C8926E9]
Copy OK


All tracks accurately ripped

No errors occurred

End of status report