Tags
Language
Tags

Rudolf Lutz, Chor und Orchester der J. S. Bach-Stiftung - Bach Kantaten N°25: BWV 29, 91, 175 (2018)

Posted By: ArlegZ
Rudolf Lutz, Chor und Orchester der J. S. Bach-Stiftung - Bach Kantaten N°25: BWV 29, 91, 175 (2018)

Rudolf Lutz, Chor und Orchester der J. S. Bach-Stiftung - Bach Kantaten N°25: BWV 29, 91, 175 (2018)
EAC | FLAC | Image (Cue & Log) ~ 270 Mb | Total time: 53:28 | Digital booklet
Classical | Label: J.S. Bach-Stiftung | # B667CD | Recorded: 2013, 2015, 2016

The J.S. Bach Foundation has embarked on a remarkable undertaking: over a period of some 25 years, the Foundation will perform the complete vocal works by Johann Sebastian Bach (16851750). Each month, one of the over 200 Bach cantatas is performed in the idyllic town of Trogen in Appenzell, Switzerland. With a rhythm of 12 cantatas per year, the project is estimated to conclude in the year 2030. All introductory workshops, concerts and reflection lectures on the cantata texts are recorded; the texts of the lectures are published in a continually expanding Bach Anthology. The main aim of the J.S. Bach Foundation's ambitious project is to provide a living Bach experience for today's listeners and to deepen our understanding of the great composer's works. The artistic director of the foundation is Rudolf Lutz, who rehearses and conducts all performances with the choir, orchestra and solo vocalists.

Performer:
Julia Sophie Wagner, Sopran (BWV 29)
Roswitha Müller, Alt (BWV 29)
Bernhard Berchtold, Tenor (BWV 29)
Fabrice Hayoz, Bass (BWV 29)
Monika Mauch, Sopran (BWV 91)
Margot Oitzinger, Alt (BWV 91)
Bernhard Berchtold, Tenor (BWV 91)
Peter Kooij, Bass (BWV 91)
Marianne Beate Kielland, Alt (BWV 175)
Georg Poplutz, Tenor (BWV 175)
Dominik Wörner, Bass (BWV 175)
Mirjam Berli, Sopran (BWV 175)
Chor und Orchester der J. S. Bach-Stiftung
Rudolf Lutz, leitung

Track List:
Gelobet Seist Du, Jesu Christ, BWV 91
01. Chor: Gelobet seist du, Jesu Christ
02. Rezitativ und Choral: Der Glanz der höchsten Herrlichkeit
03. Arie: Gott, dem der Erden Kreis zu klein
04. Rezitativ: O Christenheit! Wohlan, so mache dich bereit
05. Duett: Die Armut, so Gott auf sich nimmt
06. Choral: Dies hat er alles uns getan
Er Rufet Seinen Schafen Mit Namen BWV 175
07. Rezitativ: Er rufet seinen Schafen mit Namen
08. Arie: Komm, leite mich
09. Rezitativ: Wo find' ich dich?
10. Arie: Es dünket mich, ich seh dich kommen
11. Rezitativ: Sie vernahmen aber nicht, was es war
12. Arie: Öffnet euch, ihr beiden Ohren
13. Choral: Nun, werter Geist, ich folge dir
Wir Danken Dir, Gott, Wir Danken Dir BWV 29
14. Sinfonia
15. Chor: Wir danken dir, Gott, wir danken dir
16. Arie: Halleluja, Stärk und Macht
17. Rezitativ: Gott Lob! Es geht uns wohl!
18. Arie: Gedenk an uns mit deiner Liebe
19. Rezitativ: Vergiss es ferner nicht
20. Arie: Halleluja, Stärk und Macht
21. Choral: Sei Lob und Preis mit Ehren


Exact Audio Copy V1.3 from 2. September 2016

EAC extraction logfile from 1. May 2019, 7:48

Bach-Stiftung / Cantatas, Vol 25

Used drive : HL-DT-STDVDRAM GP65NW60 Adapter: 1 ID: 0

Read mode : Secure
Utilize accurate stream : Yes
Defeat audio cache : Yes
Make use of C2 pointers : No

Read offset correction : 6
Overread into Lead-In and Lead-Out : No
Fill up missing offset samples with silence : Yes
Delete leading and trailing silent blocks : No
Null samples used in CRC calculations : Yes
Used interface : Native Win32 interface for Win NT & 2000

Used output format : User Defined Encoder
Selected bitrate : 1024 kBit/s
Quality : High
Add ID3 tag : No
Command line compressor : C:\Program Files (x86)\Exact Audio Copy\FLAC\FLAC.EXE
Additional command line options : -6 -V -T "ARTIST=%artist%" -T "TITLE=%title%" -T "ALBUM=%albumtitle%" -T "DATE=%year%" -T "TRACKNUMBER=%tracknr%" -T "GENRE=%genre%" -T "COMMENT=%comment%" -T "BAND=%albuminterpret%" -T "ALBUMARTIST=%albuminterpret%" -T "COMPOSER=%composer%" %haslyrics%–tag-from-file=LYRICS="%lyricsfile%"%haslyrics% -T "DISCNUMBER=%cdnumber%" -T "TOTALDISCS=%totalcds%" -T "TOTALTRACKS=%numtracks%" %hascover%–picture="%coverfile%"%hascover% %source% -o %dest%


TOC of the extracted CD

Track | Start | Length | Start sector | End sector
––––––––––––––––––––––––––––-
1 | 0:00.00 | 2:44.14 | 0 | 12313
2 | 2:44.14 | 1:46.17 | 12314 | 20280
3 | 4:30.31 | 2:37.26 | 20281 | 32081
4 | 7:07.57 | 1:16.01 | 32082 | 37782
5 | 8:23.58 | 6:38.00 | 37783 | 67632
6 | 15:01.58 | 1:02.29 | 67633 | 72311
7 | 16:04.12 | 0:27.00 | 72312 | 74336
8 | 16:31.12 | 4:04.54 | 74337 | 92690
9 | 20:35.66 | 0:30.30 | 92691 | 94970
10 | 21:06.21 | 3:22.02 | 94971 | 110122
11 | 24:28.23 | 1:06.42 | 110123 | 115114
12 | 25:34.65 | 4:25.07 | 115115 | 134996
13 | 29:59.72 | 1:36.11 | 134997 | 142207
14 | 31:36.08 | 4:11.33 | 142208 | 161065
15 | 35:47.41 | 2:30.21 | 161066 | 172336
16 | 38:17.62 | 5:33.40 | 172337 | 197351
17 | 43:51.27 | 0:55.21 | 197352 | 201497
18 | 44:46.48 | 4:57.22 | 201498 | 223794
19 | 49:43.70 | 0:25.26 | 223795 | 225695
20 | 50:09.21 | 1:41.71 | 225696 | 233341
21 | 51:51.17 | 1:36.52 | 233342 | 240593


Range status and errors

Selected range

Filename C:\Users\Grant\Desktop\Bach-Stiftung - Cantatas, Vol 25.wav

Peak level 95.6 %
Extraction speed 1.9 X
Range quality 100.0 %
Test CRC 309231FA
Copy CRC 309231FA
Copy OK

No errors occurred


AccurateRip summary

Track 1 not present in database
Track 2 not present in database
Track 3 not present in database
Track 4 not present in database
Track 5 not present in database
Track 6 not present in database
Track 7 not present in database
Track 8 not present in database
Track 9 not present in database
Track 10 not present in database
Track 11 not present in database
Track 12 not present in database
Track 13 not present in database
Track 14 not present in database
Track 15 not present in database
Track 16 not present in database
Track 17 not present in database
Track 18 not present in database
Track 19 not present in database
Track 20 not present in database
Track 21 not present in database

None of the tracks are present in the AccurateRip database

End of status report

–– CUETools DB Plugin V2.1.6

[CTDB TOCID: ia3ds8QpWESlrVtcjeJDXf2CCxM-] found
Submit result: ia3ds8QpWESlrVtcjeJDXf2CCxM- has been confirmed
Track | CTDB Status
1 | (4/4) Accurately ripped
2 | (4/4) Accurately ripped
3 | (4/4) Accurately ripped
4 | (4/4) Accurately ripped
5 | (4/4) Accurately ripped
6 | (4/4) Accurately ripped
7 | (4/4) Accurately ripped
8 | (4/4) Accurately ripped
9 | (4/4) Accurately ripped
10 | (4/4) Accurately ripped
11 | (4/4) Accurately ripped
12 | (4/4) Accurately ripped
13 | (4/4) Accurately ripped
14 | (4/4) Accurately ripped
15 | (4/4) Accurately ripped
16 | (4/4) Accurately ripped
17 | (4/4) Accurately ripped
18 | (4/4) Accurately ripped
19 | (4/4) Accurately ripped
20 | (4/4) Accurately ripped
21 | (4/4) Accurately ripped


==== Log checksum EB245117FECE76A34E43EF7FBD4925FF1B1F27FD0B79D103783B17CF67AEE6BC ====

Rudolf Lutz, Chor und Orchester der J. S. Bach-Stiftung - Bach Kantaten N°25: BWV 29, 91, 175 (2018)

Thanks to the original releaser