Tags
Language
Tags

Santana - Santana (1969) [Sony Mastersound, 24KT Gold, 1994]

Posted By: gribovar
Santana - Santana (1969) [Sony Mastersound, 24KT Gold, 1994]

Santana - Santana (1969) [Sony Mastersound, 24KT Gold, 1994]
EAC Rip | FLAC (image+.cue+log) - 229 MB | MP3 CBR 320 kbps (LAME 3.93) - 87 MB | Covers - 50 MB
Genre: Jazz Rock, Latin Rock, Blues Rock | RAR 3% Rec. | Label: Columbia/Legacy (CK 64212)

Before the arrival of Carlos Santana's eponymous band, the San Francisco rock scene drew the inspiration for its jam-oriented music mainly from blues, rock, and Eastern modalities. Santana added Latin music to the mix, forever changing the course of rock & roll history. On their groundbreaking debut album, the group mix Latin percussion with driving rock grooves. Santana's unique guitar style, alternately biting and liquid, vies with the multiple percussionists for the sonic focus.
Unlike later efforts, Santana's first album features an abundance of loose, collective compositions based on a couple of simple riffs ("Jingo," "Soul Sacrifice"). This approach allows for Santana and his bandmates to flex their improvisational muscles to fine effect. The high-energy level on Santana is infectious - the laid-back feel of other '60s San Francisco groups was clearly not for Carlos and co.

Tracklist:
01. Waiting
02. Evil Ways
03. Shades Of Time
04. Savor
05. Jingo
06. Persuasion
07. Treat
08. You Just Don't Care
09. Soul Sacrifice

Total time: 37:13

Exact Audio Copy V1.1 from 23. June 2015

EAC extraction logfile from 26. February 2016, 1:48

SANTANA / Santana (USA, SBM CK 64212)

Used drive : ASUS DRW-24B3ST Adapter: 1 ID: 1

Read mode : Secure
Utilize accurate stream : Yes
Defeat audio cache : Yes
Make use of C2 pointers : No

Read offset correction : 6
Overread into Lead-In and Lead-Out : No
Fill up missing offset samples with silence : Yes
Delete leading and trailing silent blocks : No
Null samples used in CRC calculations : Yes
Used interface : Native Win32 interface for Win NT & 2000

Used output format : User Defined Encoder
Selected bitrate : 1024 kBit/s
Quality : High
Add ID3 tag : No
Command line compressor : C:\Program Files\EAC(v.1.1)\WV\wavpack.exe
Additional command line options : -h -hh -m %source%


TOC of the extracted CD

Track | Start | Length | Start sector | End sector
––––––––––––––––––––––––––––-
1 | 0:00.00 | 4:07.38 | 0 | 18562
2 | 4:07.38 | 4:00.27 | 18563 | 36589
3 | 8:07.65 | 3:14.03 | 36590 | 51142
4 | 11:21.68 | 2:46.72 | 51143 | 63664
5 | 14:08.65 | 4:23.35 | 63665 | 83424
6 | 18:32.25 | 2:37.48 | 83425 | 95247
7 | 21:09.73 | 4:46.65 | 95248 | 116762
8 | 25:56.63 | 4:37.70 | 116763 | 137607
9 | 30:34.58 | 6:38.05 | 137608 | 167462


Range status and errors

Selected range

Filename F:\SANTANA - Santana (1969) (US 1994 Columbia Legacy MasterSound SBM • CK 64212)\SANTANA - Santana (USA, SBM CK 64212).wav

Peak level 100.0 %
Extraction speed 7.2 X
Range quality 100.0 %
Test CRC 3C271FAE
Copy CRC 3C271FAE
Copy OK

No errors occurred


AccurateRip summary

Track 1 accurately ripped (confidence 31) [57A37D97] (AR v2)
Track 2 accurately ripped (confidence 31) [F5BE64C3] (AR v2)
Track 3 accurately ripped (confidence 31) [141D3A62] (AR v2)
Track 4 accurately ripped (confidence 31) [48BC42DA] (AR v2)
Track 5 accurately ripped (confidence 31) [38BC2C7C] (AR v2)
Track 6 accurately ripped (confidence 31) [85CBE40D] (AR v2)
Track 7 accurately ripped (confidence 31) [D4899FA0] (AR v2)
Track 8 accurately ripped (confidence 31) [432F3D60] (AR v2)
Track 9 accurately ripped (confidence 31) [A3313493] (AR v2)

All tracks accurately ripped

End of status report

==== Log checksum C71D506066696A0BFB8F786D9737C30803DAC72E74C30D347166BF089195A15C ====

[CUETools log; Date: 12.11.2021 13:08:07; Version: 2.1.4]
[CTDB TOCID: MRmqmotgQjkfOMbAq00q5BenlCA-] found.
Track | CTDB Status
1 | (74/74) Accurately ripped
2 | (74/74) Accurately ripped
3 | (74/74) Accurately ripped
4 | (74/74) Accurately ripped
5 | (74/74) Accurately ripped
6 | (74/74) Accurately ripped
7 | (74/74) Accurately ripped
8 | (74/74) Accurately ripped
9 | (74/74) Accurately ripped
[AccurateRip ID: 000bc1a4-0056bc3e-7b08b809] found.
Track [ CRC | V2 ] Status
01 [d9637493|57a37d97] (32+45/79) Accurately ripped
02 [86e45ff6|f5be64c3] (31+45/78) Accurately ripped
03 [b5d339e0|141d3a62] (30+44/76) Accurately ripped
04 [b85f61e9|48bc42da] (30+44/76) Accurately ripped
05 [c3566d35|38bc2c7c] (31+45/78) Accurately ripped
06 [77da13fb|85cbe40d] (30+44/76) Accurately ripped
07 [9f76471f|d4899fa0] (30+44/76) Accurately ripped
08 [a9a13499|432f3d60] (30+44/76) Accurately ripped
09 [b93e3612|a3313493] (31+45/78) Accurately ripped
Offsetted by -1154:
01 [f3a74b63] (00/79) No match (V2 was not tested)
02 [4179aa1d] (00/78) No match (V2 was not tested)
03 [c836ffea] (00/76) No match (V2 was not tested)
04 [200d9510] (00/76) No match (V2 was not tested)
05 [2f30a31e] (00/78) No match (V2 was not tested)
06 [2b2d1729] (00/76) No match (V2 was not tested)
07 [5b6fe955] (00/76) No match (V2 was not tested)
08 [d388d998] (00/76) No match (V2 was not tested)
09 [6717d38e] (00/78) No match (V2 was not tested)
Offsetted by -12:
01 [35e410f7] (00/79) No match (V2 was not tested)
02 [ecc10289] (00/78) No match (V2 was not tested)
03 [c52cfc02] (00/76) No match (V2 was not tested)
04 [6e1db44d] (00/76) No match (V2 was not tested)
05 [77c82c8f] (00/78) No match (V2 was not tested)
06 [16b9c8f4] (00/76) No match (V2 was not tested)
07 [b6fe400b] (00/76) No match (V2 was not tested)
08 [96bc9085] (00/76) No match (V2 was not tested)
09 [432b85b9] (00/78) No match (V2 was not tested)

Track Peak [ CRC32 ] [W/O NULL] [ LOG ]
– 100,0 [3C271FAE] [A1BFEDAB] CRC32
01 96,5 [B5B6382C] [AC14449B]
02 100,0 [573C5924] [4F2EE286]
03 80,9 [EA614F35] [A2066B54]
04 83,2 [A9DD538F] [7CD1130D]
05 95,1 [D2FE856E] [570E5086]
06 92,8 [239C2F81] [7D0E78C6]
07 79,7 [40CAC48B] [43F81476]
08 100,0 [6586EBBF] [CEB20E1C]
09 95,5 [FE7F06E5] [79A5224A]

Thanks to the original releaser

See also: