Subcategories

Schubert, Shostakovitch - Death and the Maiden, Chamber Symphony {Denon Promo CD} (1987)

Posted By: Goodspeed
Schubert, Shostakovitch - Death and the Maiden, Chamber Symphony {Denon Promo CD} (1987)

Schubert, Shostakovitch - Death and the Maiden, Chamber Symphony {Denon Promo CD} (1987)
EAC+LOG+CUE | FLAC (image) | 1 CD | RAR size: 357 MB | scans @ 600dpi | TT 66:07 | FP+UL
Classical | PCM Digital/Denon | Release 1987 | Catalog #: GES-9148

There are many points in common between these two works. Both were originally string quartets arranged for string ensemble by someone other than the composer, both based to a large extent on earlier works by their respective composers, and both have a link with death.

Tracklist:
Shostakovitch - Chamber symphony, Quartet No. 8, Op. 110 bis (1960)
(arranged for string orchestra by Rudolf Barshai, authorized by Shostakovitch in 1967)
1. Largo 5:36
2. Allegro molto 3:00
3. Allegretto 4:41
4. Largo 6:11
5. Largo 4:06

Schubert - Quartet in D minor, D810 "Death and the Maiden" (1824)
(arranged for string orchestra by Gustav Mahler in 1894)
6. Allegro 12:36
7. Andante con moto 16:00
8. Scherzo: Allegro molto 4:19
9. Presto 9:18

Schubert, Shostakovitch - Death and the Maiden, Chamber Symphony {Denon Promo CD} (1987)


Info:
Recorded 19-21 March 1987, Présbytère de Notre Dame de Port, Clermont-Ferrand, France
Orchestra: Orchestre d'Auvergne
Conductor: Jean-Jacques Kantorow

Exact Audio Copy V1.0 beta 3 from 29. August 2011

EAC extraction logfile from 11. February 2013, 9:55

Jean-Jacques Kantorow / Death and the Maiden, Chamber Symphony {Denon Promo CD}

Used drive : _NEC DVD_RW ND-2500A Adapter: 3 ID: 1

Read mode : Secure
Utilize accurate stream : Yes
Defeat audio cache : Yes
Make use of C2 pointers : No

Read offset correction : 48
Overread into Lead-In and Lead-Out : No
Fill up missing offset samples with silence : Yes
Delete leading and trailing silent blocks : No
Null samples used in CRC calculations : Yes
Used interface : Native Win32 interface for Win NT & 2000

Used output format : User Defined Encoder
Selected bitrate : 768 kBit/s
Quality : High
Add ID3 tag : No
Command line compressor : C:\Program Files\Exact Audio Copy\FLAC\FLAC.EXE
Additional command line options : -6 -V -T "ARTIST=%artist%" -T "TITLE=%title%" -T "ALBUM=%albumtitle%" -T "DATE=%year%" -T "TRACKNUMBER=%tracknr%" -T "GENRE=%genre%" -T "COMMENT=%comment%" -T "BAND=%albuminterpret%" -T "ALBUMARTIST=%albuminterpret%" -T "COMPOSER=%composer%" %haslyrics%–tag-from-file=LYRICS="%lyricsfile%"%haslyrics% -T "DISCNUMBER=%cdnumber%" -T "TOTALDISCS=%totalcds%" -T "TOTALTRACKS=%numtracks%" %hascover%–picture="%coverfile%"%hascover% %source% -o %dest%


TOC of the extracted CD

Track | Start | Length | Start sector | End sector
––––––––––––––––––––––––––––-
1 | 0:00.00 | 5:36.27 | 0 | 25226
2 | 5:36.27 | 2:59.68 | 25227 | 38719
3 | 8:36.20 | 4:41.00 | 38720 | 59794
4 | 13:17.20 | 6:09.22 | 59795 | 87491
5 | 19:26.42 | 4:14.15 | 87492 | 106556
6 | 23:40.57 | 12:41.13 | 106557 | 163644
7 | 36:21.70 | 16:02.02 | 163645 | 235796
8 | 52:23.72 | 4:22.28 | 235797 | 255474
9 | 56:46.25 | 9:17.25 | 255475 | 297274


Range status and errors

Selected range

Filename C:\EAC Extractions\Jean-Jacques Kantorow - Death and the Maiden, Chamber Symphony {Denon Promo CD}.wav

Peak level 80.8 %
Extraction speed 6.8 X
Range quality 100.0 %
Test CRC FEEF3497
Copy CRC FEEF3497
Copy OK

No errors occurred


AccurateRip summary

Track 1 not present in database
Track 2 not present in database
Track 3 not present in database
Track 4 not present in database
Track 5 not present in database
Track 6 not present in database
Track 7 not present in database
Track 8 not present in database
Track 9 not present in database

None of the tracks are present in the AccurateRip database

End of status report

==== Log checksum 10F30C3F1B349E07F1F7CA55EFED036E0DC5ECDBD3F2B9ED110508FF275B256A ====