Subcategories
Tags
Language
Tags

Scorpions - Hot & Heavy (1993)

Posted By: v3122
Scorpions - Hot & Heavy (1993)

Scorpions - Hot & Heavy (1993)
EAC | Flac(Image) + Cue + Log & MP3 CBR 320Kbps
BMG, 291 136-200 | ~ 281 or 93 Mb | Artwork(jpg) -> 12 Mb
Hard Rock / Classic Rock

Hot and Heavy, released in 1993, is another RCA compilation of all the Scorpions' best Uli Jon Roth recordings. As the title suggests, it features their heavier songs, including three sung by Roth himself. Although not really necessary, the album does a good job in showing the raw '70s power the Scorpions had.

by Barry Weber, allmusic
Scorpions - Hot & Heavy (1993):

Scorpions - Hot & Heavy (1993)

Tracklist:

01. He's a Woman - She's a man
02. Speedy's Coming
03. Catch Your Train
04. Dark Lady
05. Far Away
06. Steamrock Fever
07. The Riot of Our Time
08. Robot Man
09. Polar Nights
10. I've Got to be Free

Exact Audio Copy V1.0 beta 3 from 29. August 2011

EAC extraction logfile from 17. December 2013, 14:23

Scorpions / Hot & Heavy

Used drive : TSSTcorpDVD-ROM SH-D162C Adapter: 0 ID: 1

Read mode : Secure
Utilize accurate stream : Yes
Defeat audio cache : Yes
Make use of C2 pointers : No

Read offset correction : 6
Overread into Lead-In and Lead-Out : No
Fill up missing offset samples with silence : Yes
Delete leading and trailing silent blocks : No
Null samples used in CRC calculations : Yes
Used interface : Native Win32 interface for Win NT & 2000
Gap handling : Appended to previous track

Used output format : User Defined Encoder
Selected bitrate : 1024 kBit/s
Quality : High
Add ID3 tag : No
Command line compressor : C:\Program Files\FLAC\flac.exe
Additional command line options : -V -8 %source%


TOC of the extracted CD

Track | Start | Length | Start sector | End sector
––––––––––––––––––––––––––––-
1 | 0:00.33 | 3:16.10 | 33 | 14742
2 | 3:16.43 | 3:35.62 | 14743 | 30929
3 | 6:52.30 | 3:34.63 | 30930 | 47042
4 | 10:27.18 | 3:27.22 | 47043 | 62589
5 | 13:54.40 | 5:41.28 | 62590 | 88192
6 | 19:35.68 | 3:36.52 | 88193 | 104444
7 | 23:12.45 | 4:06.33 | 104445 | 122927
8 | 27:19.03 | 2:43.35 | 122928 | 135187
9 | 30:02.38 | 5:07.65 | 135188 | 158277
10 | 35:10.28 | 3:58.55 | 158278 | 176182


Track 1

Filename E:\VibroDog\Scorpions - 1993 - Hot & Heavy [BMG Ariola] FLAC-tracks-CUE-LOG-scans\01 - He's A Woman, She's A Man.wav

Pre-gap length 0:00:02.33

Peak level 99.0 %
Extraction speed 3.1 X
Track quality 100.0 %
Test CRC 07164D33
Copy CRC 07164D33
Accurately ripped (confidence 5) [A15955E7] (AR v2)
Copy OK

Track 2

Filename E:\VibroDog\Scorpions - 1993 - Hot & Heavy [BMG Ariola] FLAC-tracks-CUE-LOG-scans\02 - Speedy's Coming.wav

Pre-gap length 0:00:02.00

Peak level 99.0 %
Extraction speed 3.2 X
Track quality 100.0 %
Test CRC 98A97806
Copy CRC 98A97806
Accurately ripped (confidence 5) [224D8556] (AR v2)
Copy OK

Track 3

Filename E:\VibroDog\Scorpions - 1993 - Hot & Heavy [BMG Ariola] FLAC-tracks-CUE-LOG-scans\03 - Catch Your Train.wav

Pre-gap length 0:00:02.00

Peak level 99.8 %
Extraction speed 3.2 X
Track quality 100.0 %
Test CRC AA4EB835
Copy CRC AA4EB835
Accurately ripped (confidence 5) [0D008B90] (AR v2)
Copy OK

Track 4

Filename E:\VibroDog\Scorpions - 1993 - Hot & Heavy [BMG Ariola] FLAC-tracks-CUE-LOG-scans\04 - Dark Lady.wav

Pre-gap length 0:00:02.00

Peak level 99.0 %
Extraction speed 3.2 X
Track quality 100.0 %
Test CRC 5CD0F44B
Copy CRC 5CD0F44B
Accurately ripped (confidence 5) [19DD168A] (AR v2)
Copy OK

Track 5

Filename E:\VibroDog\Scorpions - 1993 - Hot & Heavy [BMG Ariola] FLAC-tracks-CUE-LOG-scans\05 - Far Away.wav

Pre-gap length 0:00:02.00

Peak level 99.0 %
Extraction speed 3.4 X
Track quality 100.0 %
Test CRC 918CECC9
Copy CRC 918CECC9
Accurately ripped (confidence 5) [9A4AB13D] (AR v2)
Copy OK

Track 6

Filename E:\VibroDog\Scorpions - 1993 - Hot & Heavy [BMG Ariola] FLAC-tracks-CUE-LOG-scans\06 - Steamrock Fever.wav

Pre-gap length 0:00:02.00

Peak level 99.0 %
Extraction speed 3.3 X
Track quality 100.0 %
Test CRC FBAD82B2
Copy CRC FBAD82B2
Accurately ripped (confidence 5) [742A8821] (AR v2)
Copy OK

Track 7

Filename E:\VibroDog\Scorpions - 1993 - Hot & Heavy [BMG Ariola] FLAC-tracks-CUE-LOG-scans\07 - The Riot Of Our Time.wav

Pre-gap length 0:00:02.00

Peak level 99.0 %
Extraction speed 3.3 X
Track quality 100.0 %
Test CRC 2B719282
Copy CRC 2B719282
Accurately ripped (confidence 5) [4EB3A93D] (AR v2)
Copy OK

Track 8

Filename E:\VibroDog\Scorpions - 1993 - Hot & Heavy [BMG Ariola] FLAC-tracks-CUE-LOG-scans\08 - Robot Man.wav

Pre-gap length 0:00:02.00

Peak level 99.0 %
Extraction speed 3.1 X
Track quality 100.0 %
Test CRC D521C9DB
Copy CRC D521C9DB
Accurately ripped (confidence 5) [6E5FFC2F] (AR v2)
Copy OK

Track 9

Filename E:\VibroDog\Scorpions - 1993 - Hot & Heavy [BMG Ariola] FLAC-tracks-CUE-LOG-scans\09 - Polor Nights.wav

Pre-gap length 0:00:02.00

Peak level 99.0 %
Extraction speed 3.5 X
Track quality 100.0 %
Test CRC F4E40A5E
Copy CRC F4E40A5E
Accurately ripped (confidence 5) [34BD2CBA] (AR v2)
Copy OK

Track 10

Filename E:\VibroDog\Scorpions - 1993 - Hot & Heavy [BMG Ariola] FLAC-tracks-CUE-LOG-scans\10 - I've Got To Be Free.wav

Pre-gap length 0:00:02.00

Peak level 99.0 %
Extraction speed 2.9 X
Track quality 99.9 %
Test CRC B344227D
Copy CRC B344227D
Accurately ripped (confidence 5) [FFC59628] (AR v2)
Copy OK


All tracks accurately ripped

No errors occurred

End of status report

==== Log checksum 3FB795946C0928A6F7A4191664703168427FE6443DDEAB252C40DE3662F368D0 ====


[CUETools log; Date: 23.06.2021 17:04:30; Version: 2.1.4]
Pregap length 00:00:33.
[AccurateRip ID: 000e5a0a-00740985-7f092d0a] found.
Track [ CRC | V2 ] Status
01 [ab3d9d3a|a15955e7] (02+11/31) Accurately ripped
02 [ebe1bf5f|224d8556] (02+11/32) Accurately ripped
03 [d010bbb4|0d008b90] (02+11/31) Accurately ripped
04 [87794df7|19dd168a] (02+11/32) Accurately ripped
05 [7ad14636|9a4ab13d] (02+11/32) Accurately ripped
06 [2a7c474a|742a8821] (02+11/32) Accurately ripped
07 [6e4002a7|4eb3a93d] (02+11/32) Accurately ripped
08 [322625c4|6e5ffc2f] (02+11/32) Accurately ripped
09 [3bef8837|34bd2cba] (02+11/32) Accurately ripped
10 [b8a6af7e|ffc59628] (02+11/32) Accurately ripped
Offsetted by 478:
01 [a59691bc] (04/31) Accurately ripped
02 [7b16c15d] (04/32) Accurately ripped
03 [2f9187e8] (03/31) Accurately ripped
04 [d5572087] (04/32) Accurately ripped
05 [50fada28] (04/32) Accurately ripped
06 [0e2c3dee] (04/32) Accurately ripped
07 [01ba7f65] (04/32) Accurately ripped
08 [d9e01082] (04/32) Accurately ripped
09 [be789aff] (04/32) Accurately ripped
10 [55f0b9f4] (04/32) Accurately ripped
Offsetted by 337:
01 [bd36b4b9] (00/31) No match (V2 was not tested)
02 [55215ca0] (00/32) No match (V2 was not tested)
03 [a0c9431a] (00/31) No match (V2 was not tested)
04 [c667a2af] (00/32) No match (V2 was not tested)
05 [64488ffd] (00/32) No match (V2 was not tested)
06 [732d5b78] (00/32) No match (V2 was not tested)
07 [02244a88] (00/32) No match (V2 was not tested)
08 [26caf6a5] (00/32) No match (V2 was not tested)
09 [2ab5edd3] (00/32) No match (V2 was not tested)
10 [910cb183] (00/32) No match (V2 was not tested)

Track Peak [ CRC32 ] [W/O NULL] [ LOG ]
– 99,8 [42F08D21] [2DFE35FA]
01 99,0 [07164D33] [E7295981] CRC32
02 99,0 [98A97806] [C88BBAEB] CRC32
03 99,8 [AA4EB835] [A92B3B7F] CRC32
04 99,0 [5CD0F44B] [77C6291E] CRC32
05 99,0 [918CECC9] [EFA6F10F] CRC32
06 99,0 [FBAD82B2] [09CD184E] CRC32
07 99,0 [2B719282] [CC3DB683] CRC32
08 99,0 [D521C9DB] [F97BBFD3] CRC32
09 99,0 [F4E40A5E] [1051D471] CRC32
10 99,0 [B344227D] [630650AF] CRC32


Scorpions - Hot & Heavy (1993)

All thanks go to the original releaser

Scorpions in my Blog

Download Scorpions - Hot & Heavy (1993):