Subcategories

Scorpions - Love At First Sting (Digital remastered) (1984/ 2001)

Posted By: penseur
Scorpions - Love At First Sting (Digital remastered) (1984/ 2001)

Scorpions - Love At First Sting (Digital remastered) (1984/ 2001)
EAC with AccurateRip | APE (tracks), CUE, LOG - 306 Mb | MP3 320 Kbps VBR - 84,6 Mb | artworks - 136 Mb
Genre: Rock - Style: Hard Rock | Released: 6 november 2001 | RAR 10% Rec. | File-host: icerbox.com

Although the Scorpions had already achieved fame after 1982's Blackout, Love at First Sting brought them their biggest single of the decade, the slick anthem "Rock You Like a Hurricane," with some greatly underrated songs to back it up. The album opens with the hair-raising "Bad Boys Running Wild" and continues with songs such as the memorable "Big City Nights" and the half-ballad, half-powerhouse rocker "Coming Home." The record also contains what just may be the band's best ballad ever, the tear-jerking "Still Loving You." Considering the fact that it has some of their best-ever singles, Love at First Sting is definitely a must for all fans of the Scorpions. .~ Barry Weber (All Music Guide)

Label: EMI
Catalog#: 7243 5 35156 2 1
(see: repertory "more" for many more informations)

Official links
Official website
Official Facebook

samples:
amazon.com

Scorpions - Love At First Sting (Digital remastered) (1984/ 2001)

Tracklisting:

1 Bad Boys Running Wild 03:55
2 Rock You Like A Hurricane 04:12
3 I'm Leaving You 04:18
4 Coming Home 05:00
5 The Same Thrill 03:33
6 Big City Nights 04:10
7 As Soon As The Good Times Roll 05:04
8 Crossfire 04:37
9 Still Loving You 06:26

Length: 40:55 mn

Scorpions - Love At First Sting (Digital remastered) (1984/ 2001)


Exact Audio Copy V1.1 from 23. June 2015

EAC extraction logfile from 15. April 2017, 23:03

SCORPIONS / Love At First Sting

Used drive : HL-DT-STBDDVDRW CH08LS10 Adapter: 1 ID: 0

Read mode : Secure
Utilize accurate stream : Yes
Defeat audio cache : Yes
Make use of C2 pointers : No

Read offset correction : 667
Overread into Lead-In and Lead-Out : No
Fill up missing offset samples with silence : Yes
Delete leading and trailing silent blocks : No
Null samples used in CRC calculations : Yes
Used interface : Native Win32 interface for Win NT & 2000
Gap handling : Appended to previous track

Used output format : Internal WAV Routines
Sample format : 44.100 Hz; 16 Bit; Stereo


TOC of the extracted CD

Track | Start | Length | Start sector | End sector
––––––––––––––––––––––––––––-
1 | 0:00.00 | 3:55.58 | 0 | 17682
2 | 3:55.58 | 4:12.52 | 17683 | 36634
3 | 8:08.35 | 4:18.33 | 36635 | 56017
4 | 12:26.68 | 5:00.40 | 56018 | 78557
5 | 17:27.33 | 3:33.57 | 78558 | 94589
6 | 21:01.15 | 4:10.30 | 94590 | 113369
7 | 25:11.45 | 5:04.65 | 113370 | 136234
8 | 30:16.35 | 4:37.08 | 136235 | 157017
9 | 34:53.43 | 6:26.62 | 157018 | 186029


Track 1

Filename E:\SCORPIONS Love At First Sting (Digital remastered)\lossless\01 Bad Boys Running Wild.wav

Pre-gap length 0:00:02.00

Peak level 99.8 %
Extraction speed 1.1 X
Track quality 100.0 %
Copy CRC AC863381
Accurately ripped (confidence 58) [430AB7A3] (AR v2)
Copy OK

Track 2

Filename E:\SCORPIONS Love At First Sting (Digital remastered)\lossless\02 Rock You Like A Hurricane.wav

Pre-gap length 0:00:00.30

Peak level 99.7 %
Extraction speed 1.3 X
Track quality 100.0 %
Copy CRC F284CCFF
Accurately ripped (confidence 58) [31833AD2] (AR v2)
Copy OK

Track 3

Filename E:\SCORPIONS Love At First Sting (Digital remastered)\lossless\03 I'm Leaving You.wav

Pre-gap length 0:00:00.06

Peak level 99.8 %
Extraction speed 1.4 X
Track quality 100.0 %
Copy CRC 281DE45E
Accurately ripped (confidence 57) [7662AF3E] (AR v2)
Copy OK

Track 4

Filename E:\SCORPIONS Love At First Sting (Digital remastered)\lossless\04 Coming Home.wav

Pre-gap length 0:00:02.13

Peak level 100.0 %
Extraction speed 1.5 X
Track quality 100.0 %
Copy CRC 79032A1D
Accurately ripped (confidence 59) [88C7F32C] (AR v2)
Copy OK

Track 5

Filename E:\SCORPIONS Love At First Sting (Digital remastered)\lossless\05 The Same Thrill.wav

Pre-gap length 0:00:01.04

Peak level 99.7 %
Extraction speed 1.4 X
Track quality 99.9 %
Copy CRC 57EFAAA8
Accurately ripped (confidence 58) [CADCBE52] (AR v2)
Copy OK

Track 6

Filename E:\SCORPIONS Love At First Sting (Digital remastered)\lossless\06 Big City Nights.wav

Pre-gap length 0:00:02.42

Peak level 99.8 %
Extraction speed 1.7 X
Track quality 100.0 %
Copy CRC 2A126C49
Accurately ripped (confidence 59) [4CFEDC4D] (AR v2)
Copy OK

Track 7

Filename E:\SCORPIONS Love At First Sting (Digital remastered)\lossless\07 As Soon As The Good Times Roll.wav

Pre-gap length 0:00:01.36

Peak level 99.8 %
Extraction speed 1.8 X
Track quality 100.0 %
Copy CRC E86A8975
Accurately ripped (confidence 58) [0E8024EA] (AR v2)
Copy OK

Track 8

Filename E:\SCORPIONS Love At First Sting (Digital remastered)\lossless\08 Crossfire.wav

Pre-gap length 0:00:01.46

Peak level 99.7 %
Extraction speed 1.9 X
Track quality 100.0 %
Copy CRC 6FE53399
Accurately ripped (confidence 57) [A15D3B7F] (AR v2)
Copy OK

Track 9

Filename E:\SCORPIONS Love At First Sting (Digital remastered)\lossless\09 Still Loving You.wav

Pre-gap length 0:00:02.86

Peak level 99.8 %
Extraction speed 2.1 X
Track quality 100.0 %
Copy CRC E301EB17
Accurately ripped (confidence 60) [A46165D9] (AR v2)
Copy OK


All tracks accurately ripped

No errors occurred

End of status report

–– CUETools DB Plugin V2.1.6

[CTDB TOCID: bmWW_yci_NtfvgWTmbVd_sujxOQ-] found
Submit result: bmWW_yci_NtfvgWTmbVd_sujxOQ- has been confirmed
Track | CTDB Status
1 | (86/87) Accurately ripped
2 | (86/87) Accurately ripped
3 | (86/87) Accurately ripped
4 | (86/87) Accurately ripped
5 | (86/87) Accurately ripped
6 | (85/87) Accurately ripped
7 | (86/87) Accurately ripped
8 | (86/87) Accurately ripped
9 | (86/87) Accurately ripped


==== Log checksum 12BF1BE311718D626054920596EE133BF45CA07A546E792E6D968F0B6A078725 ====


Notes from this work:
- HQ quality of compressed files
(Best compression + recovery record + testing compressed files)
RAR Recovery Record: 10% recovery
- HQ artworks files
- APE & MP3 are fully tagged

Plz: All requested deleted files by PM. For all the rest here.
NO MIRRORS PLEASE. Thank you very much.
PASSWORD: www.AvaxHome.ru

Digital remastered 2001 serie :
Lovedrive (Digital remastered)
Blackout (Digital remastered)
Savage Amusement (Digital remastered)