Subcategories

Seal - Hits (Deluxe Edition) - 2CD (2009)

Posted By: popsakov
Seal - Hits (Deluxe Edition) - 2CD (2009)

Seal - Hits (Deluxe Edition) - 2CD (2009)
EAC | FLAC, IMG+CUE, LOG | 02:36:06 | Covers | 549 + 541 MB | 3% Recovery
Genre: R&B, Rock | Label: Warner Bros. | 9362-49699-3

Hits is a 2009 compilation album by Seal, released by Warner Bros. Records. It is Seal's second compilation album following 2004's Best 1991-2004. The album was released on two formats, a 1-disc standard edition which featured 19 tracks and a 2-disc deluxe edition which featured 34 tracks. Both versions of the album included two new songs "I Am Your Man" and "Thank You".
Track List:

CD 1

01. I Am Your Man
02. Kiss From A Rose
03. Crazy
04. Fly Like An Eagle
05. Love's Divine
06. A Change Is Gonna Come
07. Amazing
08. Get It Together
09. My Vision (Featuring Jakatta)
10. Prayer For The Dying
11. I Can't Stand The Rain
12. Waiting For You
13. The Beginning
14. The Right Life
15. Don't Cry
16. Rolling
17. If You Don't Know Me By Now
18. Violet


Exact Audio Copy V0.99 prebeta 5 from 4. May 2009

EAC uitlezen log bestand van 28. November 2009, 16:38

Seal / Hits CD1

gebruikt loopwerk : TSSTcorpCDDVDW SH-S223L Adapter: 1 ID: 1

Lees mode : Veilig
Gebruik accurate stream : Ja
Audio buffer uitgeschakeld : Neen
Gebruik C2 Foutinformatie : Ja

Lees-offset correctie : 6
Overlees in Lead-In en Lead-Out : Neen
Vul ontbrekende offset samples met stiltes aan : Ja
Wis stilte blokken aan het begin en einde : Neen
Nul samples gebruikt in CRC berekeningen : Ja
Gebruik interface : Native Win32 interface voor Win NT/2000/XP

Gebruik uitgave formaat : Interne WAV Routines
Sample formaat : 44.100 Hz; 16 Bit; Stereo


TOC van de uitgelezen CD

Track | Start | Lengte | Startsector | Eindsector
––––––––––––––––––––––––––––
1 | 0:00.00 | 4:02.30 | 0 | 18179
2 | 4:02.30 | 4:48.13 | 18180 | 39792
3 | 8:50.43 | 5:56.39 | 39793 | 66531
4 | 14:47.07 | 4:14.58 | 66532 | 85639
5 | 19:01.65 | 4:36.14 | 85640 | 106353
6 | 23:38.04 | 3:54.57 | 106354 | 123960
7 | 27:32.61 | 3:02.15 | 123961 | 137625
8 | 30:35.01 | 4:26.65 | 137626 | 157640
9 | 35:01.66 | 3:45.02 | 157641 | 174517
10 | 38:46.68 | 5:30.28 | 174518 | 199295
11 | 44:17.21 | 3:33.43 | 199296 | 215313
12 | 47:50.64 | 3:44.21 | 215314 | 232134
13 | 51:35.10 | 4:47.08 | 232135 | 253667
14 | 56:22.18 | 4:03.03 | 253668 | 271895
15 | 60:25.21 | 6:19.39 | 271896 | 300359
16 | 66:44.60 | 4:30.18 | 300360 | 320627
17 | 71:15.03 | 3:49.23 | 320628 | 337825
18 | 75:04.26 | 4:11.63 | 337826 | 356713


Bereikstatus en fouten

Geselecteerd bereik

Bestandsnaam C:\Post\Seal - Hits (EAC)\Disc1\Seal - Hits CD1.wav

Piek niveau 100.0 %
Bereikskwaliteit 100.0 %
Kopie CRC AAF98215
Kopie OK

Geen fouten opgetreden

Einde van het status rapport

Seal - Hits (Deluxe Edition) - 2CD (2009)

CD 2

01. Killer
02. Future Love Paradise
03. Human Beings
04. A Father's Way
05. I'm Alive
06. Colour
07. Free
08. Latest Craze
09. System
10. Newborn Friend
11. Lips Like Sugar (Featuring Mikey Dread)
12. This Could Be Heaven
13. Les Mots (Duet With Mylene Farmer)
14. It's A Man's Man's Man's World
15. Soul Medley (Live)
16. Thank You


Exact Audio Copy V0.99 prebeta 5 from 4. May 2009

EAC uitlezen log bestand van 28. November 2009, 16:45

Seal / Hits CD2

gebruikt loopwerk : TSSTcorpCDDVDW SH-S223L Adapter: 1 ID: 1

Lees mode : Veilig
Gebruik accurate stream : Ja
Audio buffer uitgeschakeld : Neen
Gebruik C2 Foutinformatie : Ja

Lees-offset correctie : 6
Overlees in Lead-In en Lead-Out : Neen
Vul ontbrekende offset samples met stiltes aan : Ja
Wis stilte blokken aan het begin en einde : Neen
Nul samples gebruikt in CRC berekeningen : Ja
Gebruik interface : Native Win32 interface voor Win NT/2000/XP

Gebruik uitgave formaat : Interne WAV Routines
Sample formaat : 44.100 Hz; 16 Bit; Stereo


TOC van de uitgelezen CD

Track | Start | Lengte | Startsector | Eindsector
––––––––––––––––––––––––––––
1 | 0:00.00 | 6:21.62 | 0 | 28636
2 | 6:21.62 | 5:34.13 | 28637 | 53699
3 | 11:56.00 | 4:35.53 | 53700 | 74377
4 | 16:31.53 | 4:39.43 | 74378 | 95345
5 | 21:11.21 | 4:16.00 | 95346 | 114545
6 | 25:27.21 | 5:20.21 | 114546 | 138566
7 | 30:47.42 | 3:23.59 | 138567 | 153850
8 | 34:11.26 | 4:27.55 | 153851 | 173930
9 | 38:39.06 | 3:48.55 | 173931 | 191085
10 | 42:27.61 | 3:54.44 | 191086 | 208679
11 | 46:22.30 | 5:01.12 | 208680 | 231266
12 | 51:23.42 | 4:43.53 | 231267 | 252544
13 | 56:07.20 | 4:47.32 | 252545 | 274101
14 | 60:54.52 | 3:51.57 | 274102 | 291483
15 | 64:46.34 | 8:14.14 | 291484 | 328547
16 | 73:00.48 | 3:47.23 | 328548 | 345595


Bereikstatus en fouten

Geselecteerd bereik

Bestandsnaam C:\Post\Seal - Hits (EAC)\Disc2\Seal - Hits CD2.wav

Piek niveau 100.0 %
Bereikskwaliteit 100.0 %
Kopie CRC E2D79A75
Kopie OK

Geen fouten opgetreden

Einde van het status rapport

Seal - Hits (Deluxe Edition) - 2CD (2009)

Seal - Hits (Deluxe Edition) - 2CD (2009)

Seal - Hits (Deluxe Edition) - 2CD (2009)