Tags
Language
Tags

Sebastien d'Herin, Les Nouveaux Caracteres - Jean-Jacques Rousseau: Le Devin du Village (2018)

Posted By:
Sebastien d'Herin, Les Nouveaux Caracteres - Jean-Jacques Rousseau: Le Devin du Village (2018)

Sébastien d'Hérin, Les Nouveaux Caractères - Jean-Jacques Rousseau: Le Devin du Village (2018)
EAC | FLAC | Image (Cue & Log) ~ 400 Mb | Total time: 67:59 | Scans included
Classical | Label: Château de Versailles | # CVS004 | Recorded: 2017

Perhaps Jean-Jacques Rousseaus Devin du Village has been waiting just for you for two centuries at the Theatre de la Reine at the Petit Trianon. On September 19, 1780, Marie-Antoinette was on stage, in costume, and was acting with her troop of aristocrats in front of a public of close friends. That evening, she was singing the role of Colette, the heroine of this one act opera composed in 1753 by the philosopher Jean-Jacques Rousseau, perhaps the most celebrated work of its time. That exceptional evening, a veritable fantasy of the Queens who imagined that she was a shepherdess, has been resuscitated under the direction of Sebastien dHerin in a costumed reconstitution, staged in the original historic sets.

Performer:
Colette - Caroline Mutel
Colin - Cyrille Dubois
Le Devin - Frédéric Caton
Les Nouveaux Caractères
Conductor - Sébastien d’Hérin

Track List:
01. Ouverture: Gay
02. Ouverture: Lent
03. Ouverture: Gay
04. Scène 1. “J’ai perdu tout mon bonheur” (Colette)
05. Scène 2. Prélude
06. Scène 2. “Perdrai-je Colin sans retour ?” (Colette, Le Devin)
07. Scène 2. “Si des galants de la ville” (Colette)
08. Scène 2. “Je vous rendrai le sien, ce sera mon ouvrage” (Le Devin)
09. Scène 2. “À vos sages leçons Colette s’abandonne” (Colette, Le Devin); Scène 3 - “J’ai tot su de Colin” (Le Devin)
10. Scène 4. “L’amour et vos leçons m’ont enfin rendu sage” (Colin, Le Devin)
11. Scène 5. “Le charme est fait” (Colin, Le Devin)
12. Scène 5. “Je vais revoir ma charmante maîtresse” (Colin)
13. Scène 6. “Je l’aperçois…” (Colin, Colette)
14. Scène 6. “Ta foi ne m’est point ravie” (Colin, Colette)
15. Scène 6. “Tant qu’à mon Colin j’ai su plaire” (Colette, Colin)
16. Scène 6. “À jamais Colin” (Ensemble)
17. Scène 7. “Je vous ai délivrés d’un cruel maléfice !” (Le Devin, Colin)
18. Scène 7. Entrée de la jeunesse du village
19. Scène 8. “Colin revient à sa bergère” (Chœur)
20. Scène 8. Pastorelle pour les villageois
21. Scène 8. Forlane
22. Scène 8. “Dans ma cabane obscure” (Colin)
23. Scène 8. Pantomime
24. Scène 8. “Il faut tous à l’envi” (Le Devin, Colin, Colette, Chœur)
25. Scène 8. “Avec l’objet de mes amours” (Colette)
26. Scène 8. Menuets
27. Scène 8. Allemande
28. Scène 8. “Allons danser sous les ormeaux” (Colette)


Exact Audio Copy V1.2 from 12. August 2016

EAC extraction logfile from 29. November 2018, 16:21

Sébastien d'Hérin, Les Noveaux Caractères / Le Devin du village

Used drive : MATSHITADVD-RAM UJ8G6 Adapter: 1 ID: 0

Read mode : Secure
Utilize accurate stream : Yes
Defeat audio cache : Yes
Make use of C2 pointers : No

Read offset correction : 103
Overread into Lead-In and Lead-Out : No
Fill up missing offset samples with silence : Yes
Delete leading and trailing silent blocks : No
Null samples used in CRC calculations : Yes
Used interface : Native Win32 interface for Win NT & 2000

Used output format : User Defined Encoder
Selected bitrate : 768 kBit/s
Quality : High
Add ID3 tag : No
Command line compressor : C:\Program Files (x86)\Exact Audio Copy\Flac\flac.exe
Additional command line options : -6 -V -T "ARTIST=%artist%" -T "TITLE=%title%" -T "ALBUM=%albumtitle%" -T "DATE=%year%" -T "TRACKNUMBER=%tracknr%" -T "GENRE=%genre%" -T "COMMENT=%comment%" -T "BAND=%albuminterpret%" -T "ALBUMARTIST=%albuminterpret%" -T "COMPOSER=%composer%" %haslyrics%–tag-from-file=LYRICS="%lyricsfile%"%haslyrics% -T "DISCNUMBER=%cdnumber%" -T "TOTALDISCS=%totalcds%" -T "TOTALTRACKS=%numtracks%" %hascover%–picture="%coverfile%"%hascover% %source% -o %dest%


TOC of the extracted CD

Track | Start | Length | Start sector | End sector
––––––––––––––––––––––––––––-
1 | 0:00.00 | 1:22.54 | 0 | 6203
2 | 1:22.54 | 1:19.63 | 6204 | 12191
3 | 2:42.42 | 0:49.00 | 12192 | 15866
4 | 3:31.42 | 4:21.64 | 15867 | 35505
5 | 7:53.31 | 0:37.10 | 35506 | 38290
6 | 8:30.41 | 1:10.63 | 38291 | 43603
7 | 9:41.29 | 1:02.70 | 43604 | 48323
8 | 10:44.24 | 1:57.05 | 48324 | 57103
9 | 12:41.29 | 1:12.39 | 57104 | 62542
10 | 13:53.68 | 2:51.25 | 62543 | 75392
11 | 16:45.18 | 1:14.06 | 75393 | 80948
12 | 17:59.24 | 3:43.28 | 80949 | 97701
13 | 21:42.52 | 2:34.10 | 97702 | 109261
14 | 24:16.62 | 1:51.69 | 109262 | 117655
15 | 26:08.56 | 2:13.60 | 117656 | 127690
16 | 28:22.41 | 3:05.54 | 127691 | 141619
17 | 31:28.20 | 1:16.64 | 141620 | 147383
18 | 32:45.09 | 1:25.11 | 147384 | 153769
19 | 34:10.20 | 3:11.70 | 153770 | 168164
20 | 37:22.15 | 2:03.18 | 168165 | 177407
21 | 39:25.33 | 1:17.68 | 177408 | 183250
22 | 40:43.26 | 1:48.35 | 183251 | 191385
23 | 42:31.61 | 6:39.72 | 191386 | 221382
24 | 49:11.58 | 6:01.63 | 221383 | 248520
25 | 55:13.46 | 6:21.34 | 248521 | 277129
26 | 61:35.05 | 3:14.20 | 277130 | 291699
27 | 64:49.25 | 1:39.15 | 291700 | 299139
28 | 66:28.40 | 1:28.52 | 299140 | 305791


Range status and errors

Selected range

Filename C:\Users\Roy\Music\ROUSSEAU - Le Devin du Village () [d’Herin; Chateau de Versailles Spectacles]\CD (FLAC + CUE)\Jean-Jacques Rousseau - Le Devin du village.wav

Peak level 99.0 %
Extraction speed 4.3 X
Range quality 100.0 %
Test CRC 5230C03E
Copy CRC 5230C03E
Copy OK

No errors occurred


AccurateRip summary

Track 1 not present in database
Track 2 not present in database
Track 3 not present in database
Track 4 not present in database
Track 5 not present in database
Track 6 not present in database
Track 7 not present in database
Track 8 not present in database
Track 9 not present in database
Track 10 not present in database
Track 11 not present in database
Track 12 not present in database
Track 13 not present in database
Track 14 not present in database
Track 15 not present in database
Track 16 not present in database
Track 17 not present in database
Track 18 not present in database
Track 19 not present in database
Track 20 not present in database
Track 21 not present in database
Track 22 not present in database
Track 23 not present in database
Track 24 not present in database
Track 25 not present in database
Track 26 not present in database
Track 27 not present in database
Track 28 not present in database

None of the tracks are present in the AccurateRip database

End of status report

–– CUETools DB Plugin V2.1.6

[CTDB TOCID: 8GALS3MRIuxmbtF7Hvjmx.aXCVw-] disk not present in database
Submit result: 8GALS3MRIuxmbtF7Hvjmx.aXCVw- has been uploaded


==== Log checksum 60453FE8E701BEB49FE1EABCA227A5041858A4A1F0472762527E6490EB6A2ABE ====

Sebastien d'Herin, Les Nouveaux Caracteres - Jean-Jacques Rousseau: Le Devin du Village (2018)

Thanks to the original releaser