Tags
Language
Tags

Sergio Azzolini, Florian Heyerick, Kirchheimer BachConsort - Graupner: Jauchzet ihr Himmel, erfreue dich Erde (2020)

Posted By: ArlegZ
Sergio Azzolini, Florian Heyerick, Kirchheimer BachConsort - Graupner: Jauchzet ihr Himmel, erfreue dich Erde (2020)

Sergio Azzolini, Florian Heyerick, Kirchheimer BachConsort - Graupner: Jauchzet ihr Himmel, erfreue dich Erde. Bassoon Cantatas (2020)
XLD | FLAC | Tracks (Cue & Log) ~ 488 Mb | Total time: 119:05 | Scans included
Classical | Label: CPO | 555 353-2 | Recorded: 2020

During the eighteenth century the knowledge that the bassoon could very well rise up to the virtuosic spheres was reserved for only rather small circles of hearers. In April 1736 a new bassoon star in the person of Johann Christian Klotsch came from Zerbst to Darmstadt. Christoph Graupner must have been extremely delighted to work with this talented musician; Klotsch had only recently been under contract in Darmstadt when he was given multiple opportunities to demonstrate his bassoonist’s skill in the Sunday cantatas. Since Graupner loved to experiment with innovative tone colors, he increasingly placed the bassoon in the spotlight in his cantatas. This development reached its height in 1741 with bassoon parts of concerto character in sixteen different cantatas. Sergio Azzolini is currently a star of today’s Baroque scene. When he plays his bassoon, the music is brought to life, and on this CD with vocal soloists and the Kirchheim BachConsort he has ‘revived’ (in the truest sense of the term) church cantatas with obbligato bassoon by Graupner. Sergio Azzolini comments: ’The Baroque bassoon is fragile. And this fits this music because the music too is fragile. The Baroque bassoon is one part, and the player has to do the rest, that is, our body. For this reason we are also very close to the singer. And I believe that Graupner understood that, and it was precisely this that he celebrated.’

Performer:
Sergio Azzolini, bassoon
Monika Mauch, soprano
Franz Vitzthum, alt
Georg Poplutz, tenor
Dominik Wörner, bass
Kirchheimer BachConsort
Florian Heyerick, conductor

Track List:
CD1:
01-07. Hebet eure Augen auf gen Himmel, GWV 1102 / 40
08-14. Jauchzet ihr Himmel, erfreue dich Erde GWV 1105 / 53
15-21. Jesu, mein Herr und Gott allein, GWV 1109 / 37
CD2:
01-07. Kehre wieder, du abtrünnige Israel, GWV 1125 / 43
08-14. Ach, bleib' bei uns, Herr Jesu Christ, GWV 1129 / 46
15-22. Wir werden Ihn sehen, GWV 1169 / 49



X Lossless Decoder version 20191004 (152.0)

XLD extraction logfile from 2020-10-31 12:17:32 +0100

Azzolini, soli, Kirchheimer BachConsort, Heyerick / Graupner - Bassoon Cantatas (CD1)

Used drive : hp BD-RE BT30N (revision B308)
Media type : Pressed CD

Ripper mode : XLD Secure Ripper
Disable audio cache : OK for the drive with a cache less than 1375KiB
Make use of C2 pointers : NO
Read offset correction : 667
Max retry count : 20
Gap status : Analyzed, Appended (except HTOA)

TOC of the extracted CD
Track | Start | Length | Start sector | End sector
––––––––––––––––––––––––––––-
1 | 00:00:00 | 02:07:36 | 0 | 9560
2 | 02:07:36 | 00:57:33 | 9561 | 13868
3 | 03:04:69 | 06:26:22 | 13869 | 42840
4 | 09:31:16 | 01:12:15 | 42841 | 48255
5 | 10:43:31 | 11:58:45 | 48256 | 102150
6 | 22:42:01 | 00:40:22 | 102151 | 105172
7 | 23:22:23 | 01:51:21 | 105173 | 113518
8 | 25:13:44 | 02:11:00 | 113519 | 123343
9 | 27:24:44 | 01:08:00 | 123344 | 128443
10 | 28:32:44 | 06:54:08 | 128444 | 159501
11 | 35:26:52 | 01:35:28 | 159502 | 166654
12 | 37:02:05 | 05:34:60 | 166655 | 191764
13 | 42:36:65 | 00:51:47 | 191765 | 195636
14 | 43:28:37 | 01:37:68 | 195637 | 202979
15 | 45:06:30 | 02:01:66 | 202980 | 212120
16 | 47:08:21 | 04:25:47 | 212121 | 232042
17 | 51:33:68 | 01:23:36 | 232043 | 238303
18 | 52:57:29 | 05:40:22 | 238304 | 263825
19 | 58:37:51 | 02:02:74 | 263826 | 273049
20 | 60:40:50 | 01:44:72 | 273050 | 280921
21 | 62:25:47 | 01:27:55 | 280922 | 287501

AccurateRip Summary
Disc not found in AccurateRip DB.

All Tracks
Statistics
Read error : 0
Jitter error (maybe fixed) : 0
Retry sector count : 0
Damaged sector count : 0

Track 01
Filename : /Volumes/Intenso 5to/01 Azzzolini-Heyerick - Hebet eure Augen auf gen Himmel - Dictum.flac
Pre-gap length : 00:02:00

CRC32 hash (test run) : 19D277DF
CRC32 hash : 19D277DF
CRC32 hash (skip zero) : 69819328
AccurateRip v1 signature : 1B2A6C6B
AccurateRip v2 signature : B66B1733
->Track not present in AccurateRip database.
Statistics
Read error : 0
Jitter error (maybe fixed) : 0
Retry sector count : 0
Damaged sector count : 0

Track 02
Filename : /Volumes/Intenso 5to/02 Azzolini-Heyerick - Recitativo (Canto).flac

CRC32 hash (test run) : EB89341B
CRC32 hash : EB89341B
CRC32 hash (skip zero) : 4C2F8425
AccurateRip v1 signature : 2B29A381
AccurateRip v2 signature : 33F188DE
->Track not present in AccurateRip database.
Statistics
Read error : 0
Jitter error (maybe fixed) : 0
Retry sector count : 0
Damaged sector count : 0

Track 03
Filename : /Volumes/Intenso 5to/03 Azzolini-Heyerick - Aria (Canto).flac

CRC32 hash (test run) : 265A97B9
CRC32 hash : 265A97B9
CRC32 hash (skip zero) : 48A45D5F
AccurateRip v1 signature : 766D878B
AccurateRip v2 signature : 67522D28
->Track not present in AccurateRip database.
Statistics
Read error : 0
Jitter error (maybe fixed) : 0
Retry sector count : 0
Damaged sector count : 0

Track 04
Filename : /Volumes/Intenso 5to/04 Azzolini-Heyerick - Recitativo (Basso).flac

CRC32 hash (test run) : 924619AA
CRC32 hash : 924619AA
CRC32 hash (skip zero) : DF3D9993
AccurateRip v1 signature : 7ED1DF81
AccurateRip v2 signature : B578A9D4
->Track not present in AccurateRip database.
Statistics
Read error : 0
Jitter error (maybe fixed) : 0
Retry sector count : 0
Damaged sector count : 0

Track 05
Filename : /Volumes/Intenso 5to/05 Azzolini-Heyerick - Aria (Basso).flac

CRC32 hash (test run) : 2B299E41
CRC32 hash : 2B299E41
CRC32 hash (skip zero) : 72A77DE8
AccurateRip v1 signature : D95DA08C
AccurateRip v2 signature : 96473A95
->Track not present in AccurateRip database.
Statistics
Read error : 0
Jitter error (maybe fixed) : 0
Retry sector count : 0
Damaged sector count : 0

Track 06
Filename : /Volumes/Intenso 5to/06 Azzolini-Heyerick - Recitativo (Tenore).flac

CRC32 hash (test run) : 8DE4771B
CRC32 hash : 8DE4771B
CRC32 hash (skip zero) : 23D8DD84
AccurateRip v1 signature : 1AA089EC
AccurateRip v2 signature : 07826ED4
->Track not present in AccurateRip database.
Statistics
Read error : 0
Jitter error (maybe fixed) : 0
Retry sector count : 0
Damaged sector count : 0

Track 07
Filename : /Volumes/Intenso 5to/07 Azzolini-Heyerick - Choral.flac

CRC32 hash (test run) : 13FE1D73
CRC32 hash : 13FE1D73
CRC32 hash (skip zero) : 54DF2C65
AccurateRip v1 signature : C45F806F
AccurateRip v2 signature : B6B33B77
->Track not present in AccurateRip database.
Statistics
Read error : 0
Jitter error (maybe fixed) : 0
Retry sector count : 0
Damaged sector count : 0

Track 08
Filename : /Volumes/Intenso 5to/08 Azzolini-Heyerick - Jauchzet, ihr Himmel, freue dich, Erde - Dictum.flac

CRC32 hash (test run) : BA6E3A3F
CRC32 hash : BA6E3A3F
CRC32 hash (skip zero) : 42B138CE
AccurateRip v1 signature : 16CDB280
AccurateRip v2 signature : 260A6545
->Track not present in AccurateRip database.
Statistics
Read error : 0
Jitter error (maybe fixed) : 0
Retry sector count : 0
Damaged sector count : 0

Track 09
Filename : /Volumes/Intenso 5to/09 Azzolini-Heyerick - Recitativo (Canto).flac

CRC32 hash (test run) : D1729FC1
CRC32 hash : D1729FC1
CRC32 hash (skip zero) : BB73F406
AccurateRip v1 signature : 8FA3780C
AccurateRip v2 signature : 454A3D5D
->Track not present in AccurateRip database.
Statistics
Read error : 0
Jitter error (maybe fixed) : 0
Retry sector count : 0
Damaged sector count : 0

Track 10
Filename : /Volumes/Intenso 5to/10 Azzolini-Heyerick - Aria (Canto).flac

CRC32 hash (test run) : 8AD1023F
CRC32 hash : 8AD1023F
CRC32 hash (skip zero) : 725E3F57
AccurateRip v1 signature : E50EED03
AccurateRip v2 signature : B1F02582
->Track not present in AccurateRip database.
Statistics
Read error : 0
Jitter error (maybe fixed) : 0
Retry sector count : 0
Damaged sector count : 0

Track 11
Filename : /Volumes/Intenso 5to/11 Azzolini-Heyerick - Recitativo (Basso).flac

CRC32 hash (test run) : 93916F25
CRC32 hash : 93916F25
CRC32 hash (skip zero) : E81639B1
AccurateRip v1 signature : 4BEB6D1D
AccurateRip v2 signature : 0F2C310D
->Track not present in AccurateRip database.
Statistics
Read error : 0
Jitter error (maybe fixed) : 0
Retry sector count : 0
Damaged sector count : 0

Track 12
Filename : /Volumes/Intenso 5to/12 Azzolini-Heyerick - Aria (Basso).flac

CRC32 hash (test run) : 3CF6A40D
CRC32 hash : 3CF6A40D
CRC32 hash (skip zero) : DA5FDCCF
AccurateRip v1 signature : A772800A
AccurateRip v2 signature : 8B317FB1
->Track not present in AccurateRip database.
Statistics
Read error : 0
Jitter error (maybe fixed) : 0
Retry sector count : 0
Damaged sector count : 0

Track 13
Filename : /Volumes/Intenso 5to/13 Azzolini-Heyerick - Recitativo (Tenore).flac

CRC32 hash (test run) : 2E700899
CRC32 hash : 2E700899
CRC32 hash (skip zero) : 96B4BAAE
AccurateRip v1 signature : AB808775
AccurateRip v2 signature : 633FBF28
->Track not present in AccurateRip database.
Statistics
Read error : 0
Jitter error (maybe fixed) : 0
Retry sector count : 0
Damaged sector count : 0

Track 14
Filename : /Volumes/Intenso 5to/14 Azzolini-Heyerick - Choralstrophe.flac

CRC32 hash (test run) : 3DBF4EC1
CRC32 hash : 3DBF4EC1
CRC32 hash (skip zero) : 368C8779
AccurateRip v1 signature : 3FFA4393
AccurateRip v2 signature : 4F64C4F6
->Track not present in AccurateRip database.
Statistics
Read error : 0
Jitter error (maybe fixed) : 0
Retry sector count : 0
Damaged sector count : 0

Track 15
Filename : /Volumes/Intenso 5to/15 Azzolini-Heyerick - Jesu, mein Herr und Gott allein - Choral.flac

CRC32 hash (test run) : 235F0954
CRC32 hash : 235F0954
CRC32 hash (skip zero) : C399F798
AccurateRip v1 signature : B95F1545
AccurateRip v2 signature : 73E00E2C
->Track not present in AccurateRip database.
Statistics
Read error : 0
Jitter error (maybe fixed) : 0
Retry sector count : 0
Damaged sector count : 0

Track 16
Filename : /Volumes/Intenso 5to/16 Azzolini-Heyerick - Aria (Canto).flac

CRC32 hash (test run) : E20ABA50
CRC32 hash : E20ABA50
CRC32 hash (skip zero) : 44B538BB
AccurateRip v1 signature : F3B7BE3F
AccurateRip v2 signature : AB6FA62B
->Track not present in AccurateRip database.
Statistics
Read error : 0
Jitter error (maybe fixed) : 0
Retry sector count : 0
Damaged sector count : 0

Track 17
Filename : /Volumes/Intenso 5to/17 Azzolini-Heyerick - Recitativo (Basso).flac

CRC32 hash (test run) : 4E1A8DA0
CRC32 hash : 4E1A8DA0
CRC32 hash (skip zero) : 291EF637
AccurateRip v1 signature : 3FD9DBBA
AccurateRip v2 signature : 99EE2042
->Track not present in AccurateRip database.
Statistics
Read error : 0
Jitter error (maybe fixed) : 0
Retry sector count : 0
Damaged sector count : 0

Track 18
Filename : /Volumes/Intenso 5to/18 Azzolini-Heyerick - Aria (Basso).flac

CRC32 hash (test run) : E417F68D
CRC32 hash : E417F68D
CRC32 hash (skip zero) : F6AE53E2
AccurateRip v1 signature : 999E40A4
AccurateRip v2 signature : 31B75CB6
->Track not present in AccurateRip database.
Statistics
Read error : 0
Jitter error (maybe fixed) : 0
Retry sector count : 0
Damaged sector count : 0

Track 19
Filename : /Volumes/Intenso 5to/19 Azzolini-Heyerick - Choral.flac

CRC32 hash (test run) : 84E64EE0
CRC32 hash : 84E64EE0
CRC32 hash (skip zero) : F73FE9D2
AccurateRip v1 signature : 649CA60E
AccurateRip v2 signature : 678BBB37
->Track not present in AccurateRip database.
Statistics
Read error : 0
Jitter error (maybe fixed) : 0
Retry sector count : 0
Damaged sector count : 0

Track 20
Filename : /Volumes/Intenso 5to/20 Azzolini-Heyerick - Recitativo (Basso).flac

CRC32 hash (test run) : 773CD34A
CRC32 hash : 773CD34A
CRC32 hash (skip zero) : F134C9CE
AccurateRip v1 signature : 19D520B0
AccurateRip v2 signature : 887FA345
->Track not present in AccurateRip database.
Statistics
Read error : 0
Jitter error (maybe fixed) : 0
Retry sector count : 0
Damaged sector count : 0

Track 21
Filename : /Volumes/Intenso 5to/21 Azzolini-Heyerick - Coro.flac

CRC32 hash (test run) : 95071339
CRC32 hash : 95071339
CRC32 hash (skip zero) : 5DB03764
AccurateRip v1 signature : 0D8BD3A8
AccurateRip v2 signature : E21C9463
->Track not present in AccurateRip database.
Statistics
Read error : 0
Jitter error (maybe fixed) : 0
Retry sector count : 0
Damaged sector count : 0

No errors occurred

End of status report

––-BEGIN XLD SIGNATURE––-
2DMluMOhgok2PmH4K1eb47IkipEzoxBv8rPKmPtK5PVjmUiDrzzCwEaG6MmDEMqnafqE6ugKaUGiRagl1lxVrD9xVT6fvaQAdk0HLUu
––-END XLD SIGNATURE––-


X Lossless Decoder version 20191004 (152.0)

XLD extraction logfile from 2020-10-31 14:13:38 +0100

Azzolini, soli, Kirchheimer BachConsort, Heyerick / Graupner - Bassoon Cantatas (CD2)

Used drive : hp BD-RE BT30N (revision B308)
Media type : Pressed CD

Ripper mode : XLD Secure Ripper
Disable audio cache : OK for the drive with a cache less than 1375KiB
Make use of C2 pointers : NO
Read offset correction : 667
Max retry count : 20
Gap status : Analyzed, Appended (except HTOA)

TOC of the extracted CD
Track | Start | Length | Start sector | End sector
––––––––––––––––––––––––––––-
1 | 00:00:00 | 01:08:14 | 0 | 5113
2 | 01:08:14 | 01:12:38 | 5114 | 10551
3 | 02:20:52 | 04:59:61 | 10552 | 33037
4 | 07:20:38 | 01:25:30 | 33038 | 39442
5 | 08:45:68 | 07:41:03 | 39443 | 74020
6 | 16:26:71 | 00:55:02 | 74021 | 78147
7 | 17:21:73 | 02:45:18 | 78148 | 90540
8 | 20:07:16 | 01:41:32 | 90541 | 98147
9 | 21:48:48 | 00:58:10 | 98148 | 102507
10 | 22:46:58 | 06:49:06 | 102508 | 133188
11 | 29:35:64 | 01:15:21 | 133189 | 138834
12 | 30:51:10 | 03:23:56 | 138835 | 154115
13 | 34:14:66 | 00:49:58 | 154116 | 157848
14 | 35:04:49 | 01:42:36 | 157849 | 165534
15 | 36:47:10 | 01:20:34 | 165535 | 171568
16 | 38:07:44 | 04:47:36 | 171569 | 193129
17 | 42:55:05 | 01:05:21 | 193130 | 198025
18 | 44:00:26 | 01:28:68 | 198026 | 204693
19 | 45:29:19 | 01:09:24 | 204694 | 209892
20 | 46:38:43 | 06:35:56 | 209893 | 239573
21 | 53:14:24 | 00:26:60 | 239574 | 241583
22 | 53:41:09 | 01:27:65 | 241584 | 248173

AccurateRip Summary
Disc not found in AccurateRip DB.

All Tracks
Statistics
Read error : 0
Jitter error (maybe fixed) : 0
Retry sector count : 0
Damaged sector count : 0

Track 01
Filename : /Volumes/Intenso 5to/01 Azzolini-Heyerick - Kehre wieder, du abtrünnige Israel - Dictum (Tenore).flac
Pre-gap length : 00:02:00

CRC32 hash (test run) : 39E37FB4
CRC32 hash : 39E37FB4
CRC32 hash (skip zero) : 79D4B2B2
AccurateRip v1 signature : C43228F0
AccurateRip v2 signature : 7E5382FC
->Track not present in AccurateRip database.
Statistics
Read error : 0
Jitter error (maybe fixed) : 0
Retry sector count : 0
Damaged sector count : 0

Track 02
Filename : /Volumes/Intenso 5to/02 Azzolini-Heyerick - Recitativo (Alto).flac

CRC32 hash (test run) : 39C33FB4
CRC32 hash : 39C33FB4
CRC32 hash (skip zero) : 9120F15F
AccurateRip v1 signature : C1D11C4B
AccurateRip v2 signature : 4B1EE7B0
->Track not present in AccurateRip database.
Statistics
Read error : 0
Jitter error (maybe fixed) : 0
Retry sector count : 0
Damaged sector count : 0

Track 03
Filename : /Volumes/Intenso 5to/03 Azzolini-Heyerick - Aria (Alto).flac

CRC32 hash (test run) : 008C444F
CRC32 hash : 008C444F
CRC32 hash (skip zero) : CC641164
AccurateRip v1 signature : 14E2280F
AccurateRip v2 signature : 20F34C26
->Track not present in AccurateRip database.
Statistics
Read error : 0
Jitter error (maybe fixed) : 0
Retry sector count : 0
Damaged sector count : 0

Track 04
Filename : /Volumes/Intenso 5to/04 Azzolini-Heyerick - Recitativo (Basso).flac

CRC32 hash (test run) : BCA1A7A7
CRC32 hash : BCA1A7A7
CRC32 hash (skip zero) : 99F3D6CF
AccurateRip v1 signature : EF35DB90
AccurateRip v2 signature : 4C054199
->Track not present in AccurateRip database.
Statistics
Read error : 0
Jitter error (maybe fixed) : 0
Retry sector count : 0
Damaged sector count : 0

Track 05
Filename : /Volumes/Intenso 5to/05 Azzolini-Heyerick - Aria (Basso).flac

CRC32 hash (test run) : 53C59D24
CRC32 hash : 53C59D24
CRC32 hash (skip zero) : 87C85996
AccurateRip v1 signature : D4DAA708
AccurateRip v2 signature : 7D60EC48
->Track not present in AccurateRip database.
Statistics
Read error : 0
Jitter error (maybe fixed) : 0
Retry sector count : 0
Damaged sector count : 0

Track 06
Filename : /Volumes/Intenso 5to/06 Azzolini-Heyerick - Recitativo (Tenore).flac

CRC32 hash (test run) : 2BC49124
CRC32 hash : 2BC49124
CRC32 hash (skip zero) : 6AD22F8B
AccurateRip v1 signature : 041F450A
AccurateRip v2 signature : 220C7328
->Track not present in AccurateRip database.
Statistics
Read error : 0
Jitter error (maybe fixed) : 0
Retry sector count : 0
Damaged sector count : 0

Track 07
Filename : /Volumes/Intenso 5to/07 Azzolini-Heyerick - Choral.flac

CRC32 hash (test run) : 0032B752
CRC32 hash : 0032B752
CRC32 hash (skip zero) : 470FD74A
AccurateRip v1 signature : 076B5805
AccurateRip v2 signature : 32269507
->Track not present in AccurateRip database.
Statistics
Read error : 0
Jitter error (maybe fixed) : 0
Retry sector count : 0
Damaged sector count : 0

Track 08
Filename : /Volumes/Intenso 5to/08 Azzolini-Heyerick - Ach, bleib' bei uns, Herr Jesu Christ - Choral.flac

CRC32 hash (test run) : 11984804
CRC32 hash : 11984804
CRC32 hash (skip zero) : D3BE3A7E
AccurateRip v1 signature : 966F939C
AccurateRip v2 signature : E9C6A203
->Track not present in AccurateRip database.
Statistics
Read error : 0
Jitter error (maybe fixed) : 0
Retry sector count : 0
Damaged sector count : 0

Track 09
Filename : /Volumes/Intenso 5to/09 Azzolini-Heyerick - Recitativo (Canto).flac

CRC32 hash (test run) : 7FC58923
CRC32 hash : 7FC58923
CRC32 hash (skip zero) : 8F9378C9
AccurateRip v1 signature : 90CFC92B
AccurateRip v2 signature : 3FC5B757
->Track not present in AccurateRip database.
Statistics
Read error : 0
Jitter error (maybe fixed) : 0
Retry sector count : 0
Damaged sector count : 0

Track 10
Filename : /Volumes/Intenso 5to/10 Azzolini-Heyerick - Aria (Canto).flac

CRC32 hash (test run) : CA33183E
CRC32 hash : CA33183E
CRC32 hash (skip zero) : B2EC3C54
AccurateRip v1 signature : 033AC1FE
AccurateRip v2 signature : 435AFCC1
->Track not present in AccurateRip database.
Statistics
Read error : 0
Jitter error (maybe fixed) : 0
Retry sector count : 0
Damaged sector count : 0

Track 11
Filename : /Volumes/Intenso 5to/11 Azzolini-Heyerick - Recitativo (Basso).flac

CRC32 hash (test run) : 720B93B5
CRC32 hash : 720B93B5
CRC32 hash (skip zero) : 70B8F4F6
AccurateRip v1 signature : 461E7FA8
AccurateRip v2 signature : F6F1D238
->Track not present in AccurateRip database.
Statistics
Read error : 0
Jitter error (maybe fixed) : 0
Retry sector count : 0
Damaged sector count : 0

Track 12
Filename : /Volumes/Intenso 5to/12 Azzolini-Heyerick - Aria (Basso).flac

CRC32 hash (test run) : B257EB7A
CRC32 hash : B257EB7A
CRC32 hash (skip zero) : 5375CC2F
AccurateRip v1 signature : 57A16AA3
AccurateRip v2 signature : BC42D2CE
->Track not present in AccurateRip database.
Statistics
Read error : 0
Jitter error (maybe fixed) : 0
Retry sector count : 0
Damaged sector count : 0

Track 13
Filename : /Volumes/Intenso 5to/13 Azzolini-Heyerick - Recitativo (Canto).flac

CRC32 hash (test run) : D9E6671C
CRC32 hash : D9E6671C
CRC32 hash (skip zero) : 832E0BC3
AccurateRip v1 signature : BCFE7B2D
AccurateRip v2 signature : D8EA1C02
->Track not present in AccurateRip database.
Statistics
Read error : 0
Jitter error (maybe fixed) : 0
Retry sector count : 0
Damaged sector count : 0

Track 14
Filename : /Volumes/Intenso 5to/14 Azzolini-Heyerick - Choral.flac

CRC32 hash (test run) : 679CA8D2
CRC32 hash : 679CA8D2
CRC32 hash (skip zero) : 0AFDC920
AccurateRip v1 signature : CC360961
AccurateRip v2 signature : 40FA3F9B
->Track not present in AccurateRip database.
Statistics
Read error : 0
Jitter error (maybe fixed) : 0
Retry sector count : 0
Damaged sector count : 0

Track 15
Filename : /Volumes/Intenso 5to/15 Azzolini-Heyerick - Wir werden Ihn sehen - Dictum (Tenore).flac

CRC32 hash (test run) : 9086F000
CRC32 hash : 9086F000
CRC32 hash (skip zero) : B619D60F
AccurateRip v1 signature : DCA8C1BD
AccurateRip v2 signature : 39DA2DE4
->Track not present in AccurateRip database.
Statistics
Read error : 0
Jitter error (maybe fixed) : 0
Retry sector count : 0
Damaged sector count : 0

Track 16
Filename : /Volumes/Intenso 5to/16 Azzolini-Heyerick - Aria (Tenore, Basso).flac

CRC32 hash (test run) : 6BA8E546
CRC32 hash : 6BA8E546
CRC32 hash (skip zero) : 1C017E8F
AccurateRip v1 signature : 0982F231
AccurateRip v2 signature : 4E42563F
->Track not present in AccurateRip database.
Statistics
Read error : 0
Jitter error (maybe fixed) : 0
Retry sector count : 0
Damaged sector count : 0

Track 17
Filename : /Volumes/Intenso 5to/17 Azzolini-Heyerick - Recitativo (Basso).flac

CRC32 hash (test run) : BBD274A6
CRC32 hash : BBD274A6
CRC32 hash (skip zero) : 3E5C889F
AccurateRip v1 signature : F4239CED
AccurateRip v2 signature : 85434F3E
->Track not present in AccurateRip database.
Statistics
Read error : 0
Jitter error (maybe fixed) : 0
Retry sector count : 0
Damaged sector count : 0

Track 18
Filename : /Volumes/Intenso 5to/18 Azzolini-Heyerick - Choral.flac

CRC32 hash (test run) : A42A9DE7
CRC32 hash : A42A9DE7
CRC32 hash (skip zero) : 5DE073D2
AccurateRip v1 signature : 1ACC1AC6
AccurateRip v2 signature : 34CBA2CB
->Track not present in AccurateRip database.
Statistics
Read error : 0
Jitter error (maybe fixed) : 0
Retry sector count : 0
Damaged sector count : 0

Track 19
Filename : /Volumes/Intenso 5to/19 Azzolini-Heyerick - Recitativo (Canto).flac

CRC32 hash (test run) : E505333F
CRC32 hash : E505333F
CRC32 hash (skip zero) : 2C51A771
AccurateRip v1 signature : 617BE1E0
AccurateRip v2 signature : D95CC64F
->Track not present in AccurateRip database.
Statistics
Read error : 0
Jitter error (maybe fixed) : 0
Retry sector count : 0
Damaged sector count : 0

Track 20
Filename : /Volumes/Intenso 5to/20 Azzolini-Heyerick - Aria (Canto).flac

CRC32 hash (test run) : 6BB057FF
CRC32 hash : 6BB057FF
CRC32 hash (skip zero) : 98800303
AccurateRip v1 signature : 7083DC3D
AccurateRip v2 signature : ED67B4F4
->Track not present in AccurateRip database.
Statistics
Read error : 0
Jitter error (maybe fixed) : 0
Retry sector count : 0
Damaged sector count : 0

Track 21
Filename : /Volumes/Intenso 5to/21 Azzolini-Heyerick - Recitativo (Tenore).flac

CRC32 hash (test run) : 2052A1AA
CRC32 hash : 2052A1AA
CRC32 hash (skip zero) : 23C1FB80
AccurateRip v1 signature : 1E7629BB
AccurateRip v2 signature : 585FD677
->Track not present in AccurateRip database.
Statistics
Read error : 0
Jitter error (maybe fixed) : 0
Retry sector count : 0
Damaged sector count : 0

Track 22
Filename : /Volumes/Intenso 5to/22 Azzolini-Heyerick - Choral.flac

CRC32 hash (test run) : FFCAC026
CRC32 hash : FFCAC026
CRC32 hash (skip zero) : BF251F88
AccurateRip v1 signature : B9866EAF
AccurateRip v2 signature : 88FF9E7D
->Track not present in AccurateRip database.
Statistics
Read error : 0
Jitter error (maybe fixed) : 0
Retry sector count : 0
Damaged sector count : 0

No errors occurred

End of status report

––-BEGIN XLD SIGNATURE––-
qfYO.K9JuKub_24Kz3f0ZALVzPAR9QoW.1h1ll0o8mSjF7dBfnMtDDHh45mSPm9h6jZaBu_MI1IeUYbmq7e3flH2rfPQ8oozby0CK5G
––-END XLD SIGNATURE––-

Sergio Azzolini, Florian Heyerick, Kirchheimer BachConsort - Graupner: Jauchzet ihr Himmel, erfreue dich Erde (2020)

Thanks to the original releaser