Tags
Language
Tags

Sergio Azzolini, Hans Peter Westermann, Sonatori de la Gioiosa Marca - Antonio Vivaldi: Concerti per fagotto e oboe (2004)

Posted By: ArlegZ
Sergio Azzolini, Hans Peter Westermann, Sonatori de la Gioiosa Marca - Antonio Vivaldi: Concerti per fagotto e oboe (2004)

Sergio Azzolini, Hans Peter Westermann, Sonatori de la Gioiosa Marca - Antonio Vivaldi: Concerti per fagotto e oboe (2004)
EAC | FLAC | Image (Cue & Log) ~ 293 Mb | Total time: 59:30 | Scans included
Classical | Label: Opus 111 / Naïve | # OP 30379 | Recorded: 2003

Like many of the performances in previous installments, these–three bassoon concertos, two for oboe, and one double concerto for oboe and bassoon–also are characterized by widely contrasting tempos, sharply delineated dynamics, and especially here, a stylish in-your-face approach. From bassoonist Sergio Azzolini’s quite audible intake of breath before beginning the Concerto in D minor and continuing throughout this captivating program, rarely have Vivaldi’s wind concertos been rendered with such a consistent sense of urgency, vitality, and well, attitude. At no point do you feel that Azzolini, oboist Hans Peter Westermann, and the members of the Italian period-instrument ensemble Sonatori de la Gioiosa Marca are less than fully engaged in and passionate about their mission to champion this less-familiar though certainly worthy repertoire.
The double concerto for oboe and bassoon in G major is especially ravishing, featuring a first-movement Andante molto where the soloists’ aria-like phrasing sensuously complements the strings, and a spirited final Allegro molto that exploits the combined sonorities of the solo instruments. The opening Allegro from the A minor bassoon concerto (one of Vivaldi’s most recognizable themes), with its measured beat and evolving rhythmic structure, also is rendered with uncommon agility and grace.
Many listeners will be familiar with what arguably is the program’s most famous work, the Concerto for transverse flute subtitled “la Notte” (the night) RV 104. While there have been many exceptional period-instrument flute performances, listeners who enjoyed Giovanni Antonini and Il Giardino Armonico’s groundbreaking, over-the-top extravaganza on Teldec (1991) are immediately directed to this equally animated alternate version. Azzolini’s manual dexterity and breath control, especially in the “Fantasmi” and following Presto movements, are absolutely amazing in what must be three of the most virtuosic displays ever written for the instrument.
Opus 111’s sound is crisp, clear, and naturally balanced, and Azzolini and Louis Vatoison’s informative, entertaining notes feature many fascinating anecdotes. In sum, this is another outstanding entry in an already important and distinguished series that’s guaranteed to delight all fans of the composer.
–John Greene

Performer:
Sergio Azzolini, bassoon
Hans Peter Westermann, oboe
Sonatori de la Gioiosa Marca

Track List:
Bassoon Concerto in D Minor, RV 481
01. I. Allegro
02. II. Larghetto
03. III. Allegro Molto
Oboe Concerto in A Minor, RV 461
04. I. Allegro non molto
05. II. Larghetto
06. III. Allegro
Concerto for Oboe, Bassoon, Strings and Basso Continuo in G Major, RV 545
07. I. Andante molto
08. II. Largo
09. III. Allegro molto
Bassoon Concerto in A Minor, RV 498
10. I. Allegro, Piano sempre
11. II. Larghetto
12. III. Allegro
Oboe Concerto in C Major, RV 451
13. I. Allegro molto
14. II. Largo
15. III. Allegro
Bassoon Concerto in B-Flat Major, RV 501 "La notte"
16. I. Largo
17. II. Adagio
18. III. Il Sonno
19. IV. Sorge L'aurora


Exact Audio Copy V1.5 from 20. February 2020

EAC extraction logfile from 6. March 2021, 17:45

Sergio Azzolini / Concerti per fagotto e oboe

Used drive : ATAPI iHAS124 F Adapter: 1 ID: 0

Read mode : Secure
Utilize accurate stream : Yes
Defeat audio cache : Yes
Make use of C2 pointers : No

Read offset correction : 6
Overread into Lead-In and Lead-Out : No
Fill up missing offset samples with silence : Yes
Delete leading and trailing silent blocks : No
Null samples used in CRC calculations : Yes
Used interface : Native Win32 interface for Win NT & 2000

Used output format : User Defined Encoder
Selected bitrate : 1024 kBit/s
Quality : High
Add ID3 tag : No
Command line compressor : C:\Program Files (x86)\Exact Audio Copy\FLAC\FLAC.EXE
Additional command line options : -6 -V -T "ARTIST=%artist%" -T "TITLE=%title%" -T "ALBUM=%albumtitle%" -T "DATE=%year%" -T "TRACKNUMBER=%tracknr%" -T "GENRE=%genre%" -T "COMMENT=%comment%" -T "BAND=%albuminterpret%" -T "ALBUMARTIST=%albuminterpret%" -T "COMPOSER=%composer%" %haslyrics%–tag-from-file=LYRICS="%lyricsfile%"%haslyrics% -T "DISCNUMBER=%cdnumber%" -T "TOTALDISCS=%totalcds%" -T "TOTALTRACKS=%numtracks%" %hascover%–picture="%coverfile%"%hascover% %source% -o %dest%


TOC of the extracted CD

Track | Start | Length | Start sector | End sector
––––––––––––––––––––––––––––-
1 | 0:00.00 | 3:42.35 | 0 | 16684
2 | 3:42.35 | 3:57.42 | 16685 | 34501
3 | 7:40.02 | 2:39.02 | 34502 | 46428
4 | 10:19.04 | 3:53.48 | 46429 | 63951
5 | 14:12.52 | 2:35.10 | 63952 | 75586
6 | 16:47.62 | 2:41.46 | 75587 | 87707
7 | 19:29.33 | 3:49.37 | 87708 | 104919
8 | 23:18.70 | 2:50.43 | 104920 | 117712
9 | 26:09.38 | 3:23.56 | 117713 | 132993
10 | 29:33.19 | 4:07.45 | 132994 | 151563
11 | 33:40.64 | 4:03.14 | 151564 | 169802
12 | 37:44.03 | 2:48.62 | 169803 | 182464
13 | 40:32.65 | 2:49.18 | 182465 | 195157
14 | 43:22.08 | 3:17.42 | 195158 | 209974
15 | 46:39.50 | 3:16.59 | 209975 | 224733
16 | 49:56.34 | 1:58.72 | 224734 | 233655
17 | 51:55.31 | 1:35.35 | 233656 | 240815
18 | 53:30.66 | 2:44.11 | 240816 | 253126
19 | 56:15.02 | 3:14.67 | 253127 | 267743


Range status and errors

Selected range

Filename C:\EACRip\VARIOUS\Vivaldi - Concerti per fagotto e oboe (Sergio Azzolini, Hans Peter Westermann) (2004)\Vivaldi - Concerti per fagotto e oboe - Sergio Azzolini, Sonatori de la Gioiosa Marca.wav

Peak level 93.7 %
Extraction speed 8.4 X
Range quality 100.0 %
Test CRC 0AAB0B61
Copy CRC 0AAB0B61
Copy OK

No errors occurred


AccurateRip summary

Track 1 accurately ripped (confidence 43) [F3E1B6BB] (AR v2)
Track 2 accurately ripped (confidence 43) [4AC15C84] (AR v2)
Track 3 accurately ripped (confidence 42) [F083A903] (AR v2)
Track 4 accurately ripped (confidence 42) [5EECBE21] (AR v2)
Track 5 accurately ripped (confidence 42) [8634D4F9] (AR v2)
Track 6 accurately ripped (confidence 43) [54254791] (AR v2)
Track 7 accurately ripped (confidence 42) [25CF6EE0] (AR v2)
Track 8 accurately ripped (confidence 42) [85AAEEC9] (AR v2)
Track 9 accurately ripped (confidence 43) [3A9D15B6] (AR v2)
Track 10 accurately ripped (confidence 43) [F45CB37C] (AR v2)
Track 11 accurately ripped (confidence 43) [DD95632B] (AR v2)
Track 12 accurately ripped (confidence 42) [72DE14AC] (AR v2)
Track 13 accurately ripped (confidence 42) [EF781400] (AR v2)
Track 14 accurately ripped (confidence 42) [9EFCDE7D] (AR v2)
Track 15 accurately ripped (confidence 43) [1AB4AA76] (AR v2)
Track 16 accurately ripped (confidence 43) [DC03084B] (AR v2)
Track 17 accurately ripped (confidence 43) [C9B3FE6F] (AR v2)
Track 18 accurately ripped (confidence 43) [25B7D8EC] (AR v2)
Track 19 accurately ripped (confidence 42) [2F514870] (AR v2)

All tracks accurately ripped

End of status report

–– CUETools DB Plugin V2.1.6

[CTDB TOCID: 1E1etUQgBFyrNyGpqvvb8XsgXUs-] found
Submit result: 1E1etUQgBFyrNyGpqvvb8XsgXUs- has been confirmed
Track | CTDB Status
1 | (76/77) Accurately ripped
2 | (76/77) Accurately ripped
3 | (76/77) Accurately ripped
4 | (76/77) Accurately ripped
5 | (76/77) Accurately ripped
6 | (76/77) Accurately ripped
7 | (76/77) Accurately ripped
8 | (76/77) Accurately ripped
9 | (76/77) Accurately ripped
10 | (76/77) Accurately ripped
11 | (76/77) Accurately ripped
12 | (76/77) Accurately ripped
13 | (76/77) Accurately ripped
14 | (76/77) Accurately ripped
15 | (76/77) Accurately ripped
16 | (76/77) Accurately ripped
17 | (76/77) Accurately ripped
18 | (76/77) Accurately ripped
19 | (76/77) Accurately ripped


==== Log checksum 74676B4E9AF99BBA9D7939F96767D0F24B03732472D770C05D1BF23DB759F832 ====

Sergio Azzolini, Hans Peter Westermann, Sonatori de la Gioiosa Marca - Antonio Vivaldi: Concerti per fagotto e oboe (2004)

Thanks to the original releaser