Tags
Language
Tags

Sergio Azzolini, L'Onda Armonica - Antonio Vivaldi: Concerti per fagotto V (2021)

Posted By: ArlegZ
Sergio Azzolini, L'Onda Armonica - Antonio Vivaldi: Concerti per fagotto V (2021)

Sergio Azzolini, L'Onda Armonica - Vivaldi: Concerti per fagotto V (2021)
EAC | FLAC | Image (Cue & Log) ~ 326 Mb | Total time: 77:31 | Scans included
Classical | Label: Naïve | # OP 30573 | Recorded: 2018

Only now are we fully aware of the true immensity of Vivaldis concerto repertoire. The violin is by no means the only instrument he favored: the place of the bassoon in his work catalogue is remarkable for its size and stylistic homogeneity, as well as for his solistic treatment of an instrument previously confined to the continuo. Seven new concertos here join the twenty-six already recorded in the first four volumes of the Vivaldi Edition, an anthology Sergio Azzolini embarked on in 2009 with LAura Soave, and now builds on with LOnda Armonica.

Performer:
Sergio Azzolini, fagotto e direzione
L'Onda Armonica

Track List:
Concerto RV 497 in la minore
01. Allegro molto
02. Andante molto
03. Allegro
Concerto RV 476 in do maggiore
04. Allegro
05. Largo
06. Allegro molto
Concerto RV 486 in fa maggiore
07. Allegro non molto
08. Largo
09. Allegro
Concerto RV 481 in re minore
10. Allegro
11. Larghetto
12. Allegro molto
Concerto RV 467 in do maggiore
13. Allegro
14. Andante
15. Allegro
Concerto RV 489 in fa maggiore
16. Allegro
17. Largo
18. Allegro
Concerto RV 479 in do maggiore
19. Allegro
20. Largo
21. Allegro


Exact Audio Copy V1.6 from 23. October 2020

EAC extraction logfile from 18. May 2021, 14:19

Sergio Azzolini, L'Onda Armonica / Vivaldi - Concerti per fagotto V

Used drive : PIONEER DVD-RW DVR-218L Adapter: 1 ID: 0

Read mode : Secure
Utilize accurate stream : Yes
Defeat audio cache : Yes
Make use of C2 pointers : No

Read offset correction : 6
Overread into Lead-In and Lead-Out : No
Fill up missing offset samples with silence : Yes
Delete leading and trailing silent blocks : No
Null samples used in CRC calculations : Yes
Used interface : Native Win32 interface for Win NT & 2000

Used output format : User Defined Encoder
Selected bitrate : 128 kBit/s
Quality : High
Add ID3 tag : No
Command line compressor : C:\Program Files\Exact Audio Copy\Flac\flac.exe
Additional command line options : -V -8 -T "Date=%year%" -T "Genre=%genre%" %source%


TOC of the extracted CD

Track | Start | Length | Start sector | End sector
––––––––––––––––––––––––––––-
1 | 0:00.00 | 4:35.49 | 0 | 20673
2 | 4:35.49 | 3:28.25 | 20674 | 36298
3 | 8:03.74 | 2:43.21 | 36299 | 48544
4 | 10:47.20 | 3:29.14 | 48545 | 64233
5 | 14:16.34 | 4:23.67 | 64234 | 84025
6 | 18:40.26 | 2:31.29 | 84026 | 95379
7 | 21:11.55 | 3:57.69 | 95380 | 113223
8 | 25:09.49 | 2:30.48 | 113224 | 124521
9 | 27:40.22 | 3:28.43 | 124522 | 140164
10 | 31:08.65 | 4:24.34 | 140165 | 159998
11 | 35:33.24 | 5:04.42 | 159999 | 182840
12 | 40:37.66 | 2:40.68 | 182841 | 194908
13 | 43:18.59 | 4:48.14 | 194909 | 216522
14 | 48:06.73 | 3:33.48 | 216523 | 232545
15 | 51:40.46 | 3:50.68 | 232546 | 249863
16 | 55:31.39 | 4:11.68 | 249864 | 268756
17 | 59:43.32 | 3:43.47 | 268757 | 285528
18 | 63:27.04 | 3:13.42 | 285529 | 300045
19 | 66:40.46 | 4:47.31 | 300046 | 321601
20 | 71:28.02 | 2:24.61 | 321602 | 332462
21 | 73:52.63 | 3:37.68 | 332463 | 348805


Range status and errors

Selected range

Filename C:\ArlegZ\Vivaldi - Concerti per fagotto V - Sergio Azzolini.wav

Peak level 97.7 %
Extraction speed 2.1 X
Range quality 100.0 %
Test CRC AA597BFF
Copy CRC AA597BFF
Copy OK

No errors occurred


AccurateRip summary

Track 1 not present in database
Track 2 not present in database
Track 3 not present in database
Track 4 not present in database
Track 5 not present in database
Track 6 not present in database
Track 7 not present in database
Track 8 not present in database
Track 9 not present in database
Track 10 not present in database
Track 11 not present in database
Track 12 not present in database
Track 13 not present in database
Track 14 not present in database
Track 15 not present in database
Track 16 not present in database
Track 17 not present in database
Track 18 not present in database
Track 19 not present in database
Track 20 not present in database
Track 21 not present in database

None of the tracks are present in the AccurateRip database

End of status report

Sergio Azzolini, L'Onda Armonica - Antonio Vivaldi: Concerti per fagotto V (2021)