Tags
Language
Tags

Sergio Azzolini, l’Aura Soave Cremona - Antonio Vivaldi: Concerti Concerti per fagotto III (2013)

Posted By: ArlegZ
Sergio Azzolini, l’Aura Soave Cremona - Antonio Vivaldi: Concerti Concerti per fagotto III (2013)

Sergio Azzolini, l’Aura Soave Cremona - Antonio Vivaldi: Concerti Concerti per fagotto III (2013)
EAC | FLAC | Image (Cue & Log) ~ 333 Mb | Total time: 70:24 | Scans included
Classical | Label: Naïve | # OP30539 | Recorded: 2012

Like each of its two predecessors in Naive's bizarrely costumed, irresistible Vivaldi bassoon concertos series, Sergio Azzolini and his back to the future original instrument crew find beauties in the music written for the bassoon that defy gravity. Interleaved with the haunting minor key songs and harmonies are courtly B flat expressions of affection and pleasure. The recordings, made at the Church of the Madonna della Formigola, Cortifella Pieve, Brescia, are audiophile as always. The great notes by Sergio Azzolini are titled Mystery of the Bassoon. The bassoon is in fact the instrument assigned the largest number of solo concertos after those written for the violin, the composer's own instrument. There are 39 concertos for bassoon in the National Library of Turin, which means Naive and Azzolini are only just half way on their wonderful journey.
–Laurence Vittes, Hugginton Post

Performer:
Sergio Azzolini, fagotto
l’Aura Soave Cremona

Track List:
0Concerto RV 485 in F major
01. I. Allegro non molto
02. II. Andante
03. III. Allegro molto
Concerto RV 502 in B flat major
04. I. Allegro
05. II. Largo
06. III. [senza indicazione di tempo]
Concerto RV 474 in C major
07. I. Allegro
08. II. Largo
09. III. Allegro
Concerto RV 480 in C minor
10. I. Allegro
11. II. [senza indicazione di tempo]
12. III. Allegro
Concerto RV 494 in G major
13. I. Allegro
14. II. Largo
15. III. [senza indicazione di tempo]
Concerto RV 475 in C major
16. I. Allegro non molto
17. II. Adagio
18. III. Allegro non molto


Exact Audio Copy V1.3 from 2. September 2016

EAC extraction logfile from 18. January 2020, 17:00

Sergio Azzolini / Vivaldi - Concerti per fagotto III

Used drive : ATAPI iHAS124 F Adapter: 1 ID: 0

Read mode : Secure
Utilize accurate stream : Yes
Defeat audio cache : Yes
Make use of C2 pointers : No

Read offset correction : 6
Overread into Lead-In and Lead-Out : No
Fill up missing offset samples with silence : Yes
Delete leading and trailing silent blocks : No
Null samples used in CRC calculations : Yes
Used interface : Native Win32 interface for Win NT & 2000

Used output format : User Defined Encoder
Selected bitrate : 1024 kBit/s
Quality : High
Add ID3 tag : No
Command line compressor : C:\Program Files (x86)\Exact Audio Copy\FLAC\FLAC.EXE
Additional command line options : -6 -V -T "ARTIST=%artist%" -T "TITLE=%title%" -T "ALBUM=%albumtitle%" -T "DATE=%year%" -T "TRACKNUMBER=%tracknr%" -T "GENRE=%genre%" -T "COMMENT=%comment%" -T "BAND=%albuminterpret%" -T "ALBUMARTIST=%albuminterpret%" -T "COMPOSER=%composer%" %haslyrics%–tag-from-file=LYRICS="%lyricsfile%"%haslyrics% -T "DISCNUMBER=%cdnumber%" -T "TOTALDISCS=%totalcds%" -T "TOTALTRACKS=%numtracks%" %hascover%–picture="%coverfile%"%hascover% %source% -o %dest%


TOC of the extracted CD

Track | Start | Length | Start sector | End sector
––––––––––––––––––––––––––––-
1 | 0:00.00 | 4:57.30 | 0 | 22304
2 | 4:57.30 | 3:43.74 | 22305 | 39103
3 | 8:41.29 | 3:47.70 | 39104 | 56198
4 | 12:29.24 | 3:25.32 | 56199 | 71605
5 | 15:54.56 | 5:30.51 | 71606 | 96406
6 | 21:25.32 | 3:14.51 | 96407 | 111007
7 | 24:40.08 | 3:22.27 | 111008 | 126184
8 | 28:02.35 | 4:20.22 | 126185 | 145706
9 | 32:22.57 | 2:34.25 | 145707 | 157281
10 | 34:57.07 | 4:40.54 | 157282 | 178335
11 | 39:37.61 | 2:36.54 | 178336 | 190089
12 | 42:14.40 | 3:48.38 | 190090 | 207227
13 | 46:03.03 | 3:45.71 | 207228 | 224173
14 | 49:48.74 | 4:31.69 | 224174 | 244567
15 | 54:20.68 | 3:26.61 | 244568 | 260078
16 | 57:47.54 | 4:58.03 | 260079 | 282431
17 | 62:45.57 | 4:17.60 | 282432 | 301766
18 | 67:03.42 | 3:20.21 | 301767 | 316787


Range status and errors

Selected range

Filename C:\EACRip\RÓŻNE\Vivaldi - Concerti per fagotto III (Sergio Azzolini) (2012)\Vivaldi - Concerti per fagotto III - Sergio Azzolini.wav

Peak level 95.0 %
Extraction speed 8.8 X
Range quality 100.0 %
Test CRC AC81AEBE
Copy CRC AC81AEBE
Copy OK

No errors occurred


AccurateRip summary

Track 1 accurately ripped (confidence 34) [FAA5C4AF] (AR v2)
Track 2 accurately ripped (confidence 34) [9247A477] (AR v2)
Track 3 accurately ripped (confidence 34) [A8234434] (AR v2)
Track 4 accurately ripped (confidence 33) [17650EEF] (AR v2)
Track 5 accurately ripped (confidence 34) [2BDC613A] (AR v2)
Track 6 accurately ripped (confidence 34) [F0A6629C] (AR v2)
Track 7 accurately ripped (confidence 34) [3915FD39] (AR v2)
Track 8 accurately ripped (confidence 34) [DA35B28E] (AR v2)
Track 9 accurately ripped (confidence 34) [38A6920B] (AR v2)
Track 10 accurately ripped (confidence 34) [8FF6ECE1] (AR v2)
Track 11 accurately ripped (confidence 34) [2A4072B9] (AR v2)
Track 12 accurately ripped (confidence 34) [786CC809] (AR v2)
Track 13 accurately ripped (confidence 34) [2ED25073] (AR v2)
Track 14 accurately ripped (confidence 34) [BF33FBF6] (AR v2)
Track 15 accurately ripped (confidence 34) [B6B68A96] (AR v2)
Track 16 accurately ripped (confidence 34) [B2643144] (AR v2)
Track 17 accurately ripped (confidence 34) [F1060CA1] (AR v2)
Track 18 accurately ripped (confidence 34) [E228C6D1] (AR v2)

All tracks accurately ripped

End of status report

–– CUETools DB Plugin V2.1.6

[CTDB TOCID: NNb9zrMfj4Ncr40MZTUHxwb3jxM-] found
Submit result: NNb9zrMfj4Ncr40MZTUHxwb3jxM- has been confirmed
Track | CTDB Status
1 | (45/45) Accurately ripped
2 | (45/45) Accurately ripped
3 | (45/45) Accurately ripped
4 | (44/45) Accurately ripped
5 | (45/45) Accurately ripped
6 | (45/45) Accurately ripped
7 | (45/45) Accurately ripped
8 | (45/45) Accurately ripped
9 | (45/45) Accurately ripped
10 | (45/45) Accurately ripped
11 | (45/45) Accurately ripped
12 | (45/45) Accurately ripped
13 | (45/45) Accurately ripped
14 | (45/45) Accurately ripped
15 | (45/45) Accurately ripped
16 | (45/45) Accurately ripped
17 | (45/45) Accurately ripped
18 | (45/45) Accurately ripped


==== Log checksum BAF4411AEA98C85DD2A322B5F8BD199407D9D98A0B76B80C473A085F7705491B ====

Sergio Azzolini, l’Aura Soave Cremona - Antonio Vivaldi: Concerti Concerti per fagotto III (2013)

Thanks to the original releaser