Tags
Language
Tags

Seven Steps To The Green Door - 3 Studio Albums (2008-2015)

Posted By: gribovar
Seven Steps To The Green Door - 3 Studio Albums (2008-2015)

Seven Steps To The Green Door - 3 Studio Albums (2008-2015)
EAC Rip | FLAC (tracks+.cue+log) - 1,37 GB | MP3 CBR 320 kbps (LAME 3.93) - 517 MB | Covers included
Genre: Neo-Progressive Rock | RAR 3% Rec. | Label: ProgRock Records, Progressive Promotion Records

German band Seven Steps To The Green Door was formed in 2004 by keyboardist and saxophonist Marek Arnold (Toxic Smile, UPF, Flaming Row, Cyril) and drummer Ulf Reinhardt. They released their debut album "The Puzzle" in 2006, a production that saw them awarded the 1st prize in two different categories at the German Rock and Pop Awards.
Their second album "Step in 2 My World" was released in 2008, a production where the band explored more in depth the use of poly-rhythmic sounds, complex vocal harmonies and jazz-oriented instrument details in their compositions, but also an album with room for compelling compositions with more of a ballad-oriented expression. Three years later their third CD "The? Book" appeared, a concept album that again was met with critical acclaim. The band also released an interactive game based on the album's theme for the iOS operating system.
Their most recent production, "Fetish", was released in 2015, with contributions from guest artists such as Arno Menses (Subsignal) and Steve Unruh (Resistor, UPF).

Seven Steps To The Green Door - 3 Studio Albums (2008-2015)

Seven Steps To The Green Door - Step In 2 My World (2008)
EAC Rip | FLAC (tracks+.cue+log) - 431 MB | MP3 CBR 320 kbps (LAME 3.93) - 170 MB | Covers (15 MB) included
Genre: Neo-Progressive Rock | RAR 3% Rec. | Label: ProgRock Records (PRR590)

Tracklist:
01. New Rising
02. Stay Beside
03. Step Into My World
04. Melissa
05. My Lovely Mr. Singong Club
06. Attract Me
07. Paid for Flance
08. Moon Talks to Me
09. Rishing Shore
10. Closer
11. Out of Clouds
12. Making Of

Total time: 01:05:47

Exact Audio Copy V1.3 from 2. September 2016

EAC extraction logfile from 13. June 2017, 10:35

Seven Steps To The Green Door / Step In 2 My World

Used drive : HL-DT-STDVDRAM GUC0N Adapter: 1 ID: 0

Read mode : Secure
Utilize accurate stream : Yes
Defeat audio cache : Yes
Make use of C2 pointers : No

Read offset correction : 6
Overread into Lead-In and Lead-Out : No
Fill up missing offset samples with silence : Yes
Delete leading and trailing silent blocks : No
Null samples used in CRC calculations : Yes
Used interface : Native Win32 interface for Win NT & 2000
Gap handling : Appended to previous track

Used output format : User Defined Encoder
Selected bitrate : 1024 kBit/s
Quality : High
Add ID3 tag : No
Command line compressor : C:\Program Files (x86)\Exact Audio Copy\Flac\flac.exe
Additional command line options : -8 -V -T "ARTIST=%artist%" -T "TITLE=%title%" -T "ALBUM=%albumtitle%" -T "DATE=%year%" -T "TRACKNUMBER=%tracknr%" -T "TOTALTRACKS=%numtracks%" -T "GENRE=%genre%" -T "ALBUMARTIST=%albumartist%" -T "ALBUM ARTIST=%albumartist%" -T "COMMENT=EAC Secure Mode, Test & Copy, AccurateRip, FLAC -8" %source%


TOC of the extracted CD

Track | Start | Length | Start sector | End sector
––––––––––––––––––––––––––––-
1 | 0:00.00 | 5:55.40 | 0 | 26664
2 | 5:55.40 | 6:01.24 | 26665 | 53763
3 | 11:56.64 | 5:44.44 | 53764 | 79607
4 | 17:41.33 | 3:58.58 | 79608 | 97515
5 | 21:40.16 | 2:53.47 | 97516 | 110537
6 | 24:33.63 | 5:31.58 | 110538 | 135420
7 | 30:05.46 | 7:26.19 | 135421 | 168889
8 | 37:31.65 | 7:53.28 | 168890 | 204392
9 | 45:25.18 | 6:04.62 | 204393 | 231754
10 | 51:30.05 | 7:45.61 | 231755 | 266690
11 | 59:15.66 | 5:07.02 | 266691 | 289717
12 | 64:22.68 | 1:24.23 | 289718 | 296040


Track 1

Filename D:\My RIPS\SEVEN STEPS TO THE GREEN DOOR - COLECTION\2. SEVEN STEPS TO THE GREEN DOOR - Step In 2 My World\01 - New Rising.wav

Pre-gap length 0:00:02.00

Peak level 98.8 %
Extraction speed 1.1 X
Track quality 99.9 %
Test CRC B6865A42
Copy CRC B6865A42
Accurately ripped (confidence 7) [E99D4556] (AR v2)
Copy OK

Track 2

Filename D:\My RIPS\SEVEN STEPS TO THE GREEN DOOR - COLECTION\2. SEVEN STEPS TO THE GREEN DOOR - Step In 2 My World\02 - Stay Beside.wav

Peak level 98.8 %
Extraction speed 1.4 X
Track quality 100.0 %
Test CRC F9F8306A
Copy CRC F9F8306A
Accurately ripped (confidence 7) [4AD0926F] (AR v2)
Copy OK

Track 3

Filename D:\My RIPS\SEVEN STEPS TO THE GREEN DOOR - COLECTION\2. SEVEN STEPS TO THE GREEN DOOR - Step In 2 My World\03 - Step Into My World.wav

Peak level 98.8 %
Extraction speed 1.4 X
Track quality 99.9 %
Test CRC A54B8827
Copy CRC A54B8827
Accurately ripped (confidence 7) [4A8782F6] (AR v2)
Copy OK

Track 4

Filename D:\My RIPS\SEVEN STEPS TO THE GREEN DOOR - COLECTION\2. SEVEN STEPS TO THE GREEN DOOR - Step In 2 My World\04 - Melissa.wav

Peak level 98.8 %
Extraction speed 1.6 X
Track quality 100.0 %
Test CRC 42A3A02A
Copy CRC 42A3A02A
Accurately ripped (confidence 7) [5BB61649] (AR v2)
Copy OK

Track 5

Filename D:\My RIPS\SEVEN STEPS TO THE GREEN DOOR - COLECTION\2. SEVEN STEPS TO THE GREEN DOOR - Step In 2 My World\05 - My Lovely Mr. Singing Club.wav

Peak level 98.8 %
Extraction speed 1.4 X
Track quality 99.9 %
Test CRC FC245851
Copy CRC FC245851
Accurately ripped (confidence 7) [2F6C7333] (AR v2)
Copy OK

Track 6

Filename D:\My RIPS\SEVEN STEPS TO THE GREEN DOOR - COLECTION\2. SEVEN STEPS TO THE GREEN DOOR - Step In 2 My World\06 - Attract Me.wav

Peak level 98.8 %
Extraction speed 1.9 X
Track quality 100.0 %
Test CRC 4EDBE97D
Copy CRC 4EDBE97D
Accurately ripped (confidence 7) [A1F9F5BE] (AR v2)
Copy OK

Track 7

Filename D:\My RIPS\SEVEN STEPS TO THE GREEN DOOR - COLECTION\2. SEVEN STEPS TO THE GREEN DOOR - Step In 2 My World\07 - Paid For Glance.wav

Peak level 98.8 %
Extraction speed 2.0 X
Track quality 100.0 %
Test CRC 7A70DF69
Copy CRC 7A70DF69
Accurately ripped (confidence 7) [05AC0073] (AR v2)
Copy OK

Track 8

Filename D:\My RIPS\SEVEN STEPS TO THE GREEN DOOR - COLECTION\2. SEVEN STEPS TO THE GREEN DOOR - Step In 2 My World\08 - Moon Talks To Me.wav

Peak level 98.8 %
Extraction speed 2.2 X
Track quality 100.0 %
Test CRC 6EBB1B26
Copy CRC 6EBB1B26
Accurately ripped (confidence 7) [C8712A15] (AR v2)
Copy OK

Track 9

Filename D:\My RIPS\SEVEN STEPS TO THE GREEN DOOR - COLECTION\2. SEVEN STEPS TO THE GREEN DOOR - Step In 2 My World\09 - Rising Shore.wav

Peak level 98.8 %
Extraction speed 2.3 X
Track quality 100.0 %
Test CRC 3309B4FF
Copy CRC 3309B4FF
Accurately ripped (confidence 7) [FF179CD0] (AR v2)
Copy OK

Track 10

Filename D:\My RIPS\SEVEN STEPS TO THE GREEN DOOR - COLECTION\2. SEVEN STEPS TO THE GREEN DOOR - Step In 2 My World\10 - Closer.wav

Peak level 98.8 %
Extraction speed 2.4 X
Track quality 100.0 %
Test CRC 630110CD
Copy CRC 630110CD
Accurately ripped (confidence 6) [DCE528C8] (AR v2)
Copy OK

Track 11

Filename D:\My RIPS\SEVEN STEPS TO THE GREEN DOOR - COLECTION\2. SEVEN STEPS TO THE GREEN DOOR - Step In 2 My World\11 - Out Of Clouds.wav

Pre-gap length 0:00:08.71

Peak level 98.8 %
Extraction speed 2.5 X
Track quality 100.0 %
Test CRC 04A70A18
Copy CRC 04A70A18
Accurately ripped (confidence 7) [7E13A530] (AR v2)
Copy OK

Track 12

Filename D:\My RIPS\SEVEN STEPS TO THE GREEN DOOR - COLECTION\2. SEVEN STEPS TO THE GREEN DOOR - Step In 2 My World\12 - Making Of.wav

Peak level 98.8 %
Extraction speed 1.5 X
Track quality 99.8 %
Test CRC 212CFFA2
Copy CRC 212CFFA2
Accurately ripped (confidence 7) [DCB89A3E] (AR v2)
Copy OK


All tracks accurately ripped

No errors occurred

End of status report

–– CUETools DB Plugin V2.1.6

[CTDB TOCID: cUTEW4teypMIad5Nq19eKlUYmsQ-] found
Submit result: cUTEW4teypMIad5Nq19eKlUYmsQ- has been confirmed
Track | CTDB Status
1 | (13/13) Accurately ripped
2 | (13/13) Accurately ripped
3 | (13/13) Accurately ripped
4 | (13/13) Accurately ripped
5 | (13/13) Accurately ripped
6 | (13/13) Accurately ripped
7 | (13/13) Accurately ripped
8 | (13/13) Accurately ripped
9 | (13/13) Accurately ripped
10 | (13/13) Accurately ripped
11 | (13/13) Accurately ripped
12 | (13/13) Accurately ripped


==== Log checksum 74A2B9472F9124797BA09A5961DE56B5F0A6538E45C0F28942C5ED9C60E6EE68 ====

[CUETools log; Date: 16.07.2017 16:22:06; Version: 2.1.4]
[CTDB TOCID: cUTEW4teypMIad5Nq19eKlUYmsQ-] found.
Track | CTDB Status
1 | (14/14) Accurately ripped
2 | (14/14) Accurately ripped
3 | (14/14) Accurately ripped
4 | (14/14) Accurately ripped
5 | (14/14) Accurately ripped
6 | (14/14) Accurately ripped
7 | (14/14) Accurately ripped
8 | (14/14) Accurately ripped
9 | (14/14) Accurately ripped
10 | (14/14) Accurately ripped
11 | (14/14) Accurately ripped
12 | (14/14) Accurately ripped
[AccurateRip ID: 001dec28-0118be2f-a70f6b0c] found.
Track [ CRC | V2 ] Status
01 [fe4ea678|e99d4556] (07+08/15) Accurately ripped
02 [85f9d5c2|4ad0926f] (07+08/15) Accurately ripped
03 [c1e3891b|4a8782f6] (07+08/15) Accurately ripped
04 [98e0f525|5bb61649] (07+08/15) Accurately ripped
05 [517c5942|2f6c7333] (07+08/15) Accurately ripped
06 [cc608210|a1f9f5be] (07+08/15) Accurately ripped
07 [db12866a|05ac0073] (07+08/15) Accurately ripped
08 [96b1aae0|c8712a15] (07+08/15) Accurately ripped
09 [dd468883|ff179cd0] (07+08/15) Accurately ripped
10 [441a136b|dce528c8] (07+07/14) Accurately ripped
11 [82263eb7|7e13a530] (07+08/15) Accurately ripped
12 [303e8c4b|dcb89a3e] (07+08/15) Accurately ripped

Track Peak [ CRC32 ] [W/O NULL] [ LOG ]
– 98,8 [6BAB8AE4] [EEE40B26]
01 98,8 [B6865A42] [71FBEF12] CRC32
02 98,8 [F9F8306A] [CEF51E64] CRC32
03 98,8 [A54B8827] [151E11A1] CRC32
04 98,8 [42A3A02A] [C3FC3EC2] CRC32
05 98,8 [FC245851] [C436E474] CRC32
06 98,8 [4EDBE97D] [DFD13153] CRC32
07 98,8 [7A70DF69] [FA80A27D] CRC32
08 98,8 [6EBB1B26] [0CF9EBCE] CRC32
09 98,8 [3309B4FF] [444A0A0D] CRC32
10 98,8 [630110CD] [4B5715AE] CRC32
11 98,8 [04A70A18] [C159A851] CRC32
12 98,8 [212CFFA2] [E3187D15] CRC32

Seven Steps To The Green Door - 3 Studio Albums (2008-2015)

Seven Steps To The Green Door - The? Book (2011)
EAC Rip | FLAC (tracks+.cue+log) - 407 MB | MP3 CBR 320 kbps (LAME 3.93) - 158 MB | Covers (9 MB) included
Genre: Neo-Progressive Rock | RAR 3% Rec. | Label: Progressive Promotion Records (PPR CD 006)

Tracklist:
01. Prologue (A Man And The Book)
02. The Empty Room / The Realization
03. The Crying Child (1st Nail)
04. The Healing Wonder (2nd Nail)
05. The Dividing Water (3rd Nail)
06. The Last Supper (4th Nail)
07. The Eternal Abstinence (5th Nail)
08. The Deadly Crucifixion (dedicated to Anna Seghers out of gratitude for "The Seventh Cross")
09. The Green Door - Looking For The Last Solution
10. Epilogue (A Bird And The Book)

Total time: 01:03:19

Exact Audio Copy V1.3 from 2. September 2016

EAC extraction logfile from 13. June 2017, 12:41

Seven Steps to the green Door / The ? Book

Used drive : HL-DT-STDVDRAM GUC0N Adapter: 1 ID: 0

Read mode : Secure
Utilize accurate stream : Yes
Defeat audio cache : Yes
Make use of C2 pointers : No

Read offset correction : 6
Overread into Lead-In and Lead-Out : No
Fill up missing offset samples with silence : Yes
Delete leading and trailing silent blocks : No
Null samples used in CRC calculations : Yes
Used interface : Native Win32 interface for Win NT & 2000
Gap handling : Appended to previous track

Used output format : User Defined Encoder
Selected bitrate : 1024 kBit/s
Quality : High
Add ID3 tag : No
Command line compressor : C:\Program Files (x86)\Exact Audio Copy\Flac\flac.exe
Additional command line options : -8 -V -T "ARTIST=%artist%" -T "TITLE=%title%" -T "ALBUM=%albumtitle%" -T "DATE=%year%" -T "TRACKNUMBER=%tracknr%" -T "TOTALTRACKS=%numtracks%" -T "GENRE=%genre%" -T "ALBUMARTIST=%albumartist%" -T "ALBUM ARTIST=%albumartist%" -T "COMMENT=EAC Secure Mode, Test & Copy, AccurateRip, FLAC -8" %source%


TOC of the extracted CD

Track | Start | Length | Start sector | End sector
––––––––––––––––––––––––––––-
1 | 0:00.00 | 4:19.33 | 0 | 19457
2 | 4:19.33 | 6:04.02 | 19458 | 46759
3 | 10:23.35 | 3:47.32 | 46760 | 63816
4 | 14:10.67 | 5:55.06 | 63817 | 90447
5 | 20:05.73 | 8:20.63 | 90448 | 128010
6 | 28:26.61 | 4:26.48 | 128011 | 148008
7 | 32:53.34 | 8:06.33 | 148009 | 184491
8 | 40:59.67 | 6:46.56 | 184492 | 214997
9 | 47:46.48 | 9:52.04 | 214998 | 259401
10 | 57:38.52 | 5:40.24 | 259402 | 284925


Track 1

Filename D:\My RIPS\SEVEN STEPS TO THE GREEN DOOR - COLECTION\3. SEVEN STEPS TO THE GREEN DOOR - TheBook\01 - Seven Steps to the green Door - Prologue (A Man anf the Book).wav

Pre-gap length 0:00:02.00

Peak level 97.6 %
Extraction speed 1.2 X
Track quality 100.0 %
Test CRC F88C0CBB
Copy CRC F88C0CBB
Accurately ripped (confidence 7) [07B1088C] (AR v2)
Copy OK

Track 2

Filename D:\My RIPS\SEVEN STEPS TO THE GREEN DOOR - COLECTION\3. SEVEN STEPS TO THE GREEN DOOR - TheBook\02 - The empty Room - The Realization.wav

Pre-gap length 0:00:07.74

Peak level 97.6 %
Extraction speed 1.4 X
Track quality 100.0 %
Test CRC 0EF7FD1F
Copy CRC 0EF7FD1F
Accurately ripped (confidence 6) [8446C0DB] (AR v2)
Copy OK

Track 3

Filename D:\My RIPS\SEVEN STEPS TO THE GREEN DOOR - COLECTION\3. SEVEN STEPS TO THE GREEN DOOR - TheBook\03 - Seven Steps to the green Door - The crying Child (1st Nail).wav

Pre-gap length 0:00:07.73

Peak level 97.6 %
Extraction speed 1.3 X
Track quality 99.9 %
Test CRC 59596F53
Copy CRC 59596F53
Accurately ripped (confidence 7) [D70CCA9A] (AR v2)
Copy OK

Track 4

Filename D:\My RIPS\SEVEN STEPS TO THE GREEN DOOR - COLECTION\3. SEVEN STEPS TO THE GREEN DOOR - TheBook\04 - Seven Steps to the green Door - The healing Wonder (2nd Nail).wav

Pre-gap length 0:00:07.70

Peak level 97.6 %
Extraction speed 1.7 X
Track quality 100.0 %
Test CRC F8C8798F
Copy CRC F8C8798F
Accurately ripped (confidence 7) [B4A316B2] (AR v2)
Copy OK

Track 5

Filename D:\My RIPS\SEVEN STEPS TO THE GREEN DOOR - COLECTION\3. SEVEN STEPS TO THE GREEN DOOR - TheBook\05 - Seven Steps to the green Door - The dividing Water (3rd Nail).wav

Pre-gap length 0:00:07.70

Peak level 97.6 %
Extraction speed 1.9 X
Track quality 100.0 %
Test CRC 9367365B
Copy CRC 9367365B
Accurately ripped (confidence 8) [DAEE5482] (AR v2)
Copy OK

Track 6

Filename D:\My RIPS\SEVEN STEPS TO THE GREEN DOOR - COLECTION\3. SEVEN STEPS TO THE GREEN DOOR - TheBook\06 - Seven Steps to the green Door - The last Supper (4th Nail).wav

Peak level 97.6 %
Extraction speed 1.9 X
Track quality 100.0 %
Test CRC B6C151D9
Copy CRC B6C151D9
Accurately ripped (confidence 7) [E58BF88A] (AR v2)
Copy OK

Track 7

Filename D:\My RIPS\SEVEN STEPS TO THE GREEN DOOR - COLECTION\3. SEVEN STEPS TO THE GREEN DOOR - TheBook\07 - Seven Steps to the green Door - The eternal Abstinence (5th Nail).wav

Pre-gap length 0:00:07.69

Peak level 97.6 %
Extraction speed 2.1 X
Track quality 100.0 %
Test CRC F7D5D877
Copy CRC F7D5D877
Accurately ripped (confidence 7) [F80EC6C3] (AR v2)
Copy OK

Track 8

Filename D:\My RIPS\SEVEN STEPS TO THE GREEN DOOR - COLECTION\3. SEVEN STEPS TO THE GREEN DOOR - TheBook\08 - Seven Steps to the green Door - The deadly Crucifixion.wav

Pre-gap length 0:00:07.73

Peak level 97.6 %
Extraction speed 2.3 X
Track quality 100.0 %
Test CRC 7D9E959B
Copy CRC 7D9E959B
Accurately ripped (confidence 7) [2715ED44] (AR v2)
Copy OK

Track 9

Filename D:\My RIPS\SEVEN STEPS TO THE GREEN DOOR - COLECTION\3. SEVEN STEPS TO THE GREEN DOOR - TheBook\09 - Seven Steps to the green Door - The green Door.wav

Pre-gap length 0:00:07.73

Peak level 97.6 %
Extraction speed 2.5 X
Track quality 100.0 %
Test CRC 543146A6
Copy CRC 543146A6
Accurately ripped (confidence 7) [F5EABDFE] (AR v2)
Copy OK

Track 10

Filename D:\My RIPS\SEVEN STEPS TO THE GREEN DOOR - COLECTION\3. SEVEN STEPS TO THE GREEN DOOR - TheBook\10 - Seven Steps to the green Door - Epilogue (A Bird and the Book).wav

Pre-gap length 0:00:07.72

Peak level 97.6 %
Extraction speed 2.3 X
Track quality 99.9 %
Test CRC 981480E5
Copy CRC 981480E5
Accurately ripped (confidence 8) [84A218DB] (AR v2)
Copy OK


All tracks accurately ripped

No errors occurred

End of status report

–– CUETools DB Plugin V2.1.6

[CTDB TOCID: WNaNlHDGCAS_aGV4x4d066pS2mg-] found
Submit result: WNaNlHDGCAS_aGV4x4d066pS2mg- has been confirmed
Track | CTDB Status
1 | (9/9) Accurately ripped
2 | (9/9) Accurately ripped
3 | (9/9) Accurately ripped
4 | (9/9) Accurately ripped
5 | (9/9) Accurately ripped
6 | (9/9) Accurately ripped
7 | (9/9) Accurately ripped
8 | (9/9) Accurately ripped
9 | (9/9) Accurately ripped
10 | (9/9) Accurately ripped


==== Log checksum 93B6E2F31EE7E4BD0B0ED0F45A2C6D5BF64D282ADF910A133A9E9137817B9C7C ====

[CUETools log; Date: 16.07.2017 16:22:54; Version: 2.1.4]
[CTDB TOCID: WNaNlHDGCAS_aGV4x4d066pS2mg-] found.
Track | CTDB Status
1 | (10/10) Accurately ripped
2 | (10/10) Accurately ripped
3 | (10/10) Accurately ripped
4 | (10/10) Accurately ripped
5 | (10/10) Accurately ripped
6 | (10/10) Accurately ripped
7 | (10/10) Accurately ripped
8 | (10/10) Accurately ripped
9 | (10/10) Accurately ripped
10 | (10/10) Accurately ripped
[AccurateRip ID: 0015fa41-00b482c6-890ed70a] found.
Track [ CRC | V2 ] Status
01 [98bf5a38|07b1088c] (05+07/12) Accurately ripped
02 [ccb1a0a1|8446c0db] (05+06/11) Accurately ripped
03 [c8280f00|d70cca9a] (05+07/12) Accurately ripped
04 [60796ad1|b4a316b2] (05+07/12) Accurately ripped
05 [d65a6469|daee5482] (05+08/13) Accurately ripped
06 [d2f4eed8|e58bf88a] (05+07/12) Accurately ripped
07 [043f1abb|f80ec6c3] (04+07/11) Accurately ripped
08 [669085eb|2715ed44] (05+07/12) Accurately ripped
09 [192e9985|f5eabdfe] (04+07/11) Accurately ripped
10 [49e6eedd|84a218db] (05+08/13) Accurately ripped

Track Peak [ CRC32 ] [W/O NULL] [ LOG ]
– 97,6 [D0575614] [913EAE6C]
01 97,6 [F88C0CBB] [A75D324E] CRC32
02 97,6 [0EF7FD1F] [DE781FEC] CRC32
03 97,6 [59596F53] [76896731] CRC32
04 97,6 [F8C8798F] [644BD803] CRC32
05 97,6 [9367365B] [90A5C224] CRC32
06 97,6 [B6C151D9] [6A273F3B] CRC32
07 97,6 [F7D5D877] [F10CDE1C] CRC32
08 97,6 [7D9E959B] [8DB40EA1] CRC32
09 97,6 [543146A6] [529E54F2] CRC32
10 97,6 [981480E5] [6FFF07F6] CRC32

Seven Steps To The Green Door - 3 Studio Albums (2008-2015)

Seven Steps To The Green Door - Fetish (2015)
EAC Rip | FLAC (tracks+.cue+log) - 538 MB | MP3 CBR 320 kbps (LAME 3.93) - 189 MB | Covers (4 MB) included
Genre: Neo-Progressive Rock | RAR 3% Rec. | Label: Progressive Promotion Records (PPR CD 030)

Tracklist:
01. Possible Delayed
02. PORN!
03. Still Searching
04. Inferior
05. Imprisoned
06. Bound in Chains
07. Last Lullaby
08. Set in Motion
09. Ordinary Maniac

Total time: 01:18:18

Exact Audio Copy V1.3 from 2. September 2016

EAC extraction logfile from 13. June 2017, 14:23

Seven Steps To The Green Door / Fetish

Used drive : HL-DT-STDVDRAM GUC0N Adapter: 1 ID: 0

Read mode : Secure
Utilize accurate stream : Yes
Defeat audio cache : Yes
Make use of C2 pointers : No

Read offset correction : 6
Overread into Lead-In and Lead-Out : No
Fill up missing offset samples with silence : Yes
Delete leading and trailing silent blocks : No
Null samples used in CRC calculations : Yes
Used interface : Native Win32 interface for Win NT & 2000
Gap handling : Appended to previous track

Used output format : User Defined Encoder
Selected bitrate : 1024 kBit/s
Quality : High
Add ID3 tag : No
Command line compressor : C:\Program Files (x86)\Exact Audio Copy\Flac\flac.exe
Additional command line options : -8 -V -T "ARTIST=%artist%" -T "TITLE=%title%" -T "ALBUM=%albumtitle%" -T "DATE=%year%" -T "TRACKNUMBER=%tracknr%" -T "TOTALTRACKS=%numtracks%" -T "GENRE=%genre%" -T "ALBUMARTIST=%albumartist%" -T "ALBUM ARTIST=%albumartist%" -T "COMMENT=EAC Secure Mode, Test & Copy, AccurateRip, FLAC -8" %source%


TOC of the extracted CD

Track | Start | Length | Start sector | End sector
––––––––––––––––––––––––––––-
1 | 0:00.00 | 0:38.41 | 0 | 2890
2 | 0:38.41 | 8:50.27 | 2891 | 42667
3 | 9:28.68 | 9:54.41 | 42668 | 87258
4 | 19:23.34 | 7:03.19 | 87259 | 119002
5 | 26:26.53 | 9:07.46 | 119003 | 160073
6 | 35:34.24 | 8:53.29 | 160074 | 200077
7 | 44:27.53 | 9:01.21 | 200078 | 240673
8 | 53:28.74 | 8:39.04 | 240674 | 279602
9 | 62:08.03 | 16:10.12 | 279603 | 352364


Track 1

Filename D:\My RIPS\SEVEN STEPS TO THE GREEN DOOR - COLECTION\4. SEVEN STEPS TO THE GREEN DOOR - FETTISH\01 - Possible Delayed.wav

Pre-gap length 0:00:02.00

Peak level 43.1 %
Extraction speed 0.7 X
Track quality 100.0 %
Test CRC 5D0EEFE7
Copy CRC 5D0EEFE7
Accurately ripped (confidence 6) [D1E2A75A] (AR v2)
Copy OK

Track 2

Filename D:\My RIPS\SEVEN STEPS TO THE GREEN DOOR - COLECTION\4. SEVEN STEPS TO THE GREEN DOOR - FETTISH\02 - Porn!.wav

Peak level 98.8 %
Extraction speed 1.5 X
Track quality 100.0 %
Test CRC AE4C6570
Copy CRC AE4C6570
Accurately ripped (confidence 6) [96FE8426] (AR v2)
Copy OK

Track 3

Filename D:\My RIPS\SEVEN STEPS TO THE GREEN DOOR - COLECTION\4. SEVEN STEPS TO THE GREEN DOOR - FETTISH\03 - Still Searching.wav

Peak level 98.8 %
Extraction speed 1.8 X
Track quality 100.0 %
Test CRC D17590FC
Copy CRC D17590FC
Accurately ripped (confidence 6) [0841B4B8] (AR v2)
Copy OK

Track 4

Filename D:\My RIPS\SEVEN STEPS TO THE GREEN DOOR - COLECTION\4. SEVEN STEPS TO THE GREEN DOOR - FETTISH\04 - Inferior.wav

Peak level 98.8 %
Extraction speed 2.0 X
Track quality 100.0 %
Test CRC 917AC9A0
Copy CRC 917AC9A0
Accurately ripped (confidence 6) [E16EE3DF] (AR v2)
Copy OK

Track 5

Filename D:\My RIPS\SEVEN STEPS TO THE GREEN DOOR - COLECTION\4. SEVEN STEPS TO THE GREEN DOOR - FETTISH\05 - Imprisoned.wav

Peak level 98.8 %
Extraction speed 2.2 X
Track quality 100.0 %
Test CRC 3DD02CE0
Copy CRC 3DD02CE0
Accurately ripped (confidence 6) [1B891FB2] (AR v2)
Copy OK

Track 6

Filename D:\My RIPS\SEVEN STEPS TO THE GREEN DOOR - COLECTION\4. SEVEN STEPS TO THE GREEN DOOR - FETTISH\06 - Bound In Chains.wav

Peak level 98.8 %
Extraction speed 2.4 X
Track quality 100.0 %
Test CRC C6C7BF42
Copy CRC C6C7BF42
Accurately ripped (confidence 6) [D27110C7] (AR v2)
Copy OK

Track 7

Filename D:\My RIPS\SEVEN STEPS TO THE GREEN DOOR - COLECTION\4. SEVEN STEPS TO THE GREEN DOOR - FETTISH\07 - Last Lullaby.wav

Peak level 98.8 %
Extraction speed 2.5 X
Track quality 100.0 %
Test CRC A8B04B40
Copy CRC A8B04B40
Accurately ripped (confidence 6) [D320CEB6] (AR v2)
Copy OK

Track 8

Filename D:\My RIPS\SEVEN STEPS TO THE GREEN DOOR - COLECTION\4. SEVEN STEPS TO THE GREEN DOOR - FETTISH\08 - Set In Motion.wav

Peak level 98.8 %
Extraction speed 2.7 X
Track quality 100.0 %
Test CRC 27F20698
Copy CRC 27F20698
Accurately ripped (confidence 6) [6F9E744A] (AR v2)
Copy OK

Track 9

Filename D:\My RIPS\SEVEN STEPS TO THE GREEN DOOR - COLECTION\4. SEVEN STEPS TO THE GREEN DOOR - FETTISH\09 - Ordinary Maniac.wav

Peak level 98.8 %
Extraction speed 3.0 X
Track quality 100.0 %
Test CRC 50A5F44E
Copy CRC 50A5F44E
Accurately ripped (confidence 6) [58F9126F] (AR v2)
Copy OK


All tracks accurately ripped

No errors occurred

End of status report

–– CUETools DB Plugin V2.1.6

[CTDB TOCID: bWRJtEwuMKRAC9Q6mZLXNrczcqE-] found
Submit result: bWRJtEwuMKRAC9Q6mZLXNrczcqE- has been confirmed
Track | CTDB Status
1 | (22/22) Accurately ripped
2 | (22/22) Accurately ripped
3 | (22/22) Accurately ripped
4 | (22/22) Accurately ripped
5 | (22/22) Accurately ripped
6 | (22/22) Accurately ripped
7 | (22/22) Accurately ripped
8 | (22/22) Accurately ripped
9 | (22/22) Accurately ripped


==== Log checksum F9B5CEFEA3BB7AE610B47F8F027AA863D2ED233D08A42A875FD72F60C9163B5C ====

[CUETools log; Date: 16.07.2017 16:24:16; Version: 2.1.4]
[CTDB TOCID: bWRJtEwuMKRAC9Q6mZLXNrczcqE-] found.
Track | CTDB Status
1 | (23/23) Accurately ripped
2 | (23/23) Accurately ripped
3 | (23/23) Accurately ripped
4 | (23/23) Accurately ripped
5 | (23/23) Accurately ripped
6 | (23/23) Accurately ripped
7 | (23/23) Accurately ripped
8 | (23/23) Accurately ripped
9 | (23/23) Accurately ripped
[AccurateRip ID: 0016a747-00ae0409-6b125a09] found.
Track [ CRC | V2 ] Status
01 [68ed263d|d1e2a75a] (0+6/6) Accurately ripped
02 [fc9c95be|96fe8426] (0+6/6) Accurately ripped
03 [83838771|0841b4b8] (0+6/6) Accurately ripped
04 [411e03dc|e16ee3df] (0+6/6) Accurately ripped
05 [932694f2|1b891fb2] (0+6/6) Accurately ripped
06 [7132104e|d27110c7] (0+6/6) Accurately ripped
07 [a44c12e7|d320ceb6] (0+6/6) Accurately ripped
08 [7f7f6ce6|6f9e744a] (0+6/6) Accurately ripped
09 [9b8748e7|58f9126f] (0+6/6) Accurately ripped

Track Peak [ CRC32 ] [W/O NULL] [ LOG ]
– 98,8 [B6624A9E] [29C158D1]
01 43,1 [5D0EEFE7] [95C0476F] CRC32
02 98,8 [AE4C6570] [9516D528] CRC32
03 98,8 [D17590FC] [D31A17A1] CRC32
04 98,8 [917AC9A0] [E12D7D8B] CRC32
05 98,8 [3DD02CE0] [84F56A9C] CRC32
06 98,8 [C6C7BF42] [7ADECC8F] CRC32
07 98,8 [A8B04B40] [EA4440EB] CRC32
08 98,8 [27F20698] [121CCC11] CRC32
09 98,8 [50A5F44E] [395D2B94] CRC32

Thanks to ggeorgi59