Subcategories

Shake Stew - Gris Gris (2019) [2CDs] {Traumton Musikverlag Records}

Posted By: tiburon
Shake Stew - Gris Gris (2019) [2CDs] {Traumton Musikverlag Records}

Shake Stew - Gris Gris (2019) [2CDs] {Traumton Musikverlag Records}
EAC 1.0b4 | FLAC tracks level 8 | Cue+Log+M3U | Full Scans 600dpi | 680MB + 5% Recovery
MP3 CBR 320 Kbps | 224MB + 5% Recovery
Genre: Avant-Garde Jazz, Free Improvisation
Shake Stew - Gris Gris (2019) [2CDs] {Traumton Musikverlag Records}

This seemingly unbalanced band - two drummers, two bassists, three horns - founded by opera-writing polymath Lukas Kranzelbinder have forged a fierce reputation for sprawling sets that nod to the '60s spiritual Jazz of Alice Coltrane and Pharoah Sanders undercut with Sons of Kemet's interlocking rhythm fluidity. If those parallels are apparent amid the full force of I Can Feel The Heat Closing In and slow-burning, spectral progressions of So He Spoke, the 19-minute Grilling Crickets in a Straw Hut is different level, as guesting guitarist Tobias Hoffmann and flute-wielding resident Johannes Schleiermacher soar above Kranzelbinder's boombastically grooving guembri.
Able to blind you into a trance and make you dance to your knees, Gris Gris twists, blisters and burns like a fevered dream.
Track List

CD1
1. I Can Feel The Heat Closing In. 13:05
2. You Struggle You Strive. 8:14
3. You Let Go You Fly. 8:19
4. Keep Walkin. 7:35

CD2
1. No More Silence Part I. 8:35
2. No More Silence Part II. 5:40
3. So He Spoke. 12:42
4. Grilling Crickets in a Straw Hut Part I. 10:59
5. Grilling Crickets in a Straw Hut Part II. 22:33

musicians
Lukas Kranzelbinder - Double Bass, E-Bass, Guembri, Shaker, Bandleader
Clemens Salesny - Alto Saxophone, Stritch, Opera Gong, Flexatone
Johannes Schleiermacher - Tenor Saxophone, Flute
Mario Rom - Trumpet
Oliver Potratz - Double Bass, E-Bass, Shaker
Nikolaus Dolp - Drums, Percussion, Thai Gongs
Mathias Koch - Drums, Percussion


Exact Audio Copy V1.0 beta 4 from 7. December 2014

EAC extraction logfile from 7. February 2020, 16:43

Shake Stew / Gris Gris

Used drive : ATAPI iHAS124 E Adapter: 1 ID: 0

Read mode : Secure
Utilize accurate stream : Yes
Defeat audio cache : Yes
Make use of C2 pointers : No

Read offset correction : 6
Overread into Lead-In and Lead-Out : No
Fill up missing offset samples with silence : Yes
Delete leading and trailing silent blocks : No
Null samples used in CRC calculations : Yes
Used interface : Native Win32 interface for Win NT & 2000
Gap handling : Appended to previous track

Used output format : User Defined Encoder
Selected bitrate : 768 kBit/s
Quality : High
Add ID3 tag : No
Command line compressor : C:\Program Files (x86)\flac-1.3.2-win\win64\flac.exe
Additional command line options : -8 -V -T "ARTIST=%artist%" -T "TITLE=%title%" -T "ALBUM=%albumtitle%" -T "DATE=%year%" -T "TRACKNUMBER=%tracknr%" -T "GENRE=%genre%" -T "COMMENT=ripped by vp_sunset" %source% -o %dest%


TOC of the extracted CD

Track | Start | Length | Start sector | End sector
––––––––––––––––––––––––––––-
1 | 0:00.00 | 13:04.39 | 0 | 58838
2 | 13:04.39 | 8:13.58 | 58839 | 95871
3 | 21:18.22 | 8:18.52 | 95872 | 133273
4 | 29:36.74 | 7:35.29 | 133274 | 167427


Track 1

Filename C:\_EAC\01. I Can Feel The Heat Closing In.wav

Pre-gap length 0:00:02.00

Peak level 99.9 %
Extraction speed 2.1 X
Track quality 99.9 %
Test CRC E9C7E608
Copy CRC E9C7E608
Accurately ripped (confidence 1) [2FD2FA37] (AR v2)
Copy OK

Track 2

Filename C:\_EAC\02. You Struggle You Strive.wav

Pre-gap length 0:00:03.85

Peak level 99.8 %
Extraction speed 2.8 X
Track quality 100.0 %
Test CRC D639FEC1
Copy CRC D639FEC1
Accurately ripped (confidence 1) [6442074C] (AR v2)
Copy OK

Track 3

Filename C:\_EAC\03. You Let Go You Fly.wav

Peak level 99.9 %
Extraction speed 3.1 X
Track quality 100.0 %
Test CRC F62F3D2E
Copy CRC F62F3D2E
Accurately ripped (confidence 1) [D2F2C545] (AR v2)
Copy OK

Track 4

Filename C:\_EAC\04. Keep Walkin.wav

Pre-gap length 0:00:03.74

Peak level 99.9 %
Extraction speed 3.4 X
Track quality 100.0 %
Test CRC CEB943D5
Copy CRC CEB943D5
Accurately ripped (confidence 1) [484E3841] (AR v2)
Copy OK


All tracks accurately ripped

No errors occurred

End of status report

–– CUETools DB Plugin V2.1.4

[CTDB TOCID: Q1pkbMEMM77zpdelQawKha4vcok-] found
Submit result: Q1pkbMEMM77zpdelQawKha4vcok- has been confirmed
Track | CTDB Status
1 | (27/27) Accurately ripped
2 | (27/27) Accurately ripped
3 | (27/27) Accurately ripped
4 | (27/27) Accurately ripped


==== Log checksum 7F22FFBAF51D2548AAE710893944F4DC008FBE57D0A9DEF5B9FA2308368C3B3B ====
Exact Audio Copy V1.0 beta 4 from 7. December 2014

EAC extraction logfile from 7. February 2020, 16:06

Shake Stew / Gris Gris

Used drive : ATAPI iHAS124 E Adapter: 1 ID: 0

Read mode : Secure
Utilize accurate stream : Yes
Defeat audio cache : Yes
Make use of C2 pointers : No

Read offset correction : 6
Overread into Lead-In and Lead-Out : No
Fill up missing offset samples with silence : Yes
Delete leading and trailing silent blocks : No
Null samples used in CRC calculations : Yes
Used interface : Native Win32 interface for Win NT & 2000
Gap handling : Appended to previous track

Used output format : User Defined Encoder
Selected bitrate : 768 kBit/s
Quality : High
Add ID3 tag : No
Command line compressor : C:\Program Files (x86)\flac-1.3.2-win\win64\flac.exe
Additional command line options : -8 -V -T "ARTIST=%artist%" -T "TITLE=%title%" -T "ALBUM=%albumtitle%" -T "DATE=%year%" -T "TRACKNUMBER=%tracknr%" -T "GENRE=%genre%" -T "COMMENT=ripped by vp_sunset" %source% -o %dest%


TOC of the extracted CD

Track | Start | Length | Start sector | End sector
––––––––––––––––––––––––––––-
1 | 0:00.00 | 8:35.20 | 0 | 38644
2 | 8:35.20 | 5:40.00 | 38645 | 64144
3 | 14:15.20 | 12:41.55 | 64145 | 121274
4 | 26:57.00 | 10:59.09 | 121275 | 170708
5 | 37:56.09 | 22:32.54 | 170709 | 272162


Track 1

Filename C:\_EAC\01. No More Silence Part I.wav

Pre-gap length 0:00:02.00

Peak level 99.9 %
Extraction speed 1.8 X
Track quality 99.9 %
Test CRC 18B1F964
Copy CRC 18B1F964
Accurately ripped (confidence 1) [A7EB8613] (AR v2)
Copy OK

Track 2

Filename C:\_EAC\02. No More Silence Part II.wav

Peak level 99.9 %
Extraction speed 2.4 X
Track quality 100.0 %
Test CRC 51EDC626
Copy CRC 51EDC626
Accurately ripped (confidence 1) [45B120C7] (AR v2)
Copy OK

Track 3

Filename C:\_EAC\03. So He Spoke.wav

Pre-gap length 0:00:01.78

Peak level 99.8 %
Extraction speed 3.0 X
Track quality 100.0 %
Test CRC 055823B3
Copy CRC 055823B3
Accurately ripped (confidence 1) [B92A0309] (AR v2)
Copy OK

Track 4

Filename C:\_EAC\04. Grilling Crickets In A Straw Hut Part I.wav

Pre-gap length 0:00:01.74

Peak level 99.9 %
Extraction speed 3.4 X
Track quality 100.0 %
Test CRC 561D28F4
Copy CRC 561D28F4
Accurately ripped (confidence 1) [6341636E] (AR v2)
Copy OK

Track 5

Filename C:\_EAC\05. Grilling Crickets In A Straw Hut Part II.wav

Peak level 99.9 %
Extraction speed 4.1 X
Track quality 100.0 %
Test CRC 52E8666E
Copy CRC 52E8666E
Accurately ripped (confidence 1) [415735B3] (AR v2)
Copy OK


All tracks accurately ripped

No errors occurred

End of status report

–– CUETools DB Plugin V2.1.4

[CTDB TOCID: GgadXo3D0.YRRFfTyNmT8hPnwIo-] found
Submit result: GgadXo3D0.YRRFfTyNmT8hPnwIo- has been confirmed
Track | CTDB Status
1 | (25/25) Accurately ripped
2 | (25/25) Accurately ripped
3 | (25/25) Accurately ripped
4 | (25/25) Accurately ripped
5 | (25/25) Accurately ripped


==== Log checksum EF754AF4B1AE6D67828068F6E7106C66EEBE57E4E0409C55C68FC4EF8FD08A6E ====

Shake Stew - Gris Gris (2019) [2CDs] {Traumton Musikverlag Records}
Shake Stew - Gris Gris (2019) [2CDs] {Traumton Musikverlag Records}


Thanks to the original ripper