Subcategories
Tags
Language
Tags

Shola Adisa-Farrar & Florian Pelissier Quintet - Lost Myself (2016) {Hot Casa}

Posted By: tiburon
Shola Adisa-Farrar & Florian Pelissier Quintet - Lost Myself (2016) {Hot Casa}

Shola Adisa-Farrar & Florian Pelissier Quintet - Lost Myself (2016) {Hot Casa}
EAC 1.3 | FLAC tracks level 8 | Cue+Log+M3U | Full Scans 300dpi | 309MB + 5% Recovery
MP3 CBR 320 Kbps | 102MB + 5% Recovery
Genre: Jazz, Vocal Jazz

After eight years in New York and numerous travels around the world, her music degree in the pocket, the Californian singer Shola Adisa-Farrar anchored to Paris to give birth to this album: his personal exploration of jazz. At his side, the Parisian pianist Florian Pellissier, knewn for its authenticity and so personal way to live the legacy hard bop. Their collaboration began in the summer of 2013. "Florian's experience and vision typically French jazz coupled with my curiosity for jazz and many forms of music that inspired me the soul, reggae and African rhythms helped create an album at the crossroads of our two worlds, says Shola Adisa-Farrar.
Track List
01. Evolution
02. I Have A Dream
03. Feeling Good
04. Flow
05. Sorrow Tears and Blood
06. Blue Chords
07. Going Nowhere
08. What A Night
09. Spirit
10. Fall In Love

musicians
Shola Adisa-Farrar - vocals
Florian Pelissier - piano
Oliver Degabriele - double bass
Christophe Panzani - sax
Thibaut Brandalise - drums
Yoann Loustalot - trumpet
Yoni Zelnik - double bass
David Georgelet - drums
Greg F - guitar on 6

Produced by Florian Pelissier


Exact Audio Copy V1.3 from 2. September 2016

EAC extraction logfile from 26. October 2016, 10:58

Shola Adisa-Farrar & Florian Pelissier Quintet / Lost Myself

Used drive : ATAPI iHBS112 2 Adapter: 1 ID: 1

Read mode : Secure
Utilize accurate stream : Yes
Defeat audio cache : Yes
Make use of C2 pointers : No

Read offset correction : 6
Overread into Lead-In and Lead-Out : No
Fill up missing offset samples with silence : Yes
Delete leading and trailing silent blocks : No
Null samples used in CRC calculations : Yes
Used interface : Native Win32 interface for Win NT & 2000
Gap handling : Appended to previous track

Used output format : User Defined Encoder
Selected bitrate : 128 kBit/s
Quality : High
Add ID3 tag : No
Command line compressor : C:\Program Files (x86)\Exact Audio Copy\Flac\flac.exe
Additional command line options : -8 -V -T "ARTIST=%artist%" -T "TITLE=%title%" -T "ALBUM=%albumtitle%" -T "DATE=%year%" -T "TRACKNUMBER=%tracknr%" -T "GENRE=%genre%" -T "PERFORMER=%albuminterpret%" -T "COMPOSER=%composer%" -T "ALBUMARTIST=%albumartist%" -T "DISCNUMBER=%cdnumber%" -T "TOTALDISCS=%totalcds%" -T "TOTALTRACKS=%numtracks%" -T "COMMENT=EAC Secure Mode, Test & Copy, AccurateRip, FLAC -8" %source% -o %dest%


TOC of the extracted CD

Track | Start | Length | Start sector | End sector
––––––––––––––––––––––––––––-
1 | 0:00.00 | 3:51.60 | 0 | 17384
2 | 3:51.60 | 5:14.35 | 17385 | 40969
3 | 9:06.20 | 5:39.28 | 40970 | 66422
4 | 14:45.48 | 4:01.51 | 66423 | 84548
5 | 18:47.24 | 4:32.45 | 84549 | 104993
6 | 23:19.69 | 3:49.38 | 104994 | 122206
7 | 27:09.32 | 5:51.18 | 122207 | 148549
8 | 33:00.50 | 3:52.06 | 148550 | 165955
9 | 36:52.56 | 4:27.21 | 165956 | 186001
10 | 41:20.02 | 3:31.21 | 186002 | 201847


Track 1

Filename D:\DL\Shola Adisa-Farrar & Florian Pelissier Quintet - Lost Myself (2016) [FLAC]\01 - Evolution.wav

Pre-gap length 0:00:02.00

Peak level 96.5 %
Extraction speed 5.0 X
Track quality 100.0 %
Test CRC 1909C7F6
Copy CRC 1909C7F6
Track not present in AccurateRip database
Copy OK

Track 2

Filename D:\DL\Shola Adisa-Farrar & Florian Pelissier Quintet - Lost Myself (2016) [FLAC]\02 - I Have A Dream.wav

Peak level 96.5 %
Extraction speed 5.8 X
Track quality 100.0 %
Test CRC E8F454FC
Copy CRC E8F454FC
Track not present in AccurateRip database
Copy OK

Track 3

Filename D:\DL\Shola Adisa-Farrar & Florian Pelissier Quintet - Lost Myself (2016) [FLAC]\03 - Feeling Good.wav

Peak level 96.5 %
Extraction speed 6.5 X
Track quality 100.0 %
Test CRC 33F11263
Copy CRC 33F11263
Track not present in AccurateRip database
Copy OK

Track 4

Filename D:\DL\Shola Adisa-Farrar & Florian Pelissier Quintet - Lost Myself (2016) [FLAC]\04 - Flow.wav

Peak level 96.5 %
Extraction speed 5.7 X
Track quality 99.9 %
Test CRC 03741DF2
Copy CRC 03741DF2
Track not present in AccurateRip database
Copy OK

Track 5

Filename D:\DL\Shola Adisa-Farrar & Florian Pelissier Quintet - Lost Myself (2016) [FLAC]\05 - Sorrow Tears And Blood.wav

Peak level 96.5 %
Extraction speed 6.3 X
Track quality 99.9 %
Test CRC 7A53602E
Copy CRC 7A53602E
Track not present in AccurateRip database
Copy OK

Track 6

Filename D:\DL\Shola Adisa-Farrar & Florian Pelissier Quintet - Lost Myself (2016) [FLAC]\06 - Blue Chords.wav

Peak level 96.5 %
Extraction speed 7.5 X
Track quality 100.0 %
Test CRC 884362FC
Copy CRC 884362FC
Track not present in AccurateRip database
Copy OK

Track 7

Filename D:\DL\Shola Adisa-Farrar & Florian Pelissier Quintet - Lost Myself (2016) [FLAC]\07 - Going Nowhere.wav

Peak level 96.5 %
Extraction speed 7.3 X
Track quality 99.9 %
Test CRC DF7290DB
Copy CRC DF7290DB
Track not present in AccurateRip database
Copy OK

Track 8

Filename D:\DL\Shola Adisa-Farrar & Florian Pelissier Quintet - Lost Myself (2016) [FLAC]\08 - What A Night.wav

Peak level 96.5 %
Extraction speed 6.9 X
Track quality 99.9 %
Test CRC 6A2D4AA2
Copy CRC 6A2D4AA2
Track not present in AccurateRip database
Copy OK

Track 9

Filename D:\DL\Shola Adisa-Farrar & Florian Pelissier Quintet - Lost Myself (2016) [FLAC]\09 - Spirit.wav

Peak level 96.5 %
Extraction speed 8.7 X
Track quality 100.0 %
Test CRC D84ED78E
Copy CRC D84ED78E
Track not present in AccurateRip database
Copy OK

Track 10

Filename D:\DL\Shola Adisa-Farrar & Florian Pelissier Quintet - Lost Myself (2016) [FLAC]\10 - Fall In Love.wav

Peak level 96.5 %
Extraction speed 8.8 X
Track quality 100.0 %
Test CRC 3CAC7CC0
Copy CRC 3CAC7CC0
Track not present in AccurateRip database
Copy OK


None of the tracks are present in the AccurateRip database

No errors occurred

End of status report

–– CUETools DB Plugin V2.1.6

[CTDB TOCID: jijZXNsxcUcQXoSwHZBkqjBgdLw-] found
Submit result: jijZXNsxcUcQXoSwHZBkqjBgdLw- has been confirmed
Track | CTDB Status
1 | (6/6) Accurately ripped
2 | (6/6) Accurately ripped
3 | (6/6) Accurately ripped
4 | (6/6) Accurately ripped
5 | (6/6) Accurately ripped
6 | (6/6) Accurately ripped
7 | (6/6) Accurately ripped
8 | (6/6) Accurately ripped
9 | (6/6) Accurately ripped
10 | (6/6) Accurately ripped


==== Log checksum 60504838DD736F361B13B11D4CBBA569DE635D565C98909868F3BF2F3FB7F030 ====


––––––––––––––––––––––––––––––––––––––––
Analyzed: Shola Adisa-Farrar & Florian Pelissier Quintet / Lost Myself
––––––––––––––––––––––––––––––––––––––––

DR Peak RMS Duration Track
––––––––––––––––––––––––––––––––––––––––
DR11 -0.31 dB -12.72 dB 3:52 01-Evolution
DR9 -0.31 dB -11.18 dB 5:14 02-I Have A Dream
DR10 -0.31 dB -11.34 dB 5:39 03-Feeling Good
DR11 -0.31 dB -12.60 dB 4:02 04-Flow
DR10 -0.31 dB -11.32 dB 4:33 05-Sorrow Tears And Blood
DR10 -0.31 dB -12.20 dB 3:50 06-Blue Chords
DR8 -0.31 dB -11.01 dB 5:51 07-Going Nowhere
DR11 -0.31 dB -12.66 dB 3:52 08-What A Night
DR12 -0.31 dB -14.36 dB 4:27 09-Spirit
DR10 -0.31 dB -11.76 dB 3:31 10-Fall In Love
––––––––––––––––––––––––––––––––––––––––

Number of tracks: 10
Official DR value: DR10

Samplerate: 44100 Hz
Channels: 2
Bits per sample: 16
Bitrate: 824 kbps
Codec: FLAC
================================================================================

Shola Adisa-Farrar & Florian Pelissier Quintet - Lost Myself (2016) {Hot Casa}
Shola Adisa-Farrar & Florian Pelissier Quintet - Lost Myself (2016) {Hot Casa}


Thanks to the original ripper