Subcategories
Tags
Language
Tags

Sidsel Endresen - Exile (1994) {ECM 1524}

Posted By: tiburon
Sidsel Endresen - Exile (1994) {ECM 1524}

Sidsel Endresen - Exile (1994) {ECM 1524}
EAC 0.99pb4 | FLAC tracks level 8 | Cue+Log+M3U | Scans 200dpi | 219MB + 5% Recovery
MP3 CBR 320 Kbps | 129MB + 5% Recovery
Genre: Jazz, Modern Creative
Sidsel Endresen - Exile (1994) {ECM 1524}

Endresen's vocals sound unnervingly close to those of folk-rock singer Sandy Denny on this song cycle of sorts, originally commissioned by a Norwegian jazz festival. Themes of traveling and a vaguely mythic air (the songs were originally titled "Pagan Pilgrimage") predominate, but the chief pleasures are the haunting and resonant qualities of Endresen's voice. ~ Richie Unterberger, All Music Guide
Track List
01. Here The Moon (Endresen) 2:29
02. Quest (Eberson, Endresen) 6:32
03. Stages I, II, III (Bates) 7:47
04. Hunger (Darling) 6:30
05. Theme I (Darling, Endresen) 2:14
06. Waiting Train (Eberson, Endresen) 3:51
07. The Dreaming (Balke) 4:44
08. Dust (Eberson, Endresen) 8:00
09. Variation III (Christensen, Darling, Endresen) 3:11
10. Theme II (Darling, Endresen) 2:36
11. Exile (Endresen) 8:08

musicians
Sidsel Endresen - voice
Django Bates - piano, tenor horn
Nils Petter Molvaer - trumpet
Jon Christensen - drums, percussion
Jens Bugge Wesseltoft - keyboards
David Darling - cello

Produced by Manfred Eicher


Exact Audio Copy V0.99 prebeta 4 from 23. January 2008

EAC extraction logfile from 1. January 2009, 2:46

Sidsel Endresen / Exile

Used drive : TSSTcorpCD/DVDW SH-S183A Adapter: 2 ID: 0

Read mode : Secure
Utilize accurate stream : Yes
Defeat audio cache : Yes
Make use of C2 pointers : No

Read offset correction : 6
Overread into Lead-In and Lead-Out : No
Fill up missing offset samples with silence : Yes
Delete leading and trailing silent blocks : No
Null samples used in CRC calculations : Yes
Used interface : Native Win32 interface for Win NT & 2000
Gap handling : Appended to previous track

Used output format : User Defined Encoder
Selected bitrate : 128 kBit/s
Quality : High
Add ID3 tag : No
Command line compressor : H:\Program Files\Exact Audio Copy\Flac\flac.exe
Additional command line options : -V -8 -T "artist=%a" -T "title=%t" -T "album=%g" -T "date=%y" -T "tracknumber=%n" -T "genre=%m" %s


TOC of the extracted CD

Track | Start | Length | Start sector | End sector
––––––––––––––––––––––––––––-
1 | 0:00.32 | 2:29.15 | 32 | 11221
2 | 2:29.47 | 6:32.23 | 11222 | 40644
3 | 9:01.70 | 7:47.55 | 40645 | 75724
4 | 16:49.50 | 6:29.70 | 75725 | 104969
5 | 23:19.45 | 2:14.10 | 104970 | 115029
6 | 25:33.55 | 3:51.15 | 115030 | 132369
7 | 29:24.70 | 4:44.20 | 132370 | 153689
8 | 34:09.15 | 8:00.55 | 153690 | 189744
9 | 42:09.70 | 3:11.45 | 189745 | 204114
10 | 45:21.40 | 2:36.47 | 204115 | 215861
11 | 47:58.12 | 8:08.43 | 215862 | 252504


Track 1

Filename G:\EAC rips\Sidsel Endresen - 1994 - Exile\01 - Here The Moon.wav

Pre-gap length 0:00:02.42

Peak level 57.9 %
Track quality 100.0 %
Test CRC 5770A789
Copy CRC 5770A789
Accurately ripped (confidence 3) [FE46DA2A]
Copy OK

Track 2

Filename G:\EAC rips\Sidsel Endresen - 1994 - Exile\02 - Quest.wav

Peak level 86.9 %
Track quality 100.0 %
Test CRC 104D0C79
Copy CRC 104D0C79
Accurately ripped (confidence 3) [6FC284C1]
Copy OK

Track 3

Filename G:\EAC rips\Sidsel Endresen - 1994 - Exile\03 - Stages I,II,III.wav

Pre-gap length 0:00:01.10

Peak level 65.4 %
Track quality 100.0 %
Test CRC 4B1FF90A
Copy CRC 4B1FF90A
Accurately ripped (confidence 3) [BED26E22]
Copy OK

Track 4

Filename G:\EAC rips\Sidsel Endresen - 1994 - Exile\04 - Hunger.wav

Pre-gap length 0:00:01.66

Peak level 63.5 %
Track quality 100.0 %
Test CRC A085DB95
Copy CRC A085DB95
Accurately ripped (confidence 3) [F238A590]
Copy OK

Track 5

Filename G:\EAC rips\Sidsel Endresen - 1994 - Exile\05 - Theme I.wav

Pre-gap length 0:00:04.20

Peak level 82.1 %
Track quality 99.9 %
Test CRC 86BE3194
Copy CRC 86BE3194
Accurately ripped (confidence 3) [AE7AAEA0]
Copy OK

Track 6

Filename G:\EAC rips\Sidsel Endresen - 1994 - Exile\06 - Waiting Train.wav

Pre-gap length 0:00:02.20

Peak level 87.9 %
Track quality 100.0 %
Test CRC FA880186
Copy CRC FA880186
Accurately ripped (confidence 3) [CA3AC125]
Copy OK

Track 7

Filename G:\EAC rips\Sidsel Endresen - 1994 - Exile\07 - The Dreaming.wav

Pre-gap length 0:00:01.17

Peak level 82.5 %
Track quality 99.9 %
Test CRC 40855D41
Copy CRC 40855D41
Accurately ripped (confidence 3) [B6E39181]
Copy OK

Track 8

Filename G:\EAC rips\Sidsel Endresen - 1994 - Exile\08 - Dust.wav

Pre-gap length 0:00:06.57

Peak level 83.1 %
Track quality 100.0 %
Test CRC 1AE1FEDD
Copy CRC 1AE1FEDD
Accurately ripped (confidence 3) [8529B7FB]
Copy OK

Track 9

Filename G:\EAC rips\Sidsel Endresen - 1994 - Exile\09 - Variation III.wav

Pre-gap length 0:00:00.84

Peak level 68.1 %
Track quality 99.9 %
Test CRC BA342589
Copy CRC BA342589
Accurately ripped (confidence 3) [B0C99C86]
Copy OK

Track 10

Filename G:\EAC rips\Sidsel Endresen - 1994 - Exile\10 - Theme II.wav

Pre-gap length 0:00:01.10

Peak level 39.7 %
Track quality 100.0 %
Test CRC 2215227B
Copy CRC 2215227B
Accurately ripped (confidence 3) [5CAF6335]
Copy OK

Track 11

Filename G:\EAC rips\Sidsel Endresen - 1994 - Exile\11 - Exile.wav

Pre-gap length 0:00:04.66

Peak level 89.1 %
Track quality 100.0 %
Test CRC D1586456
Copy CRC D1586456
Accurately ripped (confidence 3) [D48343BC]
Copy OK


All tracks accurately ripped

No errors occurred

End of status report


––––––––––––––––––––––––––––––––––––––––
Analyzed: Sidsel Endresen / Exile
––––––––––––––––––––––––––––––––––––––––

DR Peak RMS Duration Track
––––––––––––––––––––––––––––––––––––––––
DR13 -4.74 dB -23.98 dB 2:29 01-Here The Moon
DR15 -1.22 dB -21.29 dB 6:32 02-Quest
DR17 -3.69 dB -24.92 dB 7:48 03-Stages I,II,III
DR16 -3.93 dB -25.97 dB 6:30 04-Hunger
DR12 -1.71 dB -20.67 dB 2:14 05-Theme I
DR16 -1.11 dB -23.21 dB 3:51 06-Waiting Train
DR16 -1.66 dB -22.90 dB 4:44 07-The Dreaming
DR15 -1.60 dB -22.67 dB 8:01 08-Dust
DR13 -3.33 dB -22.46 dB 3:12 09-Variation III
DR12 -8.01 dB -26.98 dB 2:37 10-Theme II
DR15 -0.99 dB -22.64 dB 8:09 11-Exile
––––––––––––––––––––––––––––––––––––––––

Number of tracks: 11
Official DR value: DR14

Samplerate: 44100 Hz
Channels: 2
Bits per sample: 16
Bitrate: 577 kbps
Codec: FLAC
================================================================================

Sidsel Endresen - Exile (1994) {ECM 1524}
Sidsel Endresen - Exile (1994) {ECM 1524}


Thanks to the original ripper