Subcategories
Tags
Language
Tags

Sigiswald Kuijken, La Petite Bande - Joseph Haydn: Die Tageszeiten - Symphonies Nos. 6, 7, 8 (2012)

Posted By: ArlegZ
Sigiswald Kuijken, La Petite Bande - Joseph Haydn: Die Tageszeiten - Symphonies Nos. 6, 7, 8 (2012)

Sigiswald Kuijken, La Petite Bande - Joseph Haydn: Die Tageszeiten - Symphonies Nos. 6, 7, 8 (2012)
EAC | FLAC | Image (Cue & Log) ~ 325 Mb | Total time: 71:57 | Scans included
Classical | Label: Accent | ACC24272 | Recorded: 2012

‘The Time of Day’ provided Haydn with an inspiration to compose and his Symphony numbers 6, 7 & 8 collectively became known as The Day Trilogy. Celebrating their 30th anniversary, Sigiswald Kuijken and La Petite Bande are highly respected exponents of this repertoire and this recording is no exception to their consistently high standards. Carrying on with their ‘one instrument to a part’ policy, the recording is presented in a wonderfully light and airy way, allowing the music to shine through.

Performer:
La Petite Bande
Sigiswald Kuijken, direction

Track List:
Symphony No. 6 in G Major 'Le Matin'
01. Adagio - Allegro
02. Adagio - Andante - Adagio
03. Menuet
04. Finale: Allegro
Symphony No. 7 in C Major 'Le Midi'
05. Adagio - Allegro
06. Recitativo: Adagio - Allegro
07. Adagio
08. Menuetto
09. Finale: Allegro
Symphony No. 8 in G Major 'Le Soir'
10. Allegro molto
11. Andante
12. Menuetto
13. La Tempesta: Presto


Exact Audio Copy V1.0 beta 3 from 29. August 2011

EAC extraction logfile from 30. December 2012, 21:29

La Petite Bande, Sigiswald Kuijken / Haydn - Symphonies Nos. 6, 7, 8

Used drive : SlimtypeDVD A DS8A4SH Adapter: 1 ID: 0

Read mode : Secure
Utilize accurate stream : Yes
Defeat audio cache : Yes
Make use of C2 pointers : No

Read offset correction : 6
Overread into Lead-In and Lead-Out : No
Fill up missing offset samples with silence : Yes
Delete leading and trailing silent blocks : No
Null samples used in CRC calculations : Yes
Used interface : Native Win32 interface for Win NT & 2000

Used output format : User Defined Encoder
Selected bitrate : 768 kBit/s
Quality : High
Add ID3 tag : No
Command line compressor : C:\Program Files (x86)\Exact Audio Copy\FLAC\FLAC.EXE
Additional command line options : -6 -V -T "ARTIST=%a" -T "TITLE=%t" -T "ALBUM=%g" -T "DATE=%y" -T "TRACKNUMBER=%n" -T "GENRE=%m" -T "COMMENT=%e" %j–picture="%i"%j %s -o %d


TOC of the extracted CD

Track | Start | Length | Start sector | End sector
––––––––––––––––––––––––––––-
1 | 0:00.00 | 6:04.67 | 0 | 27366
2 | 6:04.67 | 7:04.07 | 27367 | 59173
3 | 13:08.74 | 4:10.18 | 59174 | 77941
4 | 17:19.17 | 6:02.27 | 77942 | 105118
5 | 23:21.44 | 7:53.57 | 105119 | 140650
6 | 31:15.26 | 2:32.29 | 140651 | 152079
7 | 33:47.55 | 6:02.08 | 152080 | 179237
8 | 39:49.63 | 3:41.01 | 179238 | 195813
9 | 43:30.64 | 4:44.36 | 195814 | 217149
10 | 48:15.25 | 5:49.45 | 217150 | 243369
11 | 54:04.70 | 8:03.56 | 243370 | 279650
12 | 62:08.51 | 4:17.40 | 279651 | 298965
13 | 66:26.16 | 5:29.35 | 298966 | 323675


Range status and errors

Selected range

Filename Q:\Music\ACC24272\Haydn - Die Tageszeiten.wav

Peak level 100.0 %
Extraction speed 2.3 X
Range quality 100.0 %
Test CRC 0B6E32E9
Copy CRC 0B6E32E9
Copy OK

No errors occurred


AccurateRip summary

Track 1 not present in database
Track 2 not present in database
Track 3 not present in database
Track 4 not present in database
Track 5 not present in database
Track 6 not present in database
Track 7 not present in database
Track 8 not present in database
Track 9 not present in database
Track 10 not present in database
Track 11 not present in database
Track 12 not present in database
Track 13 not present in database

None of the tracks are present in the AccurateRip database

End of status report


==== Log checksum 069BE5C0566519D68ECC3CA6A52E05AAA437CE1FA59679865072EA9F7B4C6DA5 ====

Sigiswald Kuijken, La Petite Bande - Joseph Haydn: Die Tageszeiten - Symphonies Nos. 6, 7, 8 (2012)

Thanks to the original releaser