Tags
Language
Tags

Simon & Garfunkel - Wednesday Morning, 3 A.M. (1964)

Posted By: v3122
Simon & Garfunkel - Wednesday Morning, 3 A.M. (1964)

Simon & Garfunkel - Wednesday Morning, 3 A.M. (1964)
EAC | Flac(Image) + Cue + Log & MP3 CBR 320Kbps
2007 | Columbia-Legacy 88697134662-1 | ~ 234 or 98 Mb | Scans(jpg) -> 20 Mb
Folk-Rock | Remastered

Wednesday Morning, 3 AM doesn't resemble any other Simon & Garfunkel album, mostly because their sound here was fundamentally different from that of the chart-topping duo that emerged a year later. Their first record together since their days as the teen harmony duo Tom & Jerry, the album was cut in March 1964, at a time when both Simon and Garfunkel were under the spell of folk music. As it had in 1957 with "Hey, Schoolgirl," their harmonizing here came out of the Everly Brothers' playbook, but some new wrinkles had developed – Paul Simon was just spreading his wings as a serious songwriter and shares space with other contemporary composers. The album opens with a spirited (if somewhat arch) rendition of Gibson and Camp's gospel/folk piece "You Can Tell the World," on which the duo's joyous harmonizing overcomes the intrinsic awkwardness of two Jewish guys from Queens, New York doing this repertory. Also present is Ian Campbell's "The Sun Is Burning," a topical song about nuclear annihilation that Simon heard on his first visit to England as an itinerant folksinger the year before. But the dominant outside personality on the album is that of Bob Dylan – his "Times They Are A-Changing" is covered, but his influence is obvious on the oldest of the Simon originals here, "He Was My Brother." Simon's first serious, topical song, dealing with the death of a freedom rider – and dedicated to Simon's slain Queens College classmate Andrew Jacobs – it was what first interested Columbia Records producer Tom Wilson in Simon & Garfunkel. By the time the album was recorded, however, Simon had evolved beyond Dylan's orbit and developed a unique songwriting voice of his own, though he still had some distance to go. His other originals betray the artifice of an English major at work, sometimes for better, as on "Sparrow" and the original, all-acoustic release of "The Sound of Silence," and at times for worse, on the half-beautiful but too-precious title song (which he would re-write more successfully as "Somewhere They Can't Find Me"). There are also a pair of traditional songs, a beautifully harmonized rendition of "Peggy-O" – which they probably picked up in Greenwich Village, or from recordings by Dylan or Joan Baez – and "Go Tell It On the Mountain," both of which fit well into the zeitgeist of the folk revival. The record didn't sell on its original release, however, appearing too late in the folk revival to attract much attention – Bob Dylan was already taking that audience to new places by adding electric instruments to his sound. But the seeds of the duo's future success were planted when, months after the album had been given up for dead – and the duo had split up – the all-acoustic rendition of "The Sound of Silence" started getting radio play on its own in some key markets, which possessed to producer Wilson to try and adapt it to the new sound, overdubbing an electric band.

by Bruce Eder, allmusic
Simon & Garfunkel - Wednesday Morning, 3 A.M. (1964):

Simon & Garfunkel - Wednesday Morning, 3 A.M. (1964)

Tracklist:

01. You Can Tell The World [0:02:49.05]
02. Last Night I Had The Strangest Dream [0:02:13.00]
03. Bleecker Street [0:02:47.37]
04. Sparrow [0:02:51.05]
05. Benedictus [0:02:41.55]
06. The Sound Of Silence [0:03:09.18]
07. He Was My Brother [0:02:52.55]
08. Peggy-O [0:02:28.67]
09. Go Tell It On The Mountain [0:02:09.13]
10. The Sun Is Burning [0:02:50.22]
11. The Times They Are A-Changin' [0:02:55.00]
12. Wednesday Morning, 3 A.M. [0:02:23.70]
13. Bleecker Street (Demo) [0:02:46.30]
14. He Was My Brother (Alternate Take 1) [0:02:52.00]
15. The Sun Is Burning (Alternate Take 12) [0:02:46.58]

Exact Audio Copy V1.0 beta 3 from 29. August 2011

EAC extraction logfile from 24. June 2017, 17:28

Simon & Garfunkel / The Concert In Central Park

Used drive : PLEXTOR DVDR PX-L890SA Adapter: 5 ID: 1

Read mode : Secure
Utilize accurate stream : Yes
Defeat audio cache : Yes
Make use of C2 pointers : No

Read offset correction : 6
Overread into Lead-In and Lead-Out : No
Fill up missing offset samples with silence : Yes
Delete leading and trailing silent blocks : No
Null samples used in CRC calculations : Yes
Used interface : Native Win32 interface for Win NT & 2000

Used output format : User Defined Encoder
Selected bitrate : 768 kBit/s
Quality : High
Add ID3 tag : No
Command line compressor : C:\Program Files (x86)\Exact Audio Copy\Flac\flac.exe
Additional command line options : -V -8 -T "Date=%year%" -T "Genre=%genre%" %source%


TOC of the extracted CD

Track | Start | Length | Start sector | End sector
––––––––––––––––––––––––––––-
1 | 0:00.32 | 3:52.55 | 32 | 17486
2 | 3:53.12 | 4:22.20 | 17487 | 37156
3 | 8:15.32 | 4:57.03 | 37157 | 59434
4 | 13:12.35 | 3:22.47 | 59435 | 74631
5 | 16:35.07 | 3:52.45 | 74632 | 92076
6 | 20:27.52 | 2:37.43 | 92077 | 103894
7 | 23:05.20 | 2:19.02 | 103895 | 114321
8 | 25:24.22 | 3:55.38 | 114322 | 131984
9 | 29:19.60 | 4:33.60 | 131985 | 152519
10 | 33:53.45 | 4:09.52 | 152520 | 171246
11 | 38:03.22 | 4:54.65 | 171247 | 193361
12 | 42:58.12 | 2:49.20 | 193362 | 206056
13 | 45:47.32 | 5:51.00 | 206057 | 232381
14 | 51:38.32 | 4:48.10 | 232382 | 253991
15 | 56:26.42 | 4:23.53 | 253992 | 273769
16 | 60:50.20 | 6:02.42 | 273770 | 300961
17 | 66:52.62 | 2:52.05 | 300962 | 313866
18 | 69:44.67 | 2:01.43 | 313867 | 322984
19 | 71:46.35 | 4:14.05 | 322985 | 342039


Range status and errors

Selected range

Filename H:\MUSIC\1982. Simon & Garfunkel - The Concert In Central Park (Warner 3654-2, USA)\Simon & Garfunkel - The Concert In Central Park.wav

Peak level 100.0 %
Extraction speed 3.7 X
Range quality 100.0 %
Test CRC 6F240310
Copy CRC 6F240310
Copy OK

No errors occurred


AccurateRip summary

Track 1 accurately ripped (confidence 77) [B06C1389] (AR v2)
Track 2 accurately ripped (confidence 78) [9DC55218] (AR v2)
Track 3 accurately ripped (confidence 78) [8E727C78] (AR v2)
Track 4 accurately ripped (confidence 79) [40FDB3D0] (AR v2)
Track 5 accurately ripped (confidence 79) [8B37456C] (AR v2)
Track 6 accurately ripped (confidence 79) [1B22D32E] (AR v2)
Track 7 accurately ripped (confidence 79) [8FC49836] (AR v2)
Track 8 accurately ripped (confidence 79) [368598DE] (AR v2)
Track 9 accurately ripped (confidence 78) [271909EA] (AR v2)
Track 10 accurately ripped (confidence 78) [E588D899] (AR v2)
Track 11 accurately ripped (confidence 77) [C4B59B4A] (AR v2)
Track 12 accurately ripped (confidence 79) [1889580D] (AR v2)
Track 13 accurately ripped (confidence 79) [5ACA3C24] (AR v2)
Track 14 accurately ripped (confidence 78) [1C86A4B5] (AR v2)
Track 15 accurately ripped (confidence 78) [53D30C80] (AR v2)
Track 16 accurately ripped (confidence 73) [6A8CC2D2] (AR v2)
Track 17 accurately ripped (confidence 78) [65D8D267] (AR v2)
Track 18 accurately ripped (confidence 78) [B5786853] (AR v2)
Track 19 accurately ripped (confidence 76) [318778FF] (AR v2)

All tracks accurately ripped

End of status report

==== Log checksum F2FC747113AEB9221F10C469A5805CA3DC19E564A1306BEE1381B4FA6BF95DFF ====


[CUETools log; Date: 01.05.2018 12:05:47; Version: 2.1.5]
[AccurateRip ID: 00163d00-00fc2cad-b509840f] found.
Track [ CRC | V2 ] Status
01 [546131ba|b51b16d8] (184+200/938) Accurately ripped
02 [793af2d4|2d15cd39] (183+200/941) Accurately ripped
03 [9724dc49|c7ffa899] (183+200/943) Accurately ripped
04 [bcb02a68|118d7dfe] (182+200/940) Accurately ripped
05 [2d0b8121|a37438a5] (183+200/940) Accurately ripped
06 [820b80bd|3888fb69] (185+200/941) Accurately ripped
07 [a35085b7|23d549c5] (184+200/942) Accurately ripped
08 [8fe36ce7|cf0beb2e] (183+200/940) Accurately ripped
09 [4f46a5e4|820d2993] (183+200/941) Accurately ripped
10 [c082579b|ea7dc681] (183+200/939) Accurately ripped
11 [40e5f9cb|fc41705a] (182+200/941) Accurately ripped
12 [a67262af|be757cc5] (183+200/943) Accurately ripped
13 [9cecb289|b03da3a3] (181+200/931) Accurately ripped
14 [445d1b95|3724f85c] (181+200/933) Accurately ripped
15 [ad21646b|3e3ba2fe] (180+200/932) Accurately ripped
Offsetted by 48:
01 [dc17580a] (018/938) Accurately ripped
02 [0edc2dd4] (018/941) Accurately ripped
03 [7e9c6949] (018/943) Accurately ripped
04 [b5f3ae98] (018/940) Accurately ripped
05 [01d8d791] (018/940) Accurately ripped
06 [77d2a17d] (018/941) Accurately ripped
07 [88fa5317] (018/942) Accurately ripped
08 [4dd2c497] (018/940) Accurately ripped
09 [c5051354] (017/941) Accurately ripped
10 [286ead6b] (017/939) Accurately ripped
11 [fb2de5db] (018/941) Accurately ripped
12 [51fc6dbf] (018/943) Accurately ripped
13 [1534dae9] (018/931) Accurately ripped
14 [92d5b5b5] (017/933) Accurately ripped
15 [e1af673b] (017/932) Accurately ripped
Offsetted by 449:
01 [79d90d71] (003/938) Accurately ripped
02 [10e47564] (003/941) Accurately ripped
03 [e6fdd339] (003/943) Accurately ripped
04 [edad0ee9] (003/940) Accurately ripped
05 [43a199ae] (003/940) Accurately ripped
06 [77c22dc1] (003/941) Accurately ripped
07 [379f8c29] (003/942) Accurately ripped
08 [65e79bd0] (003/940) Accurately ripped
09 [9cabf041] (003/941) Accurately ripped
10 [874a64fa] (003/939) Accurately ripped
11 [0a1169f6] (003/941) Accurately ripped
12 [5b0daa2a] (003/943) Accurately ripped
13 [1765018b] (003/931) Accurately ripped
14 [62653d4b] (003/933) Accurately ripped
15 [93671eba] (003/932) Accurately ripped
Offsetted by 461:
01 [dbc69705] (005/938) Accurately ripped
02 [b64cc424] (006/941) Accurately ripped
03 [60dbb679] (006/943) Accurately ripped
04 [2bfdeff5] (006/940) Accurately ripped
05 [38d4ef4a] (006/940) Accurately ripped
06 [7533f5f1] (006/941) Accurately ripped
07 [b109ff81] (006/942) Accurately ripped
08 [556371bc] (006/940) Accurately ripped
09 [ba1b8b9d] (006/941) Accurately ripped
10 [61457a6e] (006/939) Accurately ripped
11 [f8a364fa] (006/941) Accurately ripped
12 [c5f02cee] (006/943) Accurately ripped
13 [35770ba3] (006/931) Accurately ripped
14 [760363d3] (006/933) Accurately ripped
15 [608a9f6e] (006/932) Accurately ripped
Offsetted by 1147:
01 [0f51cfe7] (060/938) Accurately ripped
02 [d0c25a04] (061/941) Accurately ripped
03 [9792f599] (061/943) Accurately ripped
04 [ebb83123] (061/940) Accurately ripped
05 [7a20e2a0] (060/940) Accurately ripped
06 [3871d4a9] (061/941) Accurately ripped
07 [234f6bfd] (062/942) Accurately ripped
08 [2535619a] (062/940) Accurately ripped
09 [4cdd1253] (061/941) Accurately ripped
10 [392c6f80] (062/939) Accurately ripped
11 [6991f2b4] (061/941) Accurately ripped
12 [79850b08] (061/943) Accurately ripped
13 [c1d3a1ff] (060/931) Accurately ripped
14 [577efe87] (061/933) Accurately ripped
15 [5a4d87a0] (060/932) Accurately ripped
Offsetted by 1309:
01 [39589135] (054/938) Accurately ripped
02 [09c28124] (055/941) Accurately ripped
03 [04c67179] (055/943) Accurately ripped
04 [b4fc0f45] (055/940) Accurately ripped
05 [e855e65a] (055/940) Accurately ripped
06 [15f1e331] (055/941) Accurately ripped
07 [8a6c8121] (055/942) Accurately ripped
08 [c63d298c] (055/940) Accurately ripped
09 [da3fc3ad] (055/941) Accurately ripped
10 [37ea111e] (055/939) Accurately ripped
11 [7e44af6a] (055/941) Accurately ripped
12 [9c76f05e] (055/943) Accurately ripped
13 [d7c72a43] (054/931) Accurately ripped
14 [e05606b3] (055/933) Accurately ripped
15 [abacd11e] (055/932) Accurately ripped
Offsetted by 1429:
01 [0c9ff0fd] (021/938) Accurately ripped
02 [7fd594a4] (021/941) Accurately ripped
03 [c77151f9] (021/943) Accurately ripped
04 [2424d9bd] (021/940) Accurately ripped
05 [7c573e72] (022/940) Accurately ripped
06 [fc63b511] (020/941) Accurately ripped
07 [48950291] (021/942) Accurately ripped
08 [211384c4] (021/940) Accurately ripped
09 [009bd545] (021/941) Accurately ripped
10 [bbb8e7a6] (021/939) Accurately ripped
11 [cff87d92] (021/941) Accurately ripped
12 [c9500c06] (021/943) Accurately ripped
13 [047b8f33] (021/931) Accurately ripped
14 [a4838803] (021/933) Accurately ripped
15 [af0fd826] (021/932) Accurately ripped
Offsetted by 1559:
01 [dc2d436b] (016/938) Accurately ripped
02 [5514e9c4] (016/941) Accurately ripped
03 [efaa6fd9] (016/943) Accurately ripped
04 [f1e65fbf] (016/940) Accurately ripped
05 [5cae088c] (016/940) Accurately ripped
06 [8b5f0319] (016/941) Accurately ripped
07 [16963975] (016/942) Accurately ripped
08 [ee266796] (016/940) Accurately ripped
09 [3f7f92ff] (016/941) Accurately ripped
10 [ca83a564] (016/939) Accurately ripped
11 [bdd09ce8] (016/941) Accurately ripped
12 [79e5e9fc] (016/943) Accurately ripped
13 [74e9a737] (016/931) Accurately ripped
14 [f90a296f] (016/933) Accurately ripped
15 [32bb1fc4] (016/932) Accurately ripped
Offsetted by 1624:
01 [c3f3eca2] (008/938) Accurately ripped
02 [3fb49454] (008/941) Accurately ripped
03 [03c6fec9] (008/943) Accurately ripped
04 [58c722c0] (008/940) Accurately ripped
05 [ccd96d99] (008/940) Accurately ripped
06 [d2dcaa1d] (008/941) Accurately ripped
07 [7d96d4e7] (008/942) Accurately ripped
08 [d4afd8ff] (008/940) Accurately ripped
09 [def171dc] (008/941) Accurately ripped
10 [51e90443] (008/939) Accurately ripped
11 [b4bcac93] (008/941) Accurately ripped
12 [d230d8f7] (008/943) Accurately ripped
13 [2d20b339] (008/931) Accurately ripped
14 [a34d7a25] (008/933) Accurately ripped
15 [7490c393] (008/932) Accurately ripped
Offsetted by 1853:
01 [3b68ee15] (002/938) Accurately ripped
02 [a9907324] (002/941) Accurately ripped
03 [9966af79] (003/943) Accurately ripped
04 [68a3e965] (002/940) Accurately ripped
05 [5417b9fa] (002/940) Accurately ripped
06 [4cc2abb1] (002/941) Accurately ripped
07 [b5464361] (002/942) Accurately ripped
08 [d98060ac] (002/940) Accurately ripped
09 [10adf14d] (004/941) Accurately ripped
10 [270b32fe] (003/939) Accurately ripped
11 [12c922ca] (004/941) Accurately ripped
12 [34936dbe] (004/943) Accurately ripped
13 [d5a39e83] (003/931) Accurately ripped
14 [59acd973] (003/933) Accurately ripped
15 [54a0f0fe] (003/932) Accurately ripped
Offsetted by 1870:
01 [9b7970fc] (039/938) Accurately ripped
02 [fe8ee2b4] (039/941) Accurately ripped
03 [c60bb169] (039/943) Accurately ripped
04 [d6412836] (038/940) Accurately ripped
05 [ef75c897] (039/940) Accurately ripped
06 [9e7931f5] (038/941) Accurately ripped
07 [369d1173] (039/942) Accurately ripped
08 [021a7a65] (036/940) Accurately ripped
09 [3a6162ba] (039/941) Accurately ripped
10 [46843c0d] (036/939) Accurately ripped
11 [4f6d4665] (036/941) Accurately ripped
12 [e15451a9] (039/943) Accurately ripped
13 [15928225] (038/931) Accurately ripped
14 [b5779009] (038/933) Accurately ripped
15 [61e891fd] (038/932) Accurately ripped
Offsetted by 2132:
01 [a03bacc6] (006/938) Accurately ripped
02 [ef499a14] (006/941) Accurately ripped
03 [2acd9309] (006/943) Accurately ripped
04 [517c59bc] (006/940) Accurately ripped
05 [59014065] (006/940) Accurately ripped
06 [11581a0d] (006/941) Accurately ripped
07 [3c313d1f] (006/942) Accurately ripped
08 [197f8e5b] (006/940) Accurately ripped
09 [bd10cd68] (006/941) Accurately ripped
10 [b318e5c7] (006/939) Accurately ripped
11 [7d8b2ee7] (006/941) Accurately ripped
12 [29a5ce0b] (006/943) Accurately ripped
13 [d0c70931] (006/931) Accurately ripped
14 [e1c9d94d] (006/933) Accurately ripped
15 [b61a6157] (006/932) Accurately ripped
Offsetted by 2438:
01 [6164e104] (006/938) Accurately ripped
02 [e92d7234] (006/941) Accurately ripped
03 [4e67b5e9] (006/943) Accurately ripped
04 [068ac46e] (006/940) Accurately ripped
05 [459e476f] (006/940) Accurately ripped
06 [d02d8ad5] (006/941) Accurately ripped
07 [544bba63] (006/942) Accurately ripped
08 [f4555d5d] (006/940) Accurately ripped
09 [abaec712] (006/941) Accurately ripped
10 [e99b88d5] (006/939) Accurately ripped
11 [c115afcd] (006/941) Accurately ripped
12 [4f35d491] (006/943) Accurately ripped
13 [4f930a95] (006/931) Accurately ripped
14 [560aafd9] (006/933) Accurately ripped
15 [a523b345] (006/932) Accurately ripped
Offsetted by 2608:
01 [2209fe0a] (013/938) Accurately ripped
02 [3b1dcdd4] (013/941) Accurately ripped
03 [0cd9c949] (013/943) Accurately ripped
04 [4eaf3898] (013/940) Accurately ripped
05 [574ad991] (013/940) Accurately ripped
06 [014ec97d] (013/941) Accurately ripped
07 [61afc717] (013/942) Accurately ripped
08 [8a5a5e97] (013/940) Accurately ripped
09 [4cb13554] (013/941) Accurately ripped
10 [2455e36b] (013/939) Accurately ripped
11 [1f7f13db] (013/941) Accurately ripped
12 [0ebebbbf] (013/943) Accurately ripped
13 [cee7eee9] (013/931) Accurately ripped
14 [ebf5d1b5] (013/933) Accurately ripped
15 [29effd3b] (013/932) Accurately ripped
Offsetted by 483:
01 [39fa133f] (000/938) No match (V2 was not tested)
02 [bae15484] (000/941) No match (V2 was not tested)
03 [4047d719] (000/943) No match (V2 was not tested)
04 [c8e78c8b] (000/940) No match (V2 was not tested)
05 [7a5db6e8] (000/940) No match (V2 was not tested)
06 [1b2f3a49] (000/941) No match (V2 was not tested)
07 [3a4d284d] (000/942) No match (V2 was not tested)
08 [b71bcf42] (000/940) No match (V2 was not tested)
09 [f012d31b] (000/941) No match (V2 was not tested)
10 [c63c7718] (000/939) No match (V2 was not tested)
11 [8359b12c] (000/941) No match (V2 was not tested)
12 [b48f7200] (000/943) No match (V2 was not tested)
13 [9742c8cf] (000/931) No match (V2 was not tested)
14 [19faaa77] (000/933) No match (V2 was not tested)
15 [adf660b8] (000/932) No match (V2 was not tested)
Offsetted by 785:
01 [2fd419a1] (002/938) Accurately ripped
02 [284d1264] (002/941) Accurately ripped
03 [3b42ae39] (003/943) Accurately ripped
04 [be85ac39] (000/940) No match (V2 was not tested)
05 [153ef6be] (000/940) No match (V2 was not tested)
06 [30341301] (002/941) Accurately ripped
07 [7f4429c9] (000/942) No match (V2 was not tested)
08 [977301a0] (002/940) Accurately ripped
09 [d4e0ee51] (002/941) Accurately ripped
10 [5ec0bdaa] (000/939) No match (V2 was not tested)
11 [2208de66] (002/941) Accurately ripped
12 [0bd3f79a] (000/943) No match (V2 was not tested)
13 [615e1c2b] (003/931) Accurately ripped
14 [87b1742b] (003/933) Accurately ripped
15 [0349326a] (000/932) No match (V2 was not tested)
Offsetted by 943:
01 [8e8bad13] (000/938) No match (V2 was not tested)
02 [d4d51f44] (000/941) No match (V2 was not tested)
03 [7fd6de59] (000/943) No match (V2 was not tested)
04 [c8593f57] (000/940) No match (V2 was not tested)
05 [31b83344] (000/940) No match (V2 was not tested)
06 [63e38979] (000/941) No match (V2 was not tested)
07 [133dc325] (000/942) No match (V2 was not tested)
08 [3dfc2cee] (000/940) No match (V2 was not tested)
09 [5873c137] (000/941) No match (V2 was not tested)
10 [bf8002cc] (000/939) No match (V2 was not tested)
11 [91e04770] (000/941) No match (V2 was not tested)
12 [607a5c04] (000/943) No match (V2 was not tested)
13 [c2a0f667] (000/931) No match (V2 was not tested)
14 [09fe6f7f] (000/933) No match (V2 was not tested)
15 [baf1fbac] (000/932) No match (V2 was not tested)

Track Peak [ CRC32 ] [W/O NULL] [ LOG ]
– 98,8 [099A4D21] [E1D7C923] CRC32
01 98,8 [BB70572E] [AA247F0F]
02 98,4 [C68E3B23] [15D218FD]
03 98,8 [E7871F29] [EB21ACF2]
04 98,8 [4216941A] [21C9B8F3]
05 98,8 [A44A1D43] [3857108B]
06 98,8 [514BE94E] [D8590280]
07 88,9 [B2D7119F] [0A783BCC]
08 90,6 [99614EF7] [B531F696]
09 98,8 [C370CFED] [EBA6A44C]
10 98,8 [E963A4C2] [C3CC196E]
11 98,8 [F41A49B8] [CC49CB86]
12 98,0 [B5C9EFEC] [8598507E]
13 92,9 [D8759CCC] [59C986BC]
14 71,3 [45DD533D] [1BC83094]
15 88,8 [397D5DBA] [355DF8D5]


Simon & Garfunkel - Wednesday Morning, 3 A.M. (1964)

All thanks go to snakesharmer

Simon & Garfunkel in my Blog

Download Simon & Garfunkel - Wednesday Morning, 3 A.M. (1964):