Tags
Language
Tags

Simon Steensland - 25 Years Of Minimum R&B (2017)

Posted By: gribovar
Simon Steensland - 25 Years Of Minimum R&B (2017)

Simon Steensland - 25 Years Of Minimum R&B (2017)
EAC Rip | FLAC (tracks+.cue+log) - 821 MB | MP3 CBR 320 kbps (LAME 3.93) - 340 MB | Covers - 131 MB
Genre: Avant-Prog | RAR 3% Rec. | Label: AltrOck Productions (ALT054)

25 years of activity, an original artist, sincere and inspired. A Nordic-inspired poetry that finds its soundness in search of sound, in the company of many musicians / companions Simon, tells us, in this volume, a unique artistic journey that varies between Rock, Contemporary, Jazz, Chamberlain. Becoming an icon of the RIO movement between the 90s and 2000s, Steensland proposes two discs, one that collects a collection of pieces of his first period on CD, which has long been completely out of stock, along with a second record in which they appear Totally unpublished pieces. A distillate of Simon's musical world, a new incredible sound experience.
CD 1 Tracklist:
01. Psychlone
02. Yes / Even Johnny Franklinztein
03. Alexandra
04. Zombies & Windmills
05. The Dance Itself
06. Hemlighetsfullt
07. Another Badluck Tango
08. Gang-Gang
09. Before We Can Drown
10. Angels Without Eyes
11. Panterjakt
12. Parade
13. Regn
14. The Opera

Total time: 01:14:28

CD 2 Tracklist:
01. Sketch 1 Of Jan Jösta
02. Koda For Kane
03. The Wooden Panther
04. KoKo
05. Invisible (for as)
06. Is It You Then?
07. Vertigo
08. Tollkarlen
09. Floating (Live)
10. Welcome!
11. Påskmiddagen
12. Das Blues
13. Parade (Live)
14. The Sinking Psalm
15. Snow Angel
16. Lûxopisten
17. The Vacuum Panther
18. The Night Before The War
19. Calling Dystopia
20. Orkestern

Total time: 01:07:48

Exact Audio Copy V1.0 beta 3 from 29. August 2011

EAC extraction logfile from 2. August 2017, 21:09

Simon Steensland / 25 Years Minimum R&B (CD1)

Used drive : ATAPI iHAS124 E Adapter: 0 ID: 0

Read mode : Secure
Utilize accurate stream : Yes
Defeat audio cache : Yes
Make use of C2 pointers : No

Read offset correction : 6
Overread into Lead-In and Lead-Out : No
Fill up missing offset samples with silence : Yes
Delete leading and trailing silent blocks : No
Null samples used in CRC calculations : Yes
Used interface : Native Win32 interface for Win NT & 2000
Gap handling : Appended to previous track

Used output format : Internal WAV Routines
Sample format : 44.100 Hz; 16 Bit; Stereo


TOC of the extracted CD

Track | Start | Length | Start sector | End sector
––––––––––––––––––––––––––––-
1 | 0:00.00 | 9:01.26 | 0 | 40600
2 | 9:01.26 | 5:29.66 | 40601 | 65341
3 | 14:31.17 | 3:16.02 | 65342 | 80043
4 | 17:47.19 | 7:51.08 | 80044 | 115376
5 | 25:38.27 | 1:21.61 | 115377 | 121512
6 | 27:00.13 | 2:24.30 | 121513 | 132342
7 | 29:24.43 | 6:28.68 | 132343 | 161510
8 | 35:53.36 | 2:32.44 | 161511 | 172954
9 | 38:26.05 | 13:14.61 | 172955 | 232565
10 | 51:40.66 | 3:39.24 | 232566 | 249014
11 | 55:20.15 | 2:41.48 | 249015 | 261137
12 | 58:01.63 | 11:52.42 | 261138 | 314579
13 | 69:54.30 | 1:12.72 | 314580 | 320051
14 | 71:07.27 | 3:20.74 | 320052 | 335125


Track 1

Filename C:\_EAC\01. Psychlone.wav

Pre-gap length 0:00:02.00

Peak level 98.9 %
Extraction speed 1.3 X
Track quality 100.0 %
Test CRC 7FD5B3E5
Copy CRC 7FD5B3E5
Track not present in AccurateRip database
Copy OK

Track 2

Filename C:\_EAC\02. Yes _ Even Johnny Franklinztein.wav

Peak level 98.9 %
Extraction speed 1.4 X
Track quality 100.0 %
Test CRC DCDEFAFF
Copy CRC DCDEFAFF
Track not present in AccurateRip database
Copy OK

Track 3

Filename C:\_EAC\03. Alexandra.wav

Peak level 98.9 %
Extraction speed 1.4 X
Track quality 100.0 %
Test CRC B7B2306A
Copy CRC B7B2306A
Track not present in AccurateRip database
Copy OK

Track 4

Filename C:\_EAC\04. Zombies & Windmills.wav

Peak level 98.9 %
Extraction speed 1.6 X
Track quality 99.9 %
Test CRC 17B9748E
Copy CRC 17B9748E
Track not present in AccurateRip database
Copy OK

Track 5

Filename C:\_EAC\05. The Dance Itself.wav

Peak level 98.9 %
Extraction speed 1.3 X
Track quality 100.0 %
Test CRC EE9776BF
Copy CRC EE9776BF
Track not present in AccurateRip database
Copy OK

Track 6

Filename C:\_EAC\06. Hemlighetsfullt.wav

Peak level 98.9 %
Extraction speed 1.3 X
Track quality 99.9 %
Test CRC 2E8BB622
Copy CRC 2E8BB622
Track not present in AccurateRip database
Copy OK

Track 7

Filename C:\_EAC\07. Another Badluck Tango.wav

Peak level 98.9 %
Extraction speed 1.9 X
Track quality 100.0 %
Test CRC 99A5488D
Copy CRC 99A5488D
Track not present in AccurateRip database
Copy OK

Track 8

Filename C:\_EAC\08. Gang-Gang.wav

Peak level 98.9 %
Extraction speed 1.7 X
Track quality 100.0 %
Test CRC 52A8ED14
Copy CRC 52A8ED14
Track not present in AccurateRip database
Copy OK

Track 9

Filename C:\_EAC\09. Before We Can Drown.wav

Peak level 98.9 %
Extraction speed 2.1 X
Track quality 99.9 %
Test CRC CA80EDFF
Copy CRC CA80EDFF
Track not present in AccurateRip database
Copy OK

Track 10

Filename C:\_EAC\10. Angels Without Eyes.wav

Peak level 65.2 %
Extraction speed 2.1 X
Track quality 100.0 %
Test CRC 6691D2DB
Copy CRC 6691D2DB
Track not present in AccurateRip database
Copy OK

Track 11

Filename C:\_EAC\11. Panterjakt.wav

Peak level 98.9 %
Extraction speed 1.7 X
Track quality 99.9 %
Test CRC 25214494
Copy CRC 25214494
Track not present in AccurateRip database
Copy OK

Track 12

Filename C:\_EAC\12. Parade.wav

Peak level 99.0 %
Extraction speed 2.5 X
Track quality 100.0 %
Test CRC E56C7294
Copy CRC E56C7294
Track not present in AccurateRip database
Copy OK

Track 13

Filename C:\_EAC\13. Regn.wav

Peak level 96.6 %
Extraction speed 1.8 X
Track quality 100.0 %
Test CRC A956CEEB
Copy CRC A956CEEB
Track not present in AccurateRip database
Copy OK

Track 14

Filename C:\_EAC\14. The Opera.wav

Peak level 97.8 %
Extraction speed 2.3 X
Track quality 100.0 %
Test CRC C492F37A
Copy CRC C492F37A
Track not present in AccurateRip database
Copy OK


None of the tracks are present in the AccurateRip database

No errors occurred

End of status report

==== Log checksum 27038871D35975F4717C49BC77BD5C48A4C7D06C18F17A91F17A412049EE44DF ====

[CUETools log; Date: 19.03.2021 11:15:04; Version: 2.1.4]
[CTDB TOCID: 4HpgGiAxkon.Xn9fSanpbUusxVI-] found.
Track | CTDB Status
1 | (4/4) Accurately ripped
2 | (4/4) Accurately ripped
3 | (4/4) Accurately ripped
4 | (4/4) Accurately ripped
5 | (4/4) Accurately ripped
6 | (4/4) Accurately ripped
7 | (4/4) Accurately ripped
8 | (4/4) Accurately ripped
9 | (4/4) Accurately ripped
10 | (4/4) Accurately ripped
11 | (4/4) Accurately ripped
12 | (4/4) Accurately ripped
13 | (4/4) Accurately ripped
14 | (4/4) Accurately ripped
[AccurateRip ID: 0027b4b3-01a338ab-be11740e] disk not present in database.

Track Peak [ CRC32 ] [W/O NULL] [ LOG ]
– 99,0 [5102E35E] [63C2EA5D]
01 98,9 [7FD5B3E5] [90E05833] CRC32
02 98,9 [DCDEFAFF] [B81BDDA4] CRC32
03 98,9 [B7B2306A] [D6810F64] CRC32
04 98,9 [17B9748E] [F9517752] CRC32
05 98,9 [EE9776BF] [8EFC5F85] CRC32
06 98,9 [2E8BB622] [08A00AEE] CRC32
07 98,9 [99A5488D] [F07F068C] CRC32
08 98,9 [52A8ED14] [C4A3ADB4] CRC32
09 98,9 [CA80EDFF] [80ABF522] CRC32
10 65,2 [6691D2DB] [394FE2C0] CRC32
11 98,9 [25214494] [2A48CB95] CRC32
12 99,0 [E56C7294] [EF8D8085] CRC32
13 96,6 [A956CEEB] [537B121B] CRC32
14 97,8 [C492F37A] [F98B8DE3] CRC32

Exact Audio Copy V1.0 beta 3 from 29. August 2011

EAC extraction logfile from 2. August 2017, 22:46

Simon Steensland / 25 Years Minimum R&B (CD2)

Used drive : ATAPI iHAS124 E Adapter: 0 ID: 0

Read mode : Secure
Utilize accurate stream : Yes
Defeat audio cache : Yes
Make use of C2 pointers : No

Read offset correction : 6
Overread into Lead-In and Lead-Out : No
Fill up missing offset samples with silence : Yes
Delete leading and trailing silent blocks : No
Null samples used in CRC calculations : Yes
Used interface : Native Win32 interface for Win NT & 2000
Gap handling : Appended to previous track

Used output format : Internal WAV Routines
Sample format : 44.100 Hz; 16 Bit; Stereo


TOC of the extracted CD

Track | Start | Length | Start sector | End sector
––––––––––––––––––––––––––––-
1 | 0:00.00 | 0:33.35 | 0 | 2509
2 | 0:33.35 | 1:45.40 | 2510 | 10424
3 | 2:19.00 | 6:17.22 | 10425 | 38721
4 | 8:36.22 | 5:09.33 | 38722 | 61929
5 | 13:45.55 | 1:46.31 | 61930 | 69910
6 | 15:32.11 | 2:41.07 | 69911 | 81992
7 | 18:13.18 | 2:17.38 | 81993 | 92305
8 | 20:30.56 | 4:00.35 | 92306 | 110340
9 | 24:31.16 | 2:55.00 | 110341 | 123465
10 | 27:26.16 | 0:47.14 | 123466 | 127004
11 | 28:13.30 | 1:25.73 | 127005 | 133452
12 | 29:39.28 | 4:38.43 | 133453 | 154345
13 | 34:17.71 | 3:38.40 | 154346 | 170735
14 | 37:56.36 | 2:04.09 | 170736 | 180044
15 | 40:00.45 | 1:47.71 | 180045 | 188140
16 | 41:48.41 | 1:52.56 | 188141 | 196596
17 | 43:41.22 | 1:59.74 | 196597 | 205595
18 | 45:41.21 | 3:00.40 | 205596 | 219135
19 | 48:41.61 | 4:01.04 | 219136 | 237214
20 | 52:42.65 | 15:06.00 | 237215 | 305164


Track 1

Filename C:\_EAC\01. Sketch 1 Of Jan Jösta.wav

Pre-gap length 0:00:02.00

Peak level 82.0 %
Extraction speed 0.5 X
Track quality 100.0 %
Test CRC 7CA6122C
Copy CRC 7CA6122C
Track not present in AccurateRip database
Copy OK

Track 2

Filename C:\_EAC\02. Koda For Kane.wav

Peak level 98.9 %
Extraction speed 0.8 X
Track quality 100.0 %
Test CRC FB84786E
Copy CRC FB84786E
Track not present in AccurateRip database
Copy OK

Track 3

Filename C:\_EAC\03. The Wooden Panther.wav

Peak level 98.9 %
Extraction speed 1.2 X
Track quality 100.0 %
Test CRC 77F7C982
Copy CRC 77F7C982
Track not present in AccurateRip database
Copy OK

Track 4

Filename C:\_EAC\04. KoKo.wav

Peak level 83.2 %
Extraction speed 1.2 X
Track quality 99.9 %
Test CRC 2B5EB6A4
Copy CRC 2B5EB6A4
Track not present in AccurateRip database
Copy OK

Track 5

Filename C:\_EAC\05. Invisible (for as).wav

Peak level 100.0 %
Extraction speed 1.1 X
Track quality 100.0 %
Test CRC 51F8B86C
Copy CRC 51F8B86C
Track not present in AccurateRip database
Copy OK

Track 6

Filename C:\_EAC\06. Is It You Then_.wav

Peak level 83.0 %
Extraction speed 1.3 X
Track quality 100.0 %
Test CRC 68A1181D
Copy CRC 68A1181D
Track not present in AccurateRip database
Copy OK

Track 7

Filename C:\_EAC\07. Vertigo.wav

Peak level 98.9 %
Extraction speed 1.3 X
Track quality 100.0 %
Test CRC DE96F85D
Copy CRC DE96F85D
Track not present in AccurateRip database
Copy OK

Track 8

Filename C:\_EAC\08. Tollkarlen.wav

Peak level 98.9 %
Extraction speed 1.5 X
Track quality 100.0 %
Test CRC 640AAE0F
Copy CRC 640AAE0F
Track not present in AccurateRip database
Copy OK

Track 9

Filename C:\_EAC\09. Floating (live).wav

Peak level 98.9 %
Extraction speed 1.5 X
Track quality 100.0 %
Test CRC 952F6065
Copy CRC 952F6065
Track not present in AccurateRip database
Copy OK

Track 10

Filename C:\_EAC\10. Welcome!.wav

Peak level 34.9 %
Extraction speed 1.0 X
Track quality 100.0 %
Test CRC CDCC1E47
Copy CRC CDCC1E47
Track not present in AccurateRip database
Copy OK

Track 11

Filename C:\_EAC\11. Påskmiddagen.wav

Peak level 100.0 %
Extraction speed 1.0 X
Track quality 99.8 %
Test CRC 8B2C5A90
Copy CRC 8B2C5A90
Track not present in AccurateRip database
Copy OK

Track 12

Filename C:\_EAC\12. Das Blues.wav

Peak level 98.9 %
Extraction speed 1.5 X
Track quality 99.9 %
Test CRC CE4CE079
Copy CRC CE4CE079
Track not present in AccurateRip database
Copy OK

Track 13

Filename C:\_EAC\13. Parade (live).wav

Peak level 98.9 %
Extraction speed 1.7 X
Track quality 100.0 %
Test CRC B7C54147
Copy CRC B7C54147
Track not present in AccurateRip database
Copy OK

Track 14

Filename C:\_EAC\14. The Sinking Psalm.wav

Peak level 98.9 %
Extraction speed 1.6 X
Track quality 100.0 %
Test CRC 7AFCCFA2
Copy CRC 7AFCCFA2
Track not present in AccurateRip database
Copy OK

Track 15

Filename C:\_EAC\15. Snow Angel.wav

Peak level 83.2 %
Extraction speed 1.5 X
Track quality 100.0 %
Test CRC D7506447
Copy CRC D7506447
Track not present in AccurateRip database
Copy OK

Track 16

Filename C:\_EAC\16. Lûxopisten.wav

Peak level 98.9 %
Extraction speed 1.6 X
Track quality 100.0 %
Test CRC C1EE6E02
Copy CRC C1EE6E02
Track not present in AccurateRip database
Copy OK

Track 17

Filename C:\_EAC\17. The Vacuum Panther.wav

Peak level 98.9 %
Extraction speed 1.6 X
Track quality 100.0 %
Test CRC 413A010C
Copy CRC 413A010C
Track not present in AccurateRip database
Copy OK

Track 18

Filename C:\_EAC\18. The Night Before The War.wav

Peak level 58.2 %
Extraction speed 1.8 X
Track quality 100.0 %
Test CRC 6EC7C61A
Copy CRC 6EC7C61A
Track not present in AccurateRip database
Copy OK

Track 19

Filename C:\_EAC\19. Calling Dystopia.wav

Peak level 98.9 %
Extraction speed 2.0 X
Track quality 100.0 %
Test CRC 4FD5A488
Copy CRC 4FD5A488
Track not present in AccurateRip database
Copy OK

Track 20

Filename C:\_EAC\20. Orkestern.wav

Peak level 80.4 %
Extraction speed 2.3 X
Track quality 99.9 %
Test CRC AFFEDC3B
Copy CRC AFFEDC3B
Track not present in AccurateRip database
Copy OK


None of the tracks are present in the AccurateRip database

No errors occurred

End of status report

==== Log checksum 629F395E65109CB591855A1A4738BB1589FF578BEA1CCBFFD90C62F8687992BD ====

[CUETools log; Date: 19.03.2021 11:18:25; Version: 2.1.4]
[CTDB TOCID: K1Y9cU8Ui_cI1qZUGKG4vZreFM8-] found.
Track | CTDB Status
1 | (4/4) Accurately ripped
2 | (4/4) Accurately ripped
3 | (4/4) Accurately ripped
4 | (4/4) Accurately ripped
5 | (4/4) Accurately ripped
6 | (4/4) Accurately ripped
7 | (4/4) Accurately ripped
8 | (4/4) Accurately ripped
9 | (4/4) Accurately ripped
10 | (4/4) Accurately ripped
11 | (4/4) Accurately ripped
12 | (4/4) Accurately ripped
13 | (4/4) Accurately ripped
14 | (4/4) Accurately ripped
15 | (4/4) Accurately ripped
16 | (4/4) Accurately ripped
17 | (4/4) Accurately ripped
18 | (4/4) Accurately ripped
19 | (4/4) Accurately ripped
20 | (4/4) Accurately ripped
[AccurateRip ID: 0029562f-02613876-0d0fe414] disk not present in database.

Track Peak [ CRC32 ] [W/O NULL] [ LOG ]
– 100,0 [7EE2642F] [6CF6E65B]
01 82,0 [7CA6122C] [7BE14ABE] CRC32
02 98,9 [FB84786E] [6F30CBE9] CRC32
03 98,9 [77F7C982] [15CD17DB] CRC32
04 83,2 [2B5EB6A4] [F99A486C] CRC32
05 100,0 [51F8B86C] [24BA7B3C] CRC32
06 83,0 [68A1181D] [1009C369] CRC32
07 98,9 [DE96F85D] [51482B53] CRC32
08 98,9 [640AAE0F] [BBD56E1A] CRC32
09 98,9 [952F6065] [0C0D8C9D] CRC32
10 34,9 [CDCC1E47] [A25417AA] CRC32
11 99,9 [8B2C5A90] [6B5971E2] CRC32
12 98,9 [CE4CE079] [59A3C2F3] CRC32
13 98,9 [B7C54147] [9D1DDA51] CRC32
14 98,9 [7AFCCFA2] [66B1A3B9] CRC32
15 83,2 [D7506447] [E7C0190A] CRC32
16 98,9 [C1EE6E02] [E994E58A] CRC32
17 98,9 [413A010C] [6314D83F] CRC32
18 58,2 [6EC7C61A] [8D8B4B11] CRC32
19 98,9 [4FD5A488] [18A6C668] CRC32
20 80,4 [AFFEDC3B] [14817D69] CRC32

Thanks to vp_sunset