Tags
Language
Tags

Sincerely Antique - Sincerely Antique (1973) {Reissue}

Posted By: popsakov
Sincerely Antique - Sincerely Antique (1973) {Reissue}

Sincerely Antique - Sincerely Antique (1973) {Reissue}
EAC Rip | FLAC (Img) + Cue + Log ~ 263 Mb | MP3 CBR320 ~ 106 Mb
Scans Included | 00:37:02 | RAR 5% Recovery
Psychedelic Rock, Garage Rock, Fusion, Latin | Funny #CD-502

Antiques, also known as "Antique Sorcery", the first Cuban-American crossover band of the 1970s to have hits on the radio is finally back with a vengeance. With four albums covering a decade of music, the group provides a fusion of funk and latin-rock.
Sincerely Antique - Sincerely Antique (1973) {Reissue}

Sincerely Antique - Sincerely Antique (1973) {Reissue}


***************

Sincerely Antique - Sincerely Antique (1973) {Reissue}

Track List:

01. Chaucha [2:52]
02. Don't Let Me Down [3:32]
03. Esta Melodia [2:49]
04. Feel It [3:30]
05. Taboo [5:35]
06. Batuka [3:40]
07. Dias Como Hoy [3:40]
08. Crumbs Off The Table [4:42]
09. Tu Me Acotumbraste [3:35]
10. Juntos [3:06]

Exact Audio Copy V1.1 from 23. June 2015

Отчёт EAC об извлечении, выполненном 30. марта 2016, 13:34

Sincerely Antique / Sincerely Antique

Дисковод: ASUS DRW-24B3ST Adapter: 0 ID: 0

Режим чтения : Достоверность
Использование точного потока : Да
Отключение кэша аудио : Да
Использование указателей C2 : Нет

Коррекция смещения при чтении : 6
Способность читать области Lead-in и Lead-out : Нет
Заполнение пропущенных сэмплов тишиной : Да
Удаление блоков с тишиной в начале и конце : Нет
При вычислениях CRC использовались нулевые сэмплы : Да
Интерфейс : Установленный внешний ASPI-интерфейс

Выходной формат : Пользовательский кодировщик
Выбранный битрейт : 1024 kBit/s
Качество : Высокий
Добавление ID3-тега : Нет
Утилита сжатия : C:\Program Files (x86)\Exact Audio Copy\FLAC\FLAC.EXE
Дополнительные параметры : -6 -V -T "ARTIST=%artist%" -T "TITLE=%title%" -T "ALBUM=%albumtitle%" -T "DATE=%year%" -T "TRACKNUMBER=%tracknr%" -T "GENRE=%genre%" -T "COMMENT=%comment%" -T "BAND=%albuminterpret%" -T "ALBUMARTIST=%albuminterpret%" -T "COMPOSER=%composer%" %haslyrics%–tag-from-file=LYRICS="%lyricsfile%"%haslyrics% -T "DISCNUMBER=%cdnumber%" -T "TOTALDISCS=%totalcds%" -T "TOTALTRACKS=%numtracks%" %hascover%–picture="%coverfile%"%hascover% %source% -o %dest%


TOC извлечённого CD

Трек | Старт | Длительность | Начальный сектор | Конечный сектор
––––––––––––––––––––––––––––––––––-
1 | 0:00.00 | 2:52.15 | 0 | 12914
2 | 2:52.15 | 3:32.12 | 12915 | 28826
3 | 6:24.27 | 2:49.28 | 28827 | 41529
4 | 9:13.55 | 3:29.47 | 41530 | 57251
5 | 12:43.27 | 5:35.13 | 57252 | 82389
6 | 18:18.40 | 3:40.07 | 82390 | 98896
7 | 21:58.47 | 3:39.70 | 98897 | 115391
8 | 25:38.42 | 4:41.70 | 115392 | 136536
9 | 30:20.37 | 3:35.23 | 136537 | 152684
10 | 33:55.60 | 3:05.55 | 152685 | 166614


Характеристики диапазона извлечения и сообщения об ошибках

Выбранный диапазон

Имя файла E:\AUDIO\SINCERELY ANTIQUE - 1973\Sincerely Antique - Sincerely Antique.wav

Пиковый уровень 85.4 %
Скорость извлечения 8.4 X
Качество диапазона 100.0 %
CRC теста 45CB5600
CRC копии 45CB5600
Копирование… OK

Ошибок не произошло

Конец отчёта

==== Контрольная сумма отчёта 7450C09FEF5CC8EA3BAA25C8135F6845318FDAFB555D0F8C04B88C2AF66F393C ====

foobar2000 1.2.6 / Dynamic Range Meter 1.1.1
log date: 2017-08-08 02:14:34

––––––––––––––––––––––––––––––––––––––––
Analyzed: Sincerely Antique / Sincerely Antique
––––––––––––––––––––––––––––––––––––––––

DR Peak RMS Duration Track
––––––––––––––––––––––––––––––––––––––––
DR10 -2.05 dB -14.49 dB 2:52 01-Chaucha
DR9 -1.67 dB -12.59 dB 3:32 02-Don't Let Me Down
DR9 -1.99 dB -11.94 dB 2:49 03-Esta Melodia
DR8 -1.87 dB -11.89 dB 3:30 04-Feel It
DR9 -1.95 dB -11.90 dB 5:35 05-Taboo
DR9 -2.06 dB -12.53 dB 3:40 06-Batuka
DR8 -1.93 dB -12.75 dB 3:40 07-Dias Como Hoy
DR8 -1.83 dB -11.80 dB 4:42 08-Crumbs Off The Table
DR8 -1.89 dB -13.70 dB 3:35 09-Tu Me Acotumbraste
DR8 -1.36 dB -10.85 dB 3:06 10-Juntos
––––––––––––––––––––––––––––––––––––––––

Number of tracks: 10
Official DR value: DR9

Samplerate: 44100 Hz
Channels: 2
Bits per sample: 16
Bitrate: 883 kbps
Codec: FLAC
================================================================================

[CUETools log; Date: 08.08.2017 2:14:36; Version: 2.1.5]
[CTDB TOCID: HfXuFSsZbJiGJPon1fWs4q8k2iM-] disk not present in database.
[AccurateRip ID: 000da070-006ed2af-6b08ad0a] disk not present in database.

Track Peak [ CRC32 ] [W/O NULL] [ LOG ]
– 85,4 [45CB5600] [5C74B34D] CRC32
01 78,9 [09EF8F94] [942B0E2E]
02 82,4 [AEBB03F2] [E497C88D]
03 79,5 [8B02E22D] [226731CC]
04 80,6 [F0A255E5] [8A2C867A]
05 79,8 [45E139BD] [47D90B89]
06 78,8 [FDC532A7] [0F93B815]
07 80,0 [A0359ECD] [70E9405B]
08 81,0 [C7B7B7E7] [A5A9ACE6]
09 80,4 [CB168BAA] [21DCAB7D]
10 85,4 [0E80C537] [8A599239]

Sincerely Antique - Sincerely Antique (1973) {Reissue}


All thanks go to markav10

>>> My Blog <<<

DOWNLOAD: