Subcategories

Slayer - The Repentless Killogy (2019) [2CD + Blu-ray 1080p + BDRip 1080p]

Posted By: v3122
Slayer - The Repentless Killogy (2019) [2CD + Blu-ray 1080p + BDRip 1080p]

Slayer - The Repentless Killogy (2019)
EAC | Flac(Image) + Cue + Log & MP3 CBR 320Kbps
2CD | Nuclear Blast, 27361 41962 | ~ or Mb | Artwork(jpg) -> Mb
Blu-ray: MPEG-4 AVC, 1080p, 24 fps, 16:9, High Profile 4.1 | LPCM 2.0
BDRip: AVC, 1920x1080 (16:9), 24.000 fps | PCM, 48.0 kHz, 2 ch, 1 536 kb/s
Speed / Thrash Metal

Revenge, murder, bloodshed, and retribution, the Slayer Repentless Killogy is a perfectly packaged story reflecting these values that most look down upon. This is the story of Wyatt who used to run with the wrong crowd. Wyatt is a former Neo Nazi associated with a gang known as “The Hand Brotherhood” whose signature mark is a bloody handprint left after a murder had taken place. Wyatt left his gang after he fell in love with Gina, a woman who saved his life after a brush with death from those who wanted revenge on him and his gang. Wyatt and Gina go into hiding to start a family and escape his tarnished past. The Hand Brotherhood are not going to let this happen. The Repentless Killogy Short Film is the combination of music videos from Slayer’s last full-length release “Repentless”, threaded through a film narrative that ends with Slayer performing a sold-out show at Los Angeles’ iconic Forum. The 2-cd & vinyl formats “The Repentless Killogy (Live at The Forum in Inglewood, CA)” contain the entirety of the concert, consisting of 21 tracks
Slayer - The Repentless Killogy (2019) [2CD + Blu-ray 1080p + BDRip 1080p]

Slayer - The Repentless Killogy (2019):

Slayer - The Repentless Killogy (2019) [2CD + Blu-ray 1080p + BDRip 1080p]

Tracklist CD1:

01. Delusions Of Saviour
02. Repentless
03. The Antichrist
04. Disciple
05. Postmortem
06. Hate Worldwide
07. War Ensemble
08. When The Stillness Comes
09. You Against You
10. Mandatory Suicide
11. Hallowed Point
12. Dead Skin Mask

Exact Audio Copy V1.3 from 2. September 2016

EAC extraction logfile from 16. November 2019, 14:26

Slayer / The Repentless Killogy CD1

Used drive : TSSTcorpBDDVDW SE-506BB Adapter: 0 ID: 0

Read mode : Secure
Utilize accurate stream : Yes
Defeat audio cache : Yes
Make use of C2 pointers : No

Read offset correction : 6
Overread into Lead-In and Lead-Out : No
Fill up missing offset samples with silence : Yes
Delete leading and trailing silent blocks : No
Null samples used in CRC calculations : Yes
Used interface : Installed external ASPI interface

Used output format : User Defined Encoder
Selected bitrate : 768 kBit/s
Quality : High
Add ID3 tag : No
Command line compressor : C:\Misc\WavPack\wavpack.exe
Additional command line options : -h %source%


TOC of the extracted CD

Track | Start | Length | Start sector | End sector
––––––––––––––––––––––––––––-
1 | 0:00.00 | 1:55.27 | 0 | 8651
2 | 1:55.27 | 3:24.44 | 8652 | 23995
3 | 5:19.71 | 3:04.15 | 23996 | 37810
4 | 8:24.11 | 3:49.09 | 37811 | 54994
5 | 12:13.20 | 3:47.19 | 54995 | 72038
6 | 16:00.39 | 5:07.45 | 72039 | 95108
7 | 21:08.09 | 4:57.63 | 95109 | 117446
8 | 26:05.72 | 4:16.10 | 117447 | 136656
9 | 30:22.07 | 4:22.04 | 136657 | 156310
10 | 34:44.11 | 3:58.71 | 156311 | 174231
11 | 38:43.07 | 5:36.16 | 174232 | 199447
12 | 44:19.23 | 4:57.41 | 199448 | 221763


Range status and errors

Selected range

Filename G:\aiko\Slayer - The Repentless Killogy CD1.wav

Peak level 99.9 %
Extraction speed 1.9 X
Range quality 100.0 %
Test CRC 2256D9AF
Copy CRC 2256D9AF
Copy OK

No errors occurred


AccurateRip summary

Track 1 not present in database
Track 2 not present in database
Track 3 not present in database
Track 4 not present in database
Track 5 not present in database
Track 6 not present in database
Track 7 not present in database
Track 8 not present in database
Track 9 not present in database
Track 10 not present in database
Track 11 not present in database
Track 12 not present in database

None of the tracks are present in the AccurateRip database

End of status report

–– CUETools DB Plugin V2.1.6

[CTDB TOCID: SJKT_F.rgyyzkgQFY.TVR317eTY-] found
Submit result: SJKT_F.rgyyzkgQFY.TVR317eTY- has been confirmed
Track | CTDB Status
1 | (28/28) Accurately ripped
2 | (28/28) Accurately ripped
3 | (28/28) Accurately ripped
4 | (28/28) Accurately ripped
5 | (28/28) Accurately ripped
6 | (28/28) Accurately ripped
7 | (28/28) Accurately ripped
8 | (28/28) Accurately ripped
9 | (28/28) Accurately ripped
10 | (28/28) Accurately ripped
11 | (28/28) Accurately ripped
12 | (28/28) Accurately ripped


==== Log checksum BCC9BB007D5B36A511CE5F9E37AE85AED5157F8DA53EE05933FE159C3F068CC5 ====


[CUETools log; Date: 17.11.2019 1:12:05; Version: 2.1.4]
[AccurateRip ID: 0013d01d-00bf5458-930b8c0c] disk not present in database.

Track Peak [ CRC32 ] [W/O NULL] [ LOG ]
– 99,9 [2256D9AF] [CF2EF45A] CRC32
01 95,3 [FCC52B0E] [48D23929]
02 97,9 [68F8CD99] [1DBA6F5D]
03 97,6 [3EAF7FD9] [A4E74387]
04 99,1 [7DEABC6E] [63944814]
05 99,7 [0B62356F] [612BF25A]
06 98,9 [7B6D4929] [7670200C]
07 99,9 [8321819B] [2565C379]
08 98,2 [F11AA383] [CCB945F0]
09 99,4 [A44AC49E] [88F750ED]
10 99,9 [8D195E31] [25D7348C]
11 98,1 [65B03494] [84E92FEA]
12 99,9 [808C5E09] [C45D6F2C]


Slayer - The Repentless Killogy (2019) [2CD + Blu-ray 1080p + BDRip 1080p]

Tracklist CD2:

01. Born Of Fire
02. Cast The First Stone
03. Bloodline
04. Seasons In The Abyss
05. Hell Awaits
06. South Of Heaven
07. Raining Blood
08. Chemical Warfare
09. Angel Of Death

Exact Audio Copy V1.3 from 2. September 2016

EAC extraction logfile from 16. November 2019, 15:29

Slayer / The Repentless Killogy CD2

Used drive : TSSTcorpBDDVDW SE-506BB Adapter: 0 ID: 0

Read mode : Secure
Utilize accurate stream : Yes
Defeat audio cache : Yes
Make use of C2 pointers : No

Read offset correction : 6
Overread into Lead-In and Lead-Out : No
Fill up missing offset samples with silence : Yes
Delete leading and trailing silent blocks : No
Null samples used in CRC calculations : Yes
Used interface : Installed external ASPI interface

Used output format : User Defined Encoder
Selected bitrate : 768 kBit/s
Quality : High
Add ID3 tag : No
Command line compressor : C:\Misc\WavPack\wavpack.exe
Additional command line options : -h %source%


TOC of the extracted CD

Track | Start | Length | Start sector | End sector
––––––––––––––––––––––––––––-
1 | 0:00.00 | 3:21.21 | 0 | 15095
2 | 3:21.21 | 3:44.39 | 15096 | 31934
3 | 7:05.60 | 3:46.29 | 31935 | 48913
4 | 10:52.14 | 5:51.09 | 48914 | 75247
5 | 16:43.23 | 5:21.72 | 75248 | 99394
6 | 22:05.20 | 5:24.26 | 99395 | 123720
7 | 27:29.46 | 3:32.53 | 123721 | 139673
8 | 31:02.24 | 5:26.45 | 139674 | 164168
9 | 36:28.69 | 5:53.28 | 164169 | 190671


Range status and errors

Selected range

Filename G:\aiko\Slayer - The Repentless Killogy CD2.wav

Peak level 100.0 %
Extraction speed 1.8 X
Range quality 100.0 %
Test CRC C3A75B92
Copy CRC C3A75B92
Copy OK

No errors occurred


AccurateRip summary

Track 1 not present in database
Track 2 not present in database
Track 3 not present in database
Track 4 not present in database
Track 5 not present in database
Track 6 not present in database
Track 7 not present in database
Track 8 not present in database
Track 9 not present in database

None of the tracks are present in the AccurateRip database

End of status report

–– CUETools DB Plugin V2.1.6

[CTDB TOCID: V5wJ2SthXCIvhqu_PoixEeT1FNA-] found
Submit result: V5wJ2SthXCIvhqu_PoixEeT1FNA- has been confirmed
Track | CTDB Status
1 | (29/29) Accurately ripped
2 | (29/29) Accurately ripped
3 | (29/29) Accurately ripped
4 | (29/29) Accurately ripped
5 | (29/29) Accurately ripped
6 | (29/29) Accurately ripped
7 | (29/29) Accurately ripped
8 | (29/29) Accurately ripped
9 | (29/29) Accurately ripped


==== Log checksum 3CD2CA750E3F9774E652E075EB4D03D5F49AC60DACB34C28A83A0BDF0E5BC084 ====


[CUETools log; Date: 17.11.2019 1:17:28; Version: 2.1.4]
[AccurateRip ID: 000d8ff8-0065a738-6209ee09] disk not present in database.

Track Peak [ CRC32 ] [W/O NULL] [ LOG ]
– 100,0 [C3A75B92] [B6CD92C7] CRC32
01 98,6 [EA777AA0] [F8415A94]
02 100,0 [D4E8D332] [1400B37C]
03 99,1 [F3422669] [75A28C3F]
04 98,7 [50CE3014] [326CB254]
05 98,5 [09C2C09D] [1185F360]
06 100,0 [607CF75C] [A695C399]
07 99,9 [BFD09BC9] [7D8919F8]
08 98,9 [4DFF2D07] [F27397FB]
09 99,8 [C643BCFB] [BC9C980B]


Slayer - The Repentless Killogy (2019) [2CD + Blu-ray 1080p + BDRip 1080p]

Tracklist BD & BDRip:

1. A Lone Burial
2. You Against You
3. Repentless
4. Pride In Prejudice
5. The Hand Brotherhood
6. Poor Richard
7. David's Heart
8. Elizabeth
9. William's Winch
10. The Angel
11. There You Are Luther
12. Denouement
13. Credits
Live at The Forum in Inglewood, CA
14. Delusions Of Saviour / Repentless
15. The Antichrist
16. Disciple
17. Post Mortem
18. Hate Worldwide
19. War Ensemble
20. When The Stillness Comes
21. You Against You
22. Mandatory Suicide
23. Hallowed Point
24. Dead Skin Mask
25. Born Of Fire
26. Cast The First Stone
27. Bloodline
28. Seasons In The Abyss
29. Hell Awaits
30. South Of Heaven
31. Raining Blood
32. Chemical Warfare
33. Angel Of Death
+
Repentless Animation [00:06:59]

Disc Title: Slayer 2019 - The Repentless Killogy
Disc Size: 23 995 087 183 bytes
Protection: AACS
BD-Java: Yes
BDInfo: 0.7.3.3

Notes:

BDINFO HOME:
Cinema Squid
http://www.cinemasquid.com/blu-ray/tools/bdinfo

INCLUDES FORUMS REPORT FOR:
AVS Forum Blu-ray Audio and Video Specifications Thread
http://www.avsforum.com/avs-vb/showthread.php?t=1155731

WARNING: Report is incomplete because: Scan has not been run.

********************
PLAYLIST: 01003.MPLS
********************

<–- BEGIN FORUMS PASTE –->
                                                                                                                Total   Video                                             
Title                                                           Codec   Length  Movie Size      Disc Size       Bitrate Bitrate Main Audio Track                          Secondary Audio Track
-----                                                           ------  ------- --------------  --------------  ------- ------- ------------------                        ---------------------
01003.MPLS                                                      AVC     2:10:44 0               23 995 087 183  0,00    0,00    LPCM 2.0 1536Kbps (48kHz/16-bit)          

DISC INFO:

Disc Title:     Slayer 2019 - The Repentless Killogy
Disc Size:      23 995 087 183 bytes
Protection:     AACS
BD-Java:        Yes
BDInfo:         0.7.3.3

PLAYLIST REPORT:

Name:                   01003.MPLS
Length:                 2:10:44.083 (h:m:s.ms)
Size:                   0 bytes
Total Bitrate:          0,00 Mbps

VIDEO:

Codec                   Bitrate             Description     
-----                   -------             -----------     
MPEG-4 AVC Video        0 kbps              1080p / 24 fps / 16:9 / High Profile 4.1

AUDIO:

Codec                           Language        Bitrate         Description     
-----                           --------        -------         -----------     
LPCM Audio                      Undetermined    1536 kbps       2.0 / 48 kHz / 1536 kbps / 16-bit

FILES:

Name            Time In         Length          Size            Total Bitrate   
----            -------         ------          ----            -------------   
00002.M2TS      0:00:00.000     2:10:43.666     0               0               
00004.M2TS      2:10:43.666     0:00:00.416     0               0               

CHAPTERS:

Number          Time In         Length          Avg Video Rate  Max 1-Sec Rate  Max 1-Sec Time  Max 5-Sec Rate  Max 5-Sec Time  Max 10Sec Rate  Max 10Sec Time  Avg Frame Size  Max Frame Size  Max Frame Time  
------          -------         ------          --------------  --------------  --------------  --------------  --------------  --------------  --------------  --------------  --------------  --------------  
1               0:00:00.000     0:02:13.958     0 kbps          0 kbps          00:00:00.000    0 kbps          00:00:00.000    0 kbps          00:00:00.000    0 bytes         0 bytes         00:00:00.000    
2               0:02:13.958     0:06:48.083     0 kbps          0 kbps          00:00:00.000    0 kbps          00:00:00.000    0 kbps          00:00:00.000    0 bytes         0 bytes         00:00:00.000    
3               0:09:02.041     0:04:13.791     0 kbps          0 kbps          00:00:00.000    0 kbps          00:00:00.000    0 kbps          00:00:00.000    0 bytes         0 bytes         00:00:00.000    
4               0:13:15.833     0:06:04.541     0 kbps          0 kbps          00:00:00.000    0 kbps          00:00:00.000    0 kbps          00:00:00.000    0 bytes         0 bytes         00:00:00.000    
5               0:19:20.375     0:01:52.250     0 kbps          0 kbps          00:00:00.000    0 kbps          00:00:00.000    0 kbps          00:00:00.000    0 bytes         0 bytes         00:00:00.000    
6               0:21:12.625     0:02:10.458     0 kbps          0 kbps          00:00:00.000    0 kbps          00:00:00.000    0 kbps          00:00:00.000    0 bytes         0 bytes         00:00:00.000    
7               0:23:23.083     0:00:55.208     0 kbps          0 kbps          00:00:00.000    0 kbps          00:00:00.000    0 kbps          00:00:00.000    0 bytes         0 bytes         00:00:00.000    
8               0:24:18.291     0:01:44.708     0 kbps          0 kbps          00:00:00.000    0 kbps          00:00:00.000    0 kbps          00:00:00.000    0 bytes         0 bytes         00:00:00.000    
9               0:26:03.000     0:03:20.375     0 kbps          0 kbps          00:00:00.000    0 kbps          00:00:00.000    0 kbps          00:00:00.000    0 bytes         0 bytes         00:00:00.000    
10              0:29:23.375     0:04:34.833     0 kbps          0 kbps          00:00:00.000    0 kbps          00:00:00.000    0 kbps          00:00:00.000    0 bytes         0 bytes         00:00:00.000    
11              0:33:58.208     0:03:08.750     0 kbps          0 kbps          00:00:00.000    0 kbps          00:00:00.000    0 kbps          00:00:00.000    0 bytes         0 bytes         00:00:00.000    
12              0:37:06.958     0:01:28.916     0 kbps          0 kbps          00:00:00.000    0 kbps          00:00:00.000    0 kbps          00:00:00.000    0 bytes         0 bytes         00:00:00.000    
13              0:38:35.875     0:02:03.500     0 kbps          0 kbps          00:00:00.000    0 kbps          00:00:00.000    0 kbps          00:00:00.000    0 bytes         0 bytes         00:00:00.000    
14              0:40:39.375     0:01:52.625     0 kbps          0 kbps          00:00:00.000    0 kbps          00:00:00.000    0 kbps          00:00:00.000    0 bytes         0 bytes         00:00:00.000    
15              0:42:32.000     0:03:26.583     0 kbps          0 kbps          00:00:00.000    0 kbps          00:00:00.000    0 kbps          00:00:00.000    0 bytes         0 bytes         00:00:00.000    
16              0:45:58.583     0:02:49.000     0 kbps          0 kbps          00:00:00.000    0 kbps          00:00:00.000    0 kbps          00:00:00.000    0 bytes         0 bytes         00:00:00.000    
17              0:48:47.583     0:03:34.291     0 kbps          0 kbps          00:00:00.000    0 kbps          00:00:00.000    0 kbps          00:00:00.000    0 bytes         0 bytes         00:00:00.000    
18              0:52:21.875     0:02:52.750     0 kbps          0 kbps          00:00:00.000    0 kbps          00:00:00.000    0 kbps          00:00:00.000    0 bytes         0 bytes         00:00:00.000    
19              0:55:14.625     0:05:40.208     0 kbps          0 kbps          00:00:00.000    0 kbps          00:00:00.000    0 kbps          00:00:00.000    0 bytes         0 bytes         00:00:00.000    
20              1:00:54.833     0:04:50.666     0 kbps          0 kbps          00:00:00.000    0 kbps          00:00:00.000    0 kbps          00:00:00.000    0 bytes         0 bytes         00:00:00.000    
21              1:05:45.500     0:04:11.250     0 kbps          0 kbps          00:00:00.000    0 kbps          00:00:00.000    0 kbps          00:00:00.000    0 bytes         0 bytes         00:00:00.000    
22              1:09:56.750     0:04:11.583     0 kbps          0 kbps          00:00:00.000    0 kbps          00:00:00.000    0 kbps          00:00:00.000    0 bytes         0 bytes         00:00:00.000    
23              1:14:08.333     0:03:58.958     0 kbps          0 kbps          00:00:00.000    0 kbps          00:00:00.000    0 kbps          00:00:00.000    0 bytes         0 bytes         00:00:00.000    
24              1:18:07.291     0:05:07.583     0 kbps          0 kbps          00:00:00.000    0 kbps          00:00:00.000    0 kbps          00:00:00.000    0 bytes         0 bytes         00:00:00.000    
25              1:23:14.875     0:05:03.291     0 kbps          0 kbps          00:00:00.000    0 kbps          00:00:00.000    0 kbps          00:00:00.000    0 bytes         0 bytes         00:00:00.000    
26              1:28:18.166     0:03:10.500     0 kbps          0 kbps          00:00:00.000    0 kbps          00:00:00.000    0 kbps          00:00:00.000    0 bytes         0 bytes         00:00:00.000    
27              1:31:28.666     0:03:33.375     0 kbps          0 kbps          00:00:00.000    0 kbps          00:00:00.000    0 kbps          00:00:00.000    0 bytes         0 bytes         00:00:00.000    
28              1:35:02.041     0:03:26.833     0 kbps          0 kbps          00:00:00.000    0 kbps          00:00:00.000    0 kbps          00:00:00.000    0 bytes         0 bytes         00:00:00.000    
29              1:38:28.875     0:05:51.208     0 kbps          0 kbps          00:00:00.000    0 kbps          00:00:00.000    0 kbps          00:00:00.000    0 bytes         0 bytes         00:00:00.000    
30              1:44:20.083     0:05:00.250     0 kbps          0 kbps          00:00:00.000    0 kbps          00:00:00.000    0 kbps          00:00:00.000    0 bytes         0 bytes         00:00:00.000    
31              1:49:20.333     0:05:38.625     0 kbps          0 kbps          00:00:00.000    0 kbps          00:00:00.000    0 kbps          00:00:00.000    0 bytes         0 bytes         00:00:00.000    
32              1:54:58.958     0:03:17.875     0 kbps          0 kbps          00:00:00.000    0 kbps          00:00:00.000    0 kbps          00:00:00.000    0 bytes         0 bytes         00:00:00.000    
33              1:58:16.833     0:05:14.500     0 kbps          0 kbps          00:00:00.000    0 kbps          00:00:00.000    0 kbps          00:00:00.000    0 bytes         0 bytes         00:00:00.000    
34              2:03:31.333     0:05:18.666     0 kbps          0 kbps          00:00:00.000    0 kbps          00:00:00.000    0 kbps          00:00:00.000    0 bytes         0 bytes         00:00:00.000    
35              2:08:50.000     0:01:54.083     0 kbps          0 kbps          00:00:00.000    0 kbps          00:00:00.000    0 kbps          00:00:00.000    0 bytes         0 bytes         00:00:00.000    

STREAM DIAGNOSTICS:

File            PID             Type            Codec           Language                Seconds                 Bitrate                 Bytes           Packets         
----            ---             ----            -----           --------                --------------          --------------          -------------   -----           
00002.M2TS      4113 (0x1011)   0x1B            AVC                                     0,625                   0                       0               0               
00002.M2TS      4352 (0x1100)   0x80            LPCM            und (Undetermined)      0,625                   0                       0               0               
00004.M2TS      4113 (0x1011)   0x1B            AVC                                     0                       0                       0               0               

<–– END FORUMS PASTE ––>

QUICK SUMMARY:

Disc Title: Slayer 2019 - The Repentless Killogy
Disc Size: 23 995 087 183 bytes
Protection: AACS
BD-Java: Yes
Playlist: 01003.MPLS
Size: 0 bytes
Length: 2:10:44.083
Total Bitrate: 0,00 Mbps
Video: MPEG-4 AVC Video / 0 kbps / 1080p / 24 fps / 16:9 / High Profile 4.1
Audio: Undetermined / LPCM Audio / 2.0 / 48 kHz / 1536 kbps / 16-bit


********************
PLAYLIST: 00002.MPLS
********************

<–- BEGIN FORUMS PASTE –->
                                                                                                                Total   Video                                             
Title                                                           Codec   Length  Movie Size      Disc Size       Bitrate Bitrate Main Audio Track                          Secondary Audio Track
-----                                                           ------  ------- --------------  --------------  ------- ------- ------------------                        ---------------------
00002.MPLS                                                      AVC     2:10:43 0               23 995 087 183  0,00    0,00    LPCM 2.0 1536Kbps (48kHz/16-bit)          

DISC INFO:

Disc Title:     Slayer 2019 - The Repentless Killogy
Disc Size:      23 995 087 183 bytes
Protection:     AACS
BD-Java:        Yes
BDInfo:         0.7.3.3

PLAYLIST REPORT:

Name:                   00002.MPLS
Length:                 2:10:43.666 (h:m:s.ms)
Size:                   0 bytes
Total Bitrate:          0,00 Mbps

VIDEO:

Codec                   Bitrate             Description     
-----                   -------             -----------     
MPEG-4 AVC Video        0 kbps              1080p / 24 fps / 16:9 / High Profile 4.1

AUDIO:

Codec                           Language        Bitrate         Description     
-----                           --------        -------         -----------     
LPCM Audio                      Undetermined    1536 kbps       2.0 / 48 kHz / 1536 kbps / 16-bit

FILES:

Name            Time In         Length          Size            Total Bitrate   
----            -------         ------          ----            -------------   
00002.M2TS      0:00:00.000     2:10:43.666     0               0               

CHAPTERS:

Number          Time In         Length          Avg Video Rate  Max 1-Sec Rate  Max 1-Sec Time  Max 5-Sec Rate  Max 5-Sec Time  Max 10Sec Rate  Max 10Sec Time  Avg Frame Size  Max Frame Size  Max Frame Time  
------          -------         ------          --------------  --------------  --------------  --------------  --------------  --------------  --------------  --------------  --------------  --------------  
1               0:00:00.000     2:10:43.666     0 kbps          0 kbps          00:00:00.000    0 kbps          00:00:00.000    0 kbps          00:00:00.000    0 bytes         0 bytes         00:00:00.000    

STREAM DIAGNOSTICS:

File            PID             Type            Codec           Language                Seconds                 Bitrate                 Bytes           Packets         
----            ---             ----            -----           --------                --------------          --------------          -------------   -----           
00002.M2TS      4113 (0x1011)   0x1B            AVC                                     0,625                   0                       0               0               
00002.M2TS      4352 (0x1100)   0x80            LPCM            und (Undetermined)      0,625                   0                       0               0               

<–– END FORUMS PASTE ––>

QUICK SUMMARY:

Disc Title: Slayer 2019 - The Repentless Killogy
Disc Size: 23 995 087 183 bytes
Protection: AACS
BD-Java: Yes
Playlist: 00002.MPLS
Size: 0 bytes
Length: 2:10:43.666
Total Bitrate: 0,00 Mbps
Video: MPEG-4 AVC Video / 0 kbps / 1080p / 24 fps / 16:9 / High Profile 4.1
Audio: Undetermined / LPCM Audio / 2.0 / 48 kHz / 1536 kbps / 16-bit


********************
PLAYLIST: 01004.MPLS
********************

<–- BEGIN FORUMS PASTE –->
                                                                                                                Total   Video                                             
Title                                                           Codec   Length  Movie Size      Disc Size       Bitrate Bitrate Main Audio Track                          Secondary Audio Track
-----                                                           ------  ------- --------------  --------------  ------- ------- ------------------                        ---------------------
01004.MPLS                                                      AVC     0:07:00 0               23 995 087 183  0,00    0,00    LPCM 2.0 1536Kbps (48kHz/16-bit)          

DISC INFO:

Disc Title:     Slayer 2019 - The Repentless Killogy
Disc Size:      23 995 087 183 bytes
Protection:     AACS
BD-Java:        Yes
BDInfo:         0.7.3.3

PLAYLIST REPORT:

Name:                   01004.MPLS
Length:                 0:07:00.000 (h:m:s.ms)
Size:                   0 bytes
Total Bitrate:          0,00 Mbps

VIDEO:

Codec                   Bitrate             Description     
-----                   -------             -----------     
MPEG-4 AVC Video        0 kbps              1080p / 24 fps / 16:9 / High Profile 4.1

AUDIO:

Codec                           Language        Bitrate         Description     
-----                           --------        -------         -----------     
LPCM Audio                      Undetermined    1536 kbps       2.0 / 48 kHz / 1536 kbps / 16-bit

FILES:

Name            Time In         Length          Size            Total Bitrate   
----            -------         ------          ----            -------------   
00003.M2TS      0:00:00.000     0:06:59.583     0               0               
00004.M2TS      0:06:59.583     0:00:00.416     0               0               

CHAPTERS:

Number          Time In         Length          Avg Video Rate  Max 1-Sec Rate  Max 1-Sec Time  Max 5-Sec Rate  Max 5-Sec Time  Max 10Sec Rate  Max 10Sec Time  Avg Frame Size  Max Frame Size  Max Frame Time  
------          -------         ------          --------------  --------------  --------------  --------------  --------------  --------------  --------------  --------------  --------------  --------------  
1               0:00:00.000     0:07:00.000     0 kbps          0 kbps          00:00:00.000    0 kbps          00:00:00.000    0 kbps          00:00:00.000    0 bytes         0 bytes         00:00:00.000    

STREAM DIAGNOSTICS:

File            PID             Type            Codec           Language                Seconds                 Bitrate                 Bytes           Packets         
----            ---             ----            -----           --------                --------------          --------------          -------------   -----           
00003.M2TS      4113 (0x1011)   0x1B            AVC                                     0,625                   0                       0               0               
00003.M2TS      4352 (0x1100)   0x80            LPCM            und (Undetermined)      0,625                   0                       0               0               
00004.M2TS      4113 (0x1011)   0x1B            AVC                                     0                       0                       0               0               

<–– END FORUMS PASTE ––>

QUICK SUMMARY:

Disc Title: Slayer 2019 - The Repentless Killogy
Disc Size: 23 995 087 183 bytes
Protection: AACS
BD-Java: Yes
Playlist: 01004.MPLS
Size: 0 bytes
Length: 0:07:00.000
Total Bitrate: 0,00 Mbps
Video: MPEG-4 AVC Video / 0 kbps / 1080p / 24 fps / 16:9 / High Profile 4.1
Audio: Undetermined / LPCM Audio / 2.0 / 48 kHz / 1536 kbps / 16-bit


********************
PLAYLIST: 00003.MPLS
********************

<–- BEGIN FORUMS PASTE –->
                                                                                                                Total   Video                                             
Title                                                           Codec   Length  Movie Size      Disc Size       Bitrate Bitrate Main Audio Track                          Secondary Audio Track
-----                                                           ------  ------- --------------  --------------  ------- ------- ------------------                        ---------------------
00003.MPLS                                                      AVC     0:06:59 0               23 995 087 183  0,00    0,00    LPCM 2.0 1536Kbps (48kHz/16-bit)          

DISC INFO:

Disc Title:     Slayer 2019 - The Repentless Killogy
Disc Size:      23 995 087 183 bytes
Protection:     AACS
BD-Java:        Yes
BDInfo:         0.7.3.3

PLAYLIST REPORT:

Name:                   00003.MPLS
Length:                 0:06:59.583 (h:m:s.ms)
Size:                   0 bytes
Total Bitrate:          0,00 Mbps

VIDEO:

Codec                   Bitrate             Description     
-----                   -------             -----------     
MPEG-4 AVC Video        0 kbps              1080p / 24 fps / 16:9 / High Profile 4.1

AUDIO:

Codec                           Language        Bitrate         Description     
-----                           --------        -------         -----------     
LPCM Audio                      Undetermined    1536 kbps       2.0 / 48 kHz / 1536 kbps / 16-bit

FILES:

Name            Time In         Length          Size            Total Bitrate   
----            -------         ------          ----            -------------   
00003.M2TS      0:00:00.000     0:06:59.583     0               0               

CHAPTERS:

Number          Time In         Length          Avg Video Rate  Max 1-Sec Rate  Max 1-Sec Time  Max 5-Sec Rate  Max 5-Sec Time  Max 10Sec Rate  Max 10Sec Time  Avg Frame Size  Max Frame Size  Max Frame Time  
------          -------         ------          --------------  --------------  --------------  --------------  --------------  --------------  --------------  --------------  --------------  --------------  
1               0:00:00.000     0:06:59.583     0 kbps          0 kbps          00:00:00.000    0 kbps          00:00:00.000    0 kbps          00:00:00.000    0 bytes         0 bytes         00:00:00.000    

STREAM DIAGNOSTICS:

File            PID             Type            Codec           Language                Seconds                 Bitrate                 Bytes           Packets         
----            ---             ----            -----           --------                --------------          --------------          -------------   -----           
00003.M2TS      4113 (0x1011)   0x1B            AVC                                     0,625                   0                       0               0               
00003.M2TS      4352 (0x1100)   0x80            LPCM            und (Undetermined)      0,625                   0                       0               0               

<–– END FORUMS PASTE ––>

QUICK SUMMARY:

Disc Title: Slayer 2019 - The Repentless Killogy
Disc Size: 23 995 087 183 bytes
Protection: AACS
BD-Java: Yes
Playlist: 00003.MPLS
Size: 0 bytes
Length: 0:06:59.583
Total Bitrate: 0,00 Mbps
Video: MPEG-4 AVC Video / 0 kbps / 1080p / 24 fps / 16:9 / High Profile 4.1
Audio: Undetermined / LPCM Audio / 2.0 / 48 kHz / 1536 kbps / 16-bit


********************
PLAYLIST: 01001.MPLS
********************

<–- BEGIN FORUMS PASTE –->
                                                                                                                Total   Video                                             
Title                                                           Codec   Length  Movie Size      Disc Size       Bitrate Bitrate Main Audio Track                          Secondary Audio Track
-----                                                           ------  ------- --------------  --------------  ------- ------- ------------------                        ---------------------
01001.MPLS                                                      AVC     0:00:45 0               23 995 087 183  0,00    0,00    LPCM 2.0 1536Kbps (48kHz/16-bit)          

DISC INFO:

Disc Title:     Slayer 2019 - The Repentless Killogy
Disc Size:      23 995 087 183 bytes
Protection:     AACS
BD-Java:        Yes
BDInfo:         0.7.3.3

PLAYLIST REPORT:

Name:                   01001.MPLS
Length:                 0:00:45.333 (h:m:s.ms)
Size:                   0 bytes
Total Bitrate:          0,00 Mbps

VIDEO:

Codec                   Bitrate             Description     
-----                   -------             -----------     
MPEG-4 AVC Video        0 kbps              1080p / 24 fps / 16:9 / High Profile 4.1

AUDIO:

Codec                           Language        Bitrate         Description     
-----                           --------        -------         -----------     
LPCM Audio                      Undetermined    1536 kbps       2.0 / 48 kHz / 1536 kbps / 16-bit

FILES:

Name            Time In         Length          Size            Total Bitrate   
----            -------         ------          ----            -------------   
00000.M2TS      0:00:00.000     0:00:44.916     0               0               
00004.M2TS      0:00:44.916     0:00:00.416     0               0               

CHAPTERS:

Number          Time In         Length          Avg Video Rate  Max 1-Sec Rate  Max 1-Sec Time  Max 5-Sec Rate  Max 5-Sec Time  Max 10Sec Rate  Max 10Sec Time  Avg Frame Size  Max Frame Size  Max Frame Time  
------          -------         ------          --------------  --------------  --------------  --------------  --------------  --------------  --------------  --------------  --------------  --------------  
1               0:00:00.000     0:00:45.333     0 kbps          0 kbps          00:00:00.000    0 kbps          00:00:00.000    0 kbps          00:00:00.000    0 bytes         0 bytes         00:00:00.000    

STREAM DIAGNOSTICS:

File            PID             Type            Codec           Language                Seconds                 Bitrate                 Bytes           Packets         
----            ---             ----            -----           --------                --------------          --------------          -------------   -----           
00000.M2TS      4113 (0x1011)   0x1B            AVC                                     0,667                   0                       0               0               
00000.M2TS      4352 (0x1100)   0x80            LPCM            und (Undetermined)      0,667                   0                       0               0               
00004.M2TS      4113 (0x1011)   0x1B            AVC                                     0                       0                       0               0               

<–– END FORUMS PASTE ––>

QUICK SUMMARY:

Disc Title: Slayer 2019 - The Repentless Killogy
Disc Size: 23 995 087 183 bytes
Protection: AACS
BD-Java: Yes
Playlist: 01001.MPLS
Size: 0 bytes
Length: 0:00:45.333
Total Bitrate: 0,00 Mbps
Video: MPEG-4 AVC Video / 0 kbps / 1080p / 24 fps / 16:9 / High Profile 4.1
Audio: Undetermined / LPCM Audio / 2.0 / 48 kHz / 1536 kbps / 16-bit


********************
PLAYLIST: 00000.MPLS
********************

<–- BEGIN FORUMS PASTE –->
                                                                                                                Total   Video                                             
Title                                                           Codec   Length  Movie Size      Disc Size       Bitrate Bitrate Main Audio Track                          Secondary Audio Track
-----                                                           ------  ------- --------------  --------------  ------- ------- ------------------                        ---------------------
00000.MPLS                                                      AVC     0:00:44 0               23 995 087 183  0,00    0,00    LPCM 2.0 1536Kbps (48kHz/16-bit)          

DISC INFO:

Disc Title:     Slayer 2019 - The Repentless Killogy
Disc Size:      23 995 087 183 bytes
Protection:     AACS
BD-Java:        Yes
BDInfo:         0.7.3.3

PLAYLIST REPORT:

Name:                   00000.MPLS
Length:                 0:00:44.916 (h:m:s.ms)
Size:                   0 bytes
Total Bitrate:          0,00 Mbps

VIDEO:

Codec                   Bitrate             Description     
-----                   -------             -----------     
MPEG-4 AVC Video        0 kbps              1080p / 24 fps / 16:9 / High Profile 4.1

AUDIO:

Codec                           Language        Bitrate         Description     
-----                           --------        -------         -----------     
LPCM Audio                      Undetermined    1536 kbps       2.0 / 48 kHz / 1536 kbps / 16-bit

FILES:

Name            Time In         Length          Size            Total Bitrate   
----            -------         ------          ----            -------------   
00000.M2TS      0:00:00.000     0:00:44.916     0               0               

CHAPTERS:

Number          Time In         Length          Avg Video Rate  Max 1-Sec Rate  Max 1-Sec Time  Max 5-Sec Rate  Max 5-Sec Time  Max 10Sec Rate  Max 10Sec Time  Avg Frame Size  Max Frame Size  Max Frame Time  
------          -------         ------          --------------  --------------  --------------  --------------  --------------  --------------  --------------  --------------  --------------  --------------  
1               0:00:00.000     0:00:44.916     0 kbps          0 kbps          00:00:00.000    0 kbps          00:00:00.000    0 kbps          00:00:00.000    0 bytes         0 bytes         00:00:00.000    

STREAM DIAGNOSTICS:

File            PID             Type            Codec           Language                Seconds                 Bitrate                 Bytes           Packets         
----            ---             ----            -----           --------                --------------          --------------          -------------   -----           
00000.M2TS      4113 (0x1011)   0x1B            AVC                                     0,667                   0                       0               0               
00000.M2TS      4352 (0x1100)   0x80            LPCM            und (Undetermined)      0,667                   0                       0               0               

<–– END FORUMS PASTE ––>

QUICK SUMMARY:

Disc Title: Slayer 2019 - The Repentless Killogy
Disc Size: 23 995 087 183 bytes
Protection: AACS
BD-Java: Yes
Playlist: 00000.MPLS
Size: 0 bytes
Length: 0:00:44.916
Total Bitrate: 0,00 Mbps
Video: MPEG-4 AVC Video / 0 kbps / 1080p / 24 fps / 16:9 / High Profile 4.1
Audio: Undetermined / LPCM Audio / 2.0 / 48 kHz / 1536 kbps / 16-bit


********************
PLAYLIST: 00001.MPLS
********************

<–- BEGIN FORUMS PASTE –->
                                                                                                                Total   Video                                             
Title                                                           Codec   Length  Movie Size      Disc Size       Bitrate Bitrate Main Audio Track      			  		   	  			     	 			   		  	   		      		 			  	 			   		  	   		 	 	  		 	 	  	 			   		 	    			  				                     Secondary Audio Track
-----                                                           ------  ------- --------------  --------------  ------- ------- ------------------                        ---------------------
00001.MPLS                                                      AVC     0:01:47 0               23 995 087 183  0,00    0,00    LPCM 2.0 1536Kbps (48kHz/16-bit)          

DISC INFO:

Disc Title:     Slayer 2019 - The Repentless Killogy
Disc Size:      23 995 087 183 bytes
Protection:     AACS
BD-Java:        Yes
BDInfo:         0.7.3.3

PLAYLIST REPORT:

Name:                   00001.MPLS
Length:                 0:01:47.208 (h:m:s.ms)
Size:                   0 bytes
Total Bitrate:          0,00 Mbps

VIDEO:

Codec                   Bitrate             Description     
-----                   -------             -----------     
MPEG-4 AVC Video        0 kbps              1080p / 24 fps / 16:9 / High Profile 4.1

AUDIO:

Codec                           Language        Bitrate         Description     
-----                           --------        -------         -----------     
LPCM Audio                      Undetermined    1536 kbps       2.0 / 48 kHz / 1536 kbps / 16-bit

FILES:

Name            Time In         Length          Size            Total Bitrate   
----            -------         ------          ----            -------------   
00001.M2TS      0:00:00.000     0:01:47.208     0               0               

CHAPTERS:

Number          Time In         Length          Avg Video Rate  Max 1-Sec Rate  Max 1-Sec Time  Max 5-Sec Rate  Max 5-Sec Time  Max 10Sec Rate  Max 10Sec Time  Avg Frame Size  Max Frame Size  Max Frame Time  
------          -------         ------          --------------  --------------  --------------  --------------  --------------  --------------  --------------  --------------  --------------  --------------  
1               0:00:00.000     0:01:47.208     0 kbps          0 kbps          00:00:00.000    0 kbps          00:00:00.000    0 kbps          00:00:00.000    0 bytes         0 bytes         00:00:00.000    

STREAM DIAGNOSTICS:

File            PID             Type            Codec           Language                Seconds                 Bitrate                 Bytes           Packets         
----            ---             ----            -----           --------                --------------          --------------          -------------   -----           
00001.M2TS      4113 (0x1011)   0x1B            AVC                                     0,458                   0                       0               0               
00001.M2TS      4352 (0x1100)   0x80            LPCM            und (Undetermined)      0,458                   0                       0               0               

<–– END FORUMS PASTE ––>

QUICK SUMMARY:

Disc Title: Slayer 2019 - The Repentless Killogy
Disc Size: 23 995 087 183 bytes
Protection: AACS
BD-Java: Yes
Playlist: 00001.MPLS
Size: 0 bytes
Length: 0:01:47.208
Total Bitrate: 0,00 Mbps
Video: MPEG-4 AVC Video / 0 kbps / 1080p / 24 fps / 16:9 / High Profile 4.1
Audio: Undetermined / LPCM Audio / 2.0 / 48 kHz / 1536 kbps / 16-bit


********************
PLAYLIST: 01002.MPLS
********************

<–- BEGIN FORUMS PASTE –->
                                                                                                                Total   Video                                             
Title                                                           Codec   Length  Movie Size      Disc Size       Bitrate Bitrate Main Audio Track                          Secondary Audio Track
-----                                                           ------  ------- --------------  --------------  ------- ------- ------------------                        ---------------------
01002.MPLS                                                      AVC     0:01:47 0               23 995 087 183  0,00    0,00    LPCM 2.0 1536Kbps (48kHz/16-bit)          

DISC INFO:

Disc Title:     Slayer 2019 - The Repentless Killogy
Disc Size:      23 995 087 183 bytes
Protection:     AACS
BD-Java:        Yes
BDInfo:         0.7.3.3

PLAYLIST REPORT:

Name:                   01002.MPLS
Length:                 0:01:47.208 (h:m:s.ms)
Size:                   0 bytes
Total Bitrate:          0,00 Mbps

VIDEO:

Codec                   Bitrate             Description     
-----                   -------             -----------     
MPEG-4 AVC Video        0 kbps              1080p / 24 fps / 16:9 / High Profile 4.1

AUDIO:

Codec                           Language        Bitrate         Description     
-----                           --------        -------         -----------     
LPCM Audio                      Undetermined    1536 kbps       2.0 / 48 kHz / 1536 kbps / 16-bit

FILES:

Name            Time In         Length          Size            Total Bitrate   
----            -------         ------          ----            -------------   
00001.M2TS      0:00:00.000     0:01:47.208     0               0               

CHAPTERS:

Number          Time In         Length          Avg Video Rate  Max 1-Sec Rate  Max 1-Sec Time  Max 5-Sec Rate  Max 5-Sec Time  Max 10Sec Rate  Max 10Sec Time  Avg Frame Size  Max Frame Size  Max Frame Time  
------          -------         ------          --------------  --------------  --------------  --------------  --------------  --------------  --------------  --------------  --------------  --------------  
1               0:00:00.000     0:01:47.208     0 kbps          0 kbps          00:00:00.000    0 kbps          00:00:00.000    0 kbps          00:00:00.000    0 bytes         0 bytes         00:00:00.000    

STREAM DIAGNOSTICS:

File            PID             Type            Codec           Language                Seconds                 Bitrate                 Bytes           Packets         
----            ---             ----            -----           --------                --------------          --------------          -------------   -----           
00001.M2TS      4113 (0x1011)   0x1B            AVC                                     0,458                   0                       0               0               
00001.M2TS      4352 (0x1100)   0x80            LPCM            und (Undetermined)      0,458                   0                       0               0               

<–– END FORUMS PASTE ––>

QUICK SUMMARY:

Disc Title: Slayer 2019 - The Repentless Killogy
Disc Size: 23 995 087 183 bytes
Protection: AACS
BD-Java: Yes
Playlist: 01002.MPLS
Size: 0 bytes
Length: 0:01:47.208
Total Bitrate: 0,00 Mbps
Video: MPEG-4 AVC Video / 0 kbps / 1080p / 24 fps / 16:9 / High Profile 4.1
Audio: Undetermined / LPCM Audio / 2.0 / 48 kHz / 1536 kbps / 16-bit



General
Unique ID : 276505171778581246496471032356353604474 (0xD004F581B87EF9E8B8C439812AABFB7A)
Complete name : E:\Mix\Slayer 2019 - The Repentless Killogy\Slayer.The.Repentless.Killogy.2019.BDRip1080p.mkv
Format : Matroska
Format version : Version 2
File size : 11.4 GiB
Duration : 2h 10mn
Overall bit rate : 12.4 Mbps
Movie name : Slayer: The Repentless Killogy [2019] 1080p BluRay - HJ
Encoded date : UTC 2019-11-13 19:48:18
Writing application : mkvmerge v35.0.0 ('All The Love In The World') 64-bit
Writing library : libebml v1.3.9 + libmatroska v1.5.2
DURATION : 02:10:43.670000000
NUMBER_OF_FRAMES : 250998
NUMBER_OF_BYTES : 1505984640
_STATISTICS_WRITING_APP : mkvmerge v35.0.0 ('All The Love In The World') 64-bit
_STATISTICS_WRITING_DATE_UTC : 2019-11-13 19:48:18
_STATISTICS_TAGS : BPS DURATION NUMBER_OF_FRAMES NUMBER_OF_BYTES

Video
ID : 1
Format : AVC
Format/Info : Advanced Video Codec
Format profile : High@L4.1
Format settings, CABAC : Yes
Format settings, ReFrames : 4 frames
Codec ID : V_MPEG4/ISO/AVC
Duration : 2h 10mn
Width : 1 920 pixels
Height : 1 080 pixels
Display aspect ratio : 16:9
Frame rate mode : Constant
Frame rate : 24.000 fps
Color space : YUV
Chroma subsampling : 4:2:0
Bit depth : 8 bits
Scan type : Progressive
Title : HANDJOB
Writing library : x264 core 157 r2935 545de2f
Encoding settings : cabac=1 / ref=4 / deblock=1:-3:-3 / analyse=0x3:0x133 / me=umh / subme=10 / psy=1 / psy_rd=1.00:0.00 / mixed_ref=1 / me_range=32 / chroma_me=1 / trellis=2 / 8x8dct=1 / cqm=0 / deadzone=21,11 / fast_pskip=0 / chroma_qp_offset=-2 / threads=34 / lookahead_threads=8 / sliced_threads=0 / nr=0 / decimate=0 / interlaced=0 / bluray_compat=0 / constrained_intra=0 / bframes=16 / b_pyramid=2 / b_adapt=2 / b_bias=0 / direct=3 / weightb=1 / open_gop=0 / weightp=2 / keyint=240 / keyint_min=24 / scenecut=40 / intra_refresh=0 / rc_lookahead=60 / rc=crf / mbtree=0 / crf=21.0 / qcomp=0.60 / qpmin=0 / qpmax=69 / qpstep=4 / vbv_maxrate=62500 / vbv_bufsize=78125 / crf_max=0.0 / nal_hrd=none / filler=0 / ip_ratio=1.40 / pb_ratio=1.30 / aq=2:1.00
Language : English
Default : Yes
Forced : No
DURATION : 02:10:43.667000000
NUMBER_OF_FRAMES : 188248
NUMBER_OF_BYTES : 10697998721
_STATISTICS_WRITING_APP : mkvmerge v35.0.0 ('All The Love In The World') 64-bit
_STATISTICS_WRITING_DATE_UTC : 2019-11-13 19:48:18
_STATISTICS_TAGS : BPS DURATION NUMBER_OF_FRAMES NUMBER_OF_BYTES
Color primaries : BT.709
Transfer characteristics : BT.709
Matrix coefficients : BT.709

Audio
ID : 2
Format : PCM
Codec ID : A_PCM/INT/LIT
Duration : 2h 10mn
Bit rate mode : Constant
Channel(s) : 2 channels
Sampling rate : 48.0 KHz
Bit depth : 16 bits
Delay relative to video : -21ms
Title : PCM 2.0 @ 16 bit
Default : Yes
Forced : No

Menu
00:00:00.000 : : 01. A Lone Burial
00:02:13.708 : : 02. You Against You
00:09:02.042 : : 03. Repentless
00:13:15.750 : : 04. Pride In Prejudice
00:19:20.375 : : 05. The Hand Brotherhood
00:21:12.458 : : 06. Poor Richard
00:23:22.875 : : 07. David's Heart
00:24:18.083 : : 08. Elizabeth
00:26:02.875 : : 09. William's Winch
00:29:23.250 : : 10. The Angel
00:33:58.292 : : 11. There You Are Luther
00:37:06.708 : : 12. Denouement
00:38:35.875 : : 13. Credits
00:40:39.375 : : 14. Intro
00:42:31.917 : : 15. Delusions Of Saviour / Repentless
00:45:58.417 : : 16. The Antichrist
00:48:47.542 : : 17. Disciple
00:52:21.875 : : 18. Post Mortem
00:55:14.375 : : 19. Hate Worldwide
01:00:54.542 : : 20. War Ensemble
01:05:45.250 : : 21. When The Stillness Comes
01:09:56.708 : : 22. You Against You
01:14:08.125 : : 23. Mandatory Suicide
01:18:07.250 : : 24. Hallowed Point
01:23:14.625 : : 25. Dead Skin Mask
01:28:18.083 : : 26. Born Of Fire
01:31:28.500 : : 27. Cast The First Stone
01:35:02.042 : : 28. Bloodline
01:38:28.875 : : 29. Seasons In The Abyss
01:44:20.042 : : 30. Hell Awaits
01:49:20.167 : : 31. South Of Heaven
01:54:58.792 : : 32. Raining Blood
01:58:16.792 : : 33. Chemical Warfare
02:03:31.417 : : 34. Angel Of Death
02:08:50.042 : : 35. Credits



Slayer - The Repentless Killogy (2019) [2CD + Blu-ray 1080p + BDRip 1080p]

Slayer - The Repentless Killogy (2019) [2CD + Blu-ray 1080p + BDRip 1080p]

Slayer - The Repentless Killogy (2019) [2CD + Blu-ray 1080p + BDRip 1080p]

Slayer - The Repentless Killogy (2019) [2CD + Blu-ray 1080p + BDRip 1080p]

Slayer - The Repentless Killogy (2019) [2CD + Blu-ray 1080p + BDRip 1080p]

All thanks go to the otiginal releasers

Slayer in my Blog

Download Slayer - The Repentless Killogy (2019):