Subcategories
Tags
Language
Tags

Sleeping Pulse - Under The Same Sky (2014) RE-UP

Posted By: popsakov
Sleeping Pulse - Under The Same Sky (2014) RE-UP

Sleeping Pulse - Under The Same Sky (2014)
EAC Rip | FLAC (Img) + Cue + Log ~ 364 Mb | MP3 CBR320 ~ 147 Mb
Scans Included | RAR 5% Recovery
Progressive Rock, Alternative Rock | Prophecy Productions #PRO164

A multi-faceted, modern Rock album. Sleeping Pulse is the name of the musical collaboration of Mick Moss (Antimatter) and the Portuguese Luís Fazendeiro (Painted Black). While Moss is solely concentrating on lyrics and vocal lines here, all music is penned by Fazendeiro. With their debut "Under The Same Sky", they create a multi-faceted, modern Rock album that deftly covers the range from a solid, progressive backbone to fragile acoustic passages, electronic elements and soulful string arrangements. It was mixed and mastered by Daniel Cardoso (Anathema), who gave the album a clear and nuanced, yet always vibrant sound.

Despite its musical diversity, "Under The Same Sky" appears homogenous at all times thanks to the perfectly staged voice of Mick Moss, who on this album almost certainly delivers his most colourful vocal performance to date. On the textual level, Moss once more deals with the abysses of the human soul and grounds his lyrics on an elaborate concept about sociopathic manipulation.
~ prophecy.de

***************

Sleeping Pulse - Under The Same Sky (2014) RE-UP

Track List:

01. Parasite [05:46]
02. Gagging Order [05:51]
03. Backfire [05:50]
04. The Puppeteer [06:43]
05. Foreign Body [04:53]
06. The Blind Lead The Blind [05:51]
07. Painted Rust [06:24]
08. Noose [05:32]
09. War [06:00]
10. Under The Same Sky [02:18]

Exact Audio Copy V1.0 beta 3 from 29. August 2011

EAC extraction logfile from 17. April 2015, 20:46

Sleeping Pulse / Under The Same Sky

Used drive : PLEXTOR DVDR PX-860A Adapter: 4 ID: 0

Read mode : Secure
Utilize accurate stream : Yes
Defeat audio cache : Yes
Make use of C2 pointers : No

Read offset correction : 96
Overread into Lead-In and Lead-Out : No
Fill up missing offset samples with silence : Yes
Delete leading and trailing silent blocks : No
Null samples used in CRC calculations : Yes
Used interface : Installed external ASPI interface

Used output format : User Defined Encoder
Selected bitrate : 128 kBit/s
Quality : High
Add ID3 tag : Yes
Command line compressor : G:\Program Files (x86)\Exact Audio Copy\Flac\flac.exe
Additional command line options : -V -8 -T "Date=%year%" -T "Genre=%genre%" %source%


TOC of the extracted CD

Track | Start | Length | Start sector | End sector
––––––––––––––––––––––––––––-
1 | 0:00.00 | 5:45.56 | 0 | 25930
2 | 5:45.56 | 5:50.71 | 25931 | 52251
3 | 11:36.52 | 5:49.63 | 52252 | 78489
4 | 17:26.40 | 6:42.72 | 78490 | 108711
5 | 24:09.37 | 4:52.67 | 108712 | 130678
6 | 29:02.29 | 5:50.42 | 130679 | 156970
7 | 34:52.71 | 6:23.14 | 156971 | 185709
8 | 41:16.10 | 5:31.25 | 185710 | 210559
9 | 46:47.35 | 5:59.23 | 210560 | 237507
10 | 52:46.58 | 2:17.55 | 237508 | 247837


Range status and errors

Selected range

Filename D:\MUSIC\Sleeping Pulse - Under The Same Sky.wav

Peak level 100.0 %
Extraction speed 7.7 X
Range quality 100.0 %
Test CRC E4B90003
Copy CRC E4B90003
Copy OK

No errors occurred


AccurateRip summary

Track 1 accurately ripped (confidence 2) [C9FC3A71] (AR v2)
Track 2 accurately ripped (confidence 2) [10DE98F6] (AR v2)
Track 3 accurately ripped (confidence 2) [5B20817C] (AR v2)
Track 4 accurately ripped (confidence 2) [EEA185BB] (AR v2)
Track 5 accurately ripped (confidence 1) [B3885C93] (AR v2)
Track 6 accurately ripped (confidence 2) [F13CE246] (AR v2)
Track 7 accurately ripped (confidence 2) [70F03491] (AR v2)
Track 8 accurately ripped (confidence 2) [2D202D25] (AR v2)
Track 9 accurately ripped (confidence 2) [2CE4FA9C] (AR v2)
Track 10 accurately ripped (confidence 2) [65F297CF] (AR v2)

All tracks accurately ripped

End of status report

==== Log checksum 75657447E832E17280180FBC274C3C5886E806C409C49FD332464C60BA610570 ====

foobar2000 1.2.6 / Dynamic Range Meter 1.1.1
log date: 2015-04-26 15:13:19

––––––––––––––––––––––––––––––––––––––––
Analyzed: Sleeping Pulse / Under The Same Sky
––––––––––––––––––––––––––––––––––––––––

DR Peak RMS Duration Track
––––––––––––––––––––––––––––––––––––––––
DR5 0.00 dB -8.42 dB 5:46 01-Parasite
DR4 0.00 dB -6.72 dB 5:51 02-Gagging Order
DR5 0.00 dB -8.45 dB 5:50 03-Backfire
DR5 0.00 dB -7.54 dB 6:43 04-The Puppeteer
DR5 0.00 dB -7.98 dB 4:53 05-Foreign Body
DR7 0.00 dB -10.93 dB 5:51 06-The Blind Lead The Blind
DR8 -0.41 dB -9.83 dB 6:23 07-Painted Rust
DR5 0.00 dB -6.88 dB 5:31 08-Noose
DR5 0.00 dB -7.83 dB 5:59 09-War
DR12 -0.18 dB -14.60 dB 2:18 10-Under The Same Sky
––––––––––––––––––––––––––––––––––––––––

Number of tracks: 10
Official DR value: DR6

Samplerate: 44100 Hz
Channels: 2
Bits per sample: 16
Bitrate: 845 kbps
Codec: FLAC
================================================================================

[CUETools log; Date: 21.04.2015 14:21:26; Version: 2.1.5]
[CTDB TOCID: aOTAbkwJ4Po4d6lFEPFzeBIqOsk-] found.
Track | CTDB Status
1 | (7/7) Accurately ripped
2 | (7/7) Accurately ripped
3 | (7/7) Accurately ripped
4 | (7/7) Accurately ripped
5 | (7/7) Accurately ripped
6 | (7/7) Accurately ripped
7 | (7/7) Accurately ripped
8 | (7/7) Accurately ripped
9 | (7/7) Accurately ripped
10 | (7/7) Accurately ripped
[AccurateRip ID: 0015e41b-00ae6c74-980ce80a] found.
Track [ CRC | V2 ] Status
01 [6044ccd8|c9fc3a71] (0+2/2) Accurately ripped
02 [6d3a5f6f|10de98f6] (0+2/2) Accurately ripped
03 [e9b8d3b2|5b20817c] (0+2/2) Accurately ripped
04 [b280587d|eea185bb] (0+2/2) Accurately ripped
05 [5118df11|b3885c93] (0+1/2) Accurately ripped
06 [aa0d255e|f13ce246] (0+2/2) Accurately ripped
07 [a72737d1|70f03491] (0+2/2) Accurately ripped
08 [6eb2a828|2d202d25] (0+2/2) Accurately ripped
09 [7a559856|2ce4fa9c] (0+2/2) Accurately ripped
10 [b4b1a639|65f297cf] (0+2/2) Accurately ripped

Track Peak [ CRC32 ] [W/O NULL] [ LOG ]
– 100,0 [E4B90003] [0200DC25] CRC32
01 100,0 [FC409314] [FC27CFC1]
02 100,0 [0A2F3BE6] [7389F188]
03 100,0 [9A65786D] [6DE897B0]
04 100,0 [168EADF8] [5BD04AA0]
05 100,0 [73E30A47] [C450535A]
06 100,0 [ED7F0E8D] [F465B0EC]
07 95,3 [A69EB396] [11C7D243]
08 100,0 [710C9C50] [7E6FBBFD]
09 100,0 [EE316AFD] [71AF5686]
10 97,9 [E48DD39F] [76E15958]

Sleeping Pulse - Under The Same Sky (2014) RE-UP

All thanks go to rd

>>> My Blog <<<

Download from icerbox.com: