Tags
Language
Tags

Smokey Wilson - The Man From Mars (1997)

Posted By: gribovar
Smokey Wilson - The Man From Mars (1997)

Smokey Wilson - The Man From Mars (1997)
EAC Rip | FLAC (tracks+.cue+log) - 444 MB | MP3 CBR 320 kbps (LAME 3.93) - 147 MB | Covers - 19 MB
Genre: Blues | RAR 3% Rec. | Label: Bullseye Blues (CD BB 9581)

This West Coast-based guitarist shines brilliantly on his third album for Bullseye Blues. While some of his earlier locally produced efforts have been uneven affairs, here kudos must go forth to producer and keyboard sideman Ron Levy. Levy keeps Wilson's guitar tone at sting and bite level 10 and his vocals right up front and toasty, surrounding him with a solid rhythm section and spare horn stabs. Eight of the 12 songs here are from Smokey's prolific pen, including "You Don't Drink What I Drink," and the title track, "Too Drunk To Drive," "Don't Tangle With Me," and "Black Widow," winners all. A quartet of covers (Magic Sam's "Easy Baby," Elmore James' "Something Inside Of Me" and a pair of Howlin' Wolf tunes, "Louise" and "44 Blues," with the latter featuring a guest turn from James Harman) rounds out this excellent session. Those who can't get enough of nasty, stinging lead guitar lines would do well to investigate this album.


Tracklist:
01. Thanks For Making Me A Star
02. Something Inside Of Me
03. The Man From Mars
04. 44 Blues
05. Louise
06. Too Drunk To Drive
07. You Don't Drink What I Drink
08. Black Widow
09. Just Like A Mountain
10. Don't Want To Tangle With Me
11. Doctor Blues
12. Easy Baby

Total time: 01:02:38

Exact Audio Copy V1.1 from 23. June 2015

EAC extraction logfile from 16. July 2020, 11:00

Smokey Wilson / The Man From Mars

Used drive : PIONEER DVD-RW DVR-219L Adapter: 1 ID: 0

Read mode : Secure
Utilize accurate stream : Yes
Defeat audio cache : Yes
Make use of C2 pointers : No

Read offset correction : 6
Overread into Lead-In and Lead-Out : No
Fill up missing offset samples with silence : Yes
Delete leading and trailing silent blocks : No
Null samples used in CRC calculations : Yes
Used interface : Native Win32 interface for Win NT & 2000
Gap handling : Appended to previous track

Used output format : User Defined Encoder
Selected bitrate : 768 kBit/s
Quality : High
Add ID3 tag : No
Command line compressor : C:\Install\Exact Audio Copy\FLAC\FLAC.EXE
Additional command line options : -6 -V -T "ARTIST=%artist%" -T "TITLE=%title%" -T "ALBUM=%albumtitle%" -T "DATE=%year%" -T "TRACKNUMBER=%tracknr%" -T "GENRE=%genre%" -T "COMMENT=%comment%" -T "BAND=%albuminterpret%" -T "ALBUMARTIST=%albuminterpret%" -T "COMPOSER=%composer%" %haslyrics%–tag-from-file=LYRICS="%lyricsfile%"%haslyrics% -T "DISCNUMBER=%cdnumber%" -T "TOTALDISCS=%totalcds%" -T "TOTALTRACKS=%numtracks%" %hascover%–picture="%coverfile%"%hascover% %source% -o %dest%


TOC of the extracted CD

Track | Start | Length | Start sector | End sector
––––––––––––––––––––––––––––-
1 | 0:00.00 | 4:43.40 | 0 | 21264
2 | 4:43.40 | 5:07.37 | 21265 | 44326
3 | 9:51.02 | 5:44.35 | 44327 | 70161
4 | 15:35.37 | 4:48.40 | 70162 | 91801
5 | 20:24.02 | 5:06.73 | 91802 | 114824
6 | 25:31.00 | 5:15.72 | 114825 | 138521
7 | 30:46.72 | 4:37.63 | 138522 | 159359
8 | 35:24.60 | 5:48.72 | 159360 | 185531
9 | 41:13.57 | 5:09.03 | 185532 | 208709
10 | 46:22.60 | 4:38.12 | 208710 | 229571
11 | 51:00.72 | 6:07.35 | 229572 | 257131
12 | 57:08.32 | 5:29.63 | 257132 | 281869


Track 1

Filename E:\alexbras\1997 Smokey Wilson - The Man From Mars\01. Thanks for Making Me a Star.wav

Pre-gap length 0:00:02.00

Peak level 97.9 %
Extraction speed 2.3 X
Track quality 99.9 %
Test CRC 98741FCD
Copy CRC 98741FCD
Accurately ripped (confidence 10) [349E6C45] (AR v2)
Copy OK

Track 2

Filename E:\alexbras\1997 Smokey Wilson - The Man From Mars\02. Something Inside of Me.wav

Pre-gap length 0:00:02.13

Peak level 98.0 %
Extraction speed 2.6 X
Track quality 100.0 %
Test CRC 16C9C92B
Copy CRC 16C9C92B
Accurately ripped (confidence 10) [4DB5F72E] (AR v2)
Copy OK

Track 3

Filename E:\alexbras\1997 Smokey Wilson - The Man From Mars\03. The Man From Mars.wav

Pre-gap length 0:00:02.33

Peak level 89.5 %
Extraction speed 2.7 X
Track quality 100.0 %
Test CRC 626F6BBE
Copy CRC 626F6BBE
Accurately ripped (confidence 10) [8B9EE3E9] (AR v2)
Copy OK

Track 4

Filename E:\alexbras\1997 Smokey Wilson - The Man From Mars\04. 44 Blues.wav

Pre-gap length 0:00:01.89

Peak level 95.7 %
Extraction speed 2.6 X
Track quality 100.0 %
Test CRC B9D6A623
Copy CRC B9D6A623
Accurately ripped (confidence 10) [BE92BADF] (AR v2)
Copy OK

Track 5

Filename E:\alexbras\1997 Smokey Wilson - The Man From Mars\05. Louise.wav

Pre-gap length 0:00:02.42

Peak level 97.9 %
Extraction speed 2.6 X
Track quality 100.0 %
Test CRC EED7B88A
Copy CRC EED7B88A
Accurately ripped (confidence 10) [9B1876A0] (AR v2)
Copy OK

Track 6

Filename E:\alexbras\1997 Smokey Wilson - The Man From Mars\06. Too Drunk to Drive.wav

Pre-gap length 0:00:01.97

Peak level 97.9 %
Extraction speed 2.6 X
Track quality 100.0 %
Test CRC 11BC18A0
Copy CRC 11BC18A0
Accurately ripped (confidence 10) [7EE62F00] (AR v2)
Copy OK

Track 7

Filename E:\alexbras\1997 Smokey Wilson - The Man From Mars\07. You Don't Drink What I Drink.wav

Pre-gap length 0:00:02.02

Peak level 98.0 %
Extraction speed 2.3 X
Track quality 100.0 %
Test CRC 5512280A
Copy CRC 5512280A
Accurately ripped (confidence 10) [EF422601] (AR v2)
Copy OK

Track 8

Filename E:\alexbras\1997 Smokey Wilson - The Man From Mars\08. Black Widow.wav

Pre-gap length 0:00:02.20

Peak level 97.9 %
Extraction speed 2.6 X
Track quality 100.0 %
Test CRC 1737B23C
Copy CRC 1737B23C
Accurately ripped (confidence 10) [937C17CF] (AR v2)
Copy OK

Track 9

Filename E:\alexbras\1997 Smokey Wilson - The Man From Mars\09. Just Like a Mountain.wav

Pre-gap length 0:00:03.29

Peak level 97.9 %
Extraction speed 2.5 X
Track quality 100.0 %
Test CRC 787BD971
Copy CRC 787BD971
Accurately ripped (confidence 10) [05E2B49A] (AR v2)
Copy OK

Track 10

Filename E:\alexbras\1997 Smokey Wilson - The Man From Mars\10. Don't Want to Tangle With Me.wav

Pre-gap length 0:00:02.57

Peak level 97.6 %
Extraction speed 2.6 X
Track quality 100.0 %
Test CRC A8403AC0
Copy CRC A8403AC0
Accurately ripped (confidence 10) [C9F52817] (AR v2)
Copy OK

Track 11

Filename E:\alexbras\1997 Smokey Wilson - The Man From Mars\11. Doctor Blues.wav

Pre-gap length 0:00:02.33

Peak level 98.0 %
Extraction speed 2.6 X
Track quality 100.0 %
Test CRC 5CEDA07B
Copy CRC 5CEDA07B
Accurately ripped (confidence 10) [C2EE00D9] (AR v2)
Copy OK

Track 12

Filename E:\alexbras\1997 Smokey Wilson - The Man From Mars\12. Easy Baby.wav

Pre-gap length 0:00:03.00

Peak level 97.9 %
Extraction speed 2.6 X
Track quality 100.0 %
Test CRC 6C040AC8
Copy CRC 6C040AC8
Accurately ripped (confidence 10) [BD0FD948] (AR v2)
Copy OK


All tracks accurately ripped

No errors occurred

End of status report

–– CUETools DB Plugin V2.1.6

[CTDB TOCID: ggeTFxdAa0yHvHF4UN_hgXmCkXs-] found
Submit result: ggeTFxdAa0yHvHF4UN_hgXmCkXs- has been confirmed
Track | CTDB Status
1 | (11/11) Accurately ripped
2 | (11/11) Accurately ripped
3 | (11/11) Accurately ripped
4 | (11/11) Accurately ripped
5 | (11/11) Accurately ripped
6 | (11/11) Accurately ripped
7 | (11/11) Accurately ripped
8 | (10/11) Accurately ripped
9 | (10/11) Accurately ripped
10 | (10/11) Accurately ripped
11 | (11/11) Accurately ripped
12 | (11/11) Accurately ripped


==== Log checksum 29AE326D3CFB276C25866A70327AE3E722493C0076251B240FA2ED84EEB4A254 ====

[CUETools log; Date: 21.07.2020 22:41:46; Version: 2.1.4]
[CTDB TOCID: ggeTFxdAa0yHvHF4UN_hgXmCkXs-] found.
Track | CTDB Status
1 | (12/12) Accurately ripped
2 | (12/12) Accurately ripped
3 | (12/12) Accurately ripped
4 | (12/12) Accurately ripped
5 | (12/12) Accurately ripped
6 | (12/12) Accurately ripped
7 | (12/12) Accurately ripped
8 | (11/12) Accurately ripped
9 | (11/12) Accurately ripped
10 | (11/12) Accurately ripped
11 | (12/12) Accurately ripped
12 | (12/12) Accurately ripped
[AccurateRip ID: 001b8347-01019458-a80eae0c] found.
Track [ CRC | V2 ] Status
01 [ba9d70b1|349e6c45] (05+10/15) Accurately ripped
02 [ed232e1e|4db5f72e] (05+10/15) Accurately ripped
03 [f3b628f4|8b9ee3e9] (05+10/15) Accurately ripped
04 [de62aa10|be92badf] (05+10/15) Accurately ripped
05 [2ee70ec4|9b1876a0] (05+10/15) Accurately ripped
06 [6e2c2f11|7ee62f00] (05+10/15) Accurately ripped
07 [bf08f083|ef422601] (05+10/15) Accurately ripped
08 [73cd0c27|937c17cf] (05+10/15) Accurately ripped
09 [4c77e045|05e2b49a] (05+10/15) Accurately ripped
10 [40116702|c9f52817] (05+10/15) Accurately ripped
11 [77857e81|c2ee00d9] (05+10/15) Accurately ripped
12 [1263da2c|bd0fd948] (04+10/14) Accurately ripped

Track Peak [ CRC32 ] [W/O NULL] [ LOG ]
– 97,9 [5F700732] [25834254]
01 97,9 [98741FCD] [1108C9A4] CRC32
02 97,9 [16C9C92B] [5278067D] CRC32
03 89,5 [626F6BBE] [0C76FE01] CRC32
04 95,7 [B9D6A623] [41D11AC4] CRC32
05 97,9 [EED7B88A] [5FFA3022] CRC32
06 97,9 [11BC18A0] [C97FB2F2] CRC32
07 97,9 [5512280A] [05A276CB] CRC32
08 97,9 [1737B23C] [D63868E2] CRC32
09 97,9 [787BD971] [515ACD6B] CRC32
10 97,6 [A8403AC0] [2EDEEA0D] CRC32
11 97,9 [5CEDA07B] [C396E143] CRC32
12 97,9 [6C040AC8] [09CBE14F] CRC32

Thanks to pazanenok