Tags
Language
Tags

Smokie Discography. Part1 (1975 - 1982) Re-up

Posted By: v3122
Smokie Discography. Part1 (1975 - 1982) Re-up

Smokie Discography. Part1 (1975 - 1982)
EAC Rip | Flac(Image) + Cue + Log & MP3 CBR 320Kbps
Pop Rock | Ariola / BMG | ~ 2344 or 995 Mb | Scans
9CD | Original Albums

Originally formed in Yorkshire, England, in 1966, Smokie hit the British pop charts several times during the late '70s with updated psychedelic pop, influenced by the band's stay on Mickie Most's Rak Records as well as the writers of most of the band's hit material, Rak's Nicky Chinn and Mike Chapman. Vocalist Chris Norman, bassist Terry Utley, guitarist Alan Silson, and drummer Ron Kelly had played in the Elizabethans, but formed the band Kindness in 1970. The quartet recorded many singles during the late '60s and early '70s, but failed to show any chart activity. By 1973, Kelly had left the band and was replaced by Pete Spencer. In 1975, the band, signed to Rak Records, and billed as Smokey, hit number three in the U.K. with "If You Think You Know How to Love Me." After another Top Ten hit, "Don't Play Your Rock 'n' Roll to Me," Smokey became Smokie; during 1976, the group scored with three Top 20 hits, including the number five "Living Next Door to Alice." Smokie hit number five both in 1977 ("It's Your Life") and 1978 ("Oh Carol"), but the band's chart run ended by early 1980, and following 1982's Midnight Delight, they disbanded. Both Spencer and Norman continued to work at Rak during the '80s, writing hits for several groups; they re-formed Smokie in 1986, resurfacing with the LP My Heart Is True. Two more albums, All Fired Up and Greatest Hits Live, followed, with the group remaining active throughout the '90s, issuing new material as well as a number of hits collections.

by John Bush
Smokie Discography. Part1 (1975 - 1982) Re-up

Ансамбль был создан в 1967 году Крисом Норманом и его друзьями Терри Аттли и Эланом Силсоном, которым в то время было по шестнадцать-семнадцать лет. Это была обычная любительская группа, которых в Британии насчитывалось не меньше тысячи. Но юношеская увлечённость со временем не угасла и привела Smokie на профессиональную сцену.
Ансамбль неоднократно менял названия, первоначально он назывался Elisabethans, в 1973 название изменилось на Kindness. В это же время к группе присоединился талантливый ударник Пит Спенсер. Молодая группа безуспешно пытается добиться контракта с фирмами грамзаписи.
Успех пришёл неожиданно. Во время выступления в лондонском клубе Хэтчетт их услышали известные в мире шоу-бизнеса композиторы Май Чепмен и Ники Чинн, которым понравилась слаженная игра коллектива.
Так на свет появилась группа Smokie. Был подписан контракт с фирмой «РЭК». Песни для ансамбля писали Чинн и Чепмен. В начале 1975 года выходит альбом «Pass It Around», а вскоре после него - «Changing All The Time». Композиции с этих альбомов занимают высокие места в хит-парадах.
Но у внезапного успеха оказалась и другая сторона. Smokie, которые пытались найти свой путь, своё лицо в мире музыки, были вынуждены записывать в основном песни Чинна и Чепмена. На этом настаивала фирма, прекрасно знавшая их коммерческую хватку: почти все их песни становились хитами. Например, Чинн и Чепмен принесли популярность Suzi Quattro и Sweet
~ LastFm
Smokie Discography. Part1 (1975 - 1982):

Smokie Discography. Part1 (1975 - 1982) Re-up

CD02: Smokie - Pass It Around (1975)
EAC Rip | Flac(Image) + Cue + Log) & MP3 CBR 320Kbps
Pop Rock | Ariola / BMG 261030 | ~ 282 or 111 Mb | Scans

Tracklist:

1. Pass It Around
2. Daydreamin'
3. Oh Well, Oh Well
4. My Woman
5. It Makes Me Money
6. Headspin
7. Goin' Tomorrow
8. I Do Declare
9. Don't Turn Out Your Light
10. Will You Love Me
11. A Day At The Mother-In-Law's
12. The Coldest Night
13. Shy Guy

Exact Audio Copy V1.0 beta 3 from 29. August 2011

EAC extraction logfile from 15. August 2013, 19:35

Smokie / Pass It Around

Used drive : SONY BD RW BDX-S600U Adapter: 1 ID: 1

Read mode : Secure
Utilize accurate stream : Yes
Defeat audio cache : Yes
Make use of C2 pointers : No

Read offset correction : 48
Overread into Lead-In and Lead-Out : No
Fill up missing offset samples with silence : Yes
Delete leading and trailing silent blocks : No
Null samples used in CRC calculations : Yes
Used interface : Native Win32 interface for Win NT & 2000

Used output format : User Defined Encoder
Selected bitrate : 128 kBit/s
Quality : High
Add ID3 tag : No
Command line compressor : C:\Program Files (x86)\Exact Audio Copy\Flac\flac.exe
Additional command line options : -V -8 -T "Date=%year%" -T "Genre=%genre%" %source%


TOC of the extracted CD

Track | Start | Length | Start sector | End sector
––––––––––––––––––––––––––––-
1 | 0:00.00 | 3:08.43 | 0 | 14142
2 | 3:08.43 | 2:17.27 | 14143 | 24444
3 | 5:25.70 | 3:17.63 | 24445 | 39282
4 | 8:43.58 | 3:22.55 | 39283 | 54487
5 | 12:06.38 | 2:57.45 | 54488 | 67807
6 | 15:04.08 | 3:32.10 | 67808 | 83717
7 | 18:36.18 | 3:45.20 | 83718 | 100612
8 | 22:21.38 | 3:47.00 | 100613 | 117637
9 | 26:08.38 | 4:01.40 | 117638 | 135752
10 | 30:10.03 | 3:46.07 | 135753 | 152709
11 | 33:56.10 | 2:51.68 | 152710 | 165602
12 | 36:48.03 | 4:16.50 | 165603 | 184852
13 | 41:04.53 | 3:23.60 | 184853 | 200137


Range status and errors

Selected range

Filename D:\Smokie discography\1975. Smokey - Pass It Around\1975. Smokey - Pass It Around (Ariola BMG,261030-217,Germany)\Smokie - Pass It Around.wav

Peak level 99.9 %
Extraction speed 14.0 X
Range quality 100.0 %
Test CRC D3943055
Copy CRC D3943055
Copy OK

No errors occurred


AccurateRip summary

Track 1 accurately ripped (confidence 4) [3333FE4C] (AR v1)
Track 2 accurately ripped (confidence 4) [55A4E7C8] (AR v1)
Track 3 accurately ripped (confidence 4) [707BE6C4] (AR v1)
Track 4 accurately ripped (confidence 4) [514D12B3] (AR v1)
Track 5 accurately ripped (confidence 4) [0B5000D0] (AR v1)
Track 6 accurately ripped (confidence 4) [11982177] (AR v1)
Track 7 accurately ripped (confidence 4) [BB892B0B] (AR v1)
Track 8 accurately ripped (confidence 4) [4C5D56FD] (AR v1)
Track 9 accurately ripped (confidence 4) [F7710EDD] (AR v1)
Track 10 accurately ripped (confidence 4) [DE3B8040] (AR v1)
Track 11 accurately ripped (confidence 4) [E6367D9C] (AR v1)
Track 12 accurately ripped (confidence 4) [D3F53ED7] (AR v1)
Track 13 accurately ripped (confidence 4) [AB9E0A62] (AR v1)

All tracks accurately ripped

End of status report

–– CUETools DB Plugin V2.1.3

[CTDB TOCID: m.c.T6AhHNM8BGUiZ.SCVJtq1Gg-] found, Submit result: m.c.T6AhHNM8BGUiZ.SCVJtq1Gg- has been confirmed
[02450f51] (39/39) Accurately ripped


==== Log checksum AB3E29392C16D6E7491015802D3FA73172891159A6DB5AD7663E33775F8EECD0 ====

AUDIOCHECKER v2.0 beta (build 457) - by Dester - opdester@freemail.hu
~~~~~~~~~~~~~~~~~~~~~~~~~~~~~~~~~~
-=== DO NOT EDIT THIS FILE! ===-

Path: …\1975 - Pass It Around - flac

1 -=- Smokie - Pass It Around.flac -=- CDDA (100%)

83990436

foobar2000 1.1.18 / Dynamic Range Meter 1.1.1
log date: 2013-01-24 05:05:09

––––––––––––––––––––––––––––––––––––––––
Analyzed: Smokie / Pass It Around
––––––––––––––––––––––––––––––––––––––––

DR Peak RMS Duration Track
––––––––––––––––––––––––––––––––––––––––
DR12 -0.10 dB -13.62 dB 3:09 01-Pass It Around
DR12 -0.68 dB -14.21 dB 2:17 02-Daydreamin'
DR13 -0.10 dB -16.74 dB 3:18 03-Oh Well, Oh Well
DR9 -5.80 dB -17.56 dB 3:23 04-My Woman
DR12 -1.43 dB -15.89 dB 2:58 05-It Makes Me Money
DR12 -2.16 dB -16.30 dB 3:32 06-Headspin
DR12 -0.10 dB -13.98 dB 3:45 07-Goin' Tomorrow
DR11 -0.10 dB -13.34 dB 3:47 08-I Do Declare
DR12 -0.01 dB -18.04 dB 4:02 09-Don't Turn Out Your Light
DR13 -0.10 dB -15.05 dB 3:46 10-Will You Love Me
DR13 -0.10 dB -16.78 dB 2:52 11-A Day At The Mother-In-Law's
DR13 -2.67 dB -17.15 dB 4:17 12-The Coldest Night
DR14 -1.61 dB -16.86 dB 3:24 13-Shy Guy
––––––––––––––––––––––––––––––––––––––––

Number of tracks: 13
Official DR value: DR12

Samplerate: 44100 Hz
Channels: 2
Bits per sample: 16
Bitrate: 843 kbps
Codec: FLAC

===========================

Smokie Discography. Part1 (1975 - 1982) Re-up

CD01: Smokie - Changing All The Time (1975)
EAC Rip | Flac(Image) + Cue + Log & MP3 CBR 320Kbps
Pop Rock | Ariola / BMG 261029 | ~ 229 or 105 Mb | Scans

Tracklist:

1. Don't Play Your Rock'N'Roll To Me
2. If You Think You Know How To Love Me
3. It's Natural
4. Give It To Me
5. We're Flying High
6. Changing All The Time
7. Julie
8. Take Me In
9. Umbrella Day
10. Back To Bradford

Exact Audio Copy V1.0 beta 3 from 29. August 2011

EAC extraction logfile from 15. January 2016, 19:07

Smokie / Changing All The Time

Used drive : PLEXTOR DVDR PX-L890SA Adapter: 5 ID: 1

Read mode : Secure
Utilize accurate stream : Yes
Defeat audio cache : Yes
Make use of C2 pointers : No

Read offset correction : 6
Overread into Lead-In and Lead-Out : No
Fill up missing offset samples with silence : Yes
Delete leading and trailing silent blocks : No
Null samples used in CRC calculations : Yes
Used interface : Native Win32 interface for Win NT & 2000

Used output format : User Defined Encoder
Selected bitrate : 768 kBit/s
Quality : High
Add ID3 tag : No
Command line compressor : C:\Program Files (x86)\Exact Audio Copy\Flac\flac.exe
Additional command line options : -V -8 -T "Date=%year%" -T "Genre=%genre%" %source%


TOC of the extracted CD

Track | Start | Length | Start sector | End sector
––––––––––––––––––––––––––––-
1 | 0:00.00 | 3:19.22 | 0 | 14946
2 | 3:19.22 | 3:27.50 | 14947 | 30521
3 | 6:46.72 | 2:39.65 | 30522 | 42511
4 | 9:26.62 | 4:06.38 | 42512 | 60999
5 | 13:33.25 | 3:55.25 | 61000 | 78649
6 | 17:28.50 | 3:23.70 | 78650 | 93944
7 | 20:52.45 | 3:04.02 | 93945 | 107746
8 | 23:56.47 | 3:55.35 | 107747 | 125406
9 | 27:52.07 | 3:46.05 | 125407 | 142361
10 | 31:38.12 | 2:41.63 | 142362 | 154499


Range status and errors

Selected range

Filename H:\MUSIC\1975. Smokey - Changing All The Time (Ariola-BMG 261 029, Germany)\Smokie - Changing All The Time.wav

Peak level 98.1 %
Extraction speed 8.0 X
Range quality 100.0 %
Test CRC 281B8E07
Copy CRC 281B8E07
Copy OK

No errors occurred


AccurateRip summary

Track 1 accurately ripped (confidence 6) [D4D6BF95] (AR v2)
Track 2 accurately ripped (confidence 6) [8B948A8B] (AR v2)
Track 3 accurately ripped (confidence 6) [FFC2BA7A] (AR v2)
Track 4 accurately ripped (confidence 6) [4A804C99] (AR v2)
Track 5 accurately ripped (confidence 6) [8B067822] (AR v2)
Track 6 accurately ripped (confidence 6) [94C79A10] (AR v2)
Track 7 accurately ripped (confidence 6) [59065260] (AR v2)
Track 8 accurately ripped (confidence 6) [38B47AC1] (AR v2)
Track 9 accurately ripped (confidence 6) [4ED93182] (AR v2)
Track 10 accurately ripped (confidence 7) [5BB2D863] (AR v2)

All tracks accurately ripped

End of status report

==== Log checksum 5063D1E5DC15F30C5A6BD05336DD374B287DE418CEFDDCAB38A7659F954AB6AC ====

AUDIOCHECKER v2.0 beta (build 457) - by Dester - opdester@freemail.hu
~~~~~~~~~~~~~~~~~~~~~~~~~~~~~~~~~~
-=== DO NOT EDIT THIS FILE! ===-

Path: …\1975 - Changing All The Time - flac

1 -=- Smokie - Changing All The Time.flac -=- CDDA (100%)

191837796


foobar2000 1.1.18 / Dynamic Range Meter 1.1.1
log date: 2013-01-24 05:04:44

––––––––––––––––––––––––––––––––––––––––
Analyzed: Smokie / Changing All The Time
––––––––––––––––––––––––––––––––––––––––

DR Peak RMS Duration Track
––––––––––––––––––––––––––––––––––––––––
DR14 -1.78 dB -17.36 dB 3:19 01-Don't Play Your Rock'N'Roll To Me
DR13 -1.63 dB -18.81 dB 3:28 02-If You Think You Know How To Love Me
DR14 -0.16 dB -17.30 dB 2:40 03-It's Natural
DR14 -1.82 dB -17.28 dB 4:07 04-Give It To Me
DR12 -1.83 dB -16.56 dB 3:55 05-We're Flyin' High
DR12 -2.65 dB -17.36 dB 3:24 06-Changing All The Time
DR11 -3.25 dB -17.91 dB 3:04 07-Julia
DR17 -0.50 dB -20.01 dB 3:55 08-Take Me In
DR13 -1.44 dB -17.36 dB 3:46 09-Umbrella Day
DR15 -2.98 dB -19.60 dB 2:42 10-Back To Bradford
––––––––––––––––––––––––––––––––––––––––

Number of tracks: 10
Official DR value: DR14

Samplerate: 44100 Hz
Channels: 2
Bits per sample: 16
Bitrate: 867 kbps
Codec: FLAC

===========================

Smokie Discography. Part1 (1975 - 1982) Re-up

CD03: Smokie - Midnight Cafe (1976)
EAC Rip | Flac(Image) + Cue + Log & MP3 CBR 320Kbps
Pop Rock | Ariola / BMG 261031 | ~ 274 or 114 Mb | Scans

Tracklist:

1. Something's Been Making Me Blue
2. Wild Wild Angels
3. Poor Lady (Midnight Baby)
4. When My Back Was Against The Wall
5. Make Ya Boogie
6. Stranger
7. What Can I Do
8. Little Lucy
9. Going Home
10. I'll Meet You At Midnight

Exact Audio Copy V1.0 beta 3 from 29. August 2011

EAC extraction logfile from 19. November 2013, 16:48

Smokie / Midnight Cafe (261 031-217)

Used drive : SONY BD RW BDX-S600U Adapter: 2 ID: 0

Read mode : Secure
Utilize accurate stream : Yes
Defeat audio cache : Yes
Make use of C2 pointers : No

Read offset correction : 48
Overread into Lead-In and Lead-Out : No
Fill up missing offset samples with silence : Yes
Delete leading and trailing silent blocks : No
Null samples used in CRC calculations : Yes
Used interface : Native Win32 interface for Win NT & 2000

Used output format : User Defined Encoder
Selected bitrate : 128 kBit/s
Quality : High
Add ID3 tag : No
Command line compressor : C:\Program Files (x86)\Exact Audio Copy\Flac\flac.exe
Additional command line options : -V -8 -T "Date=%year%" -T "Genre=%genre%" %source%


TOC of the extracted CD

Track | Start | Length | Start sector | End sector
––––––––––––––––––––––––––––-
1 | 0:00.00 | 3:01.55 | 0 | 13629
2 | 3:01.55 | 3:57.65 | 13630 | 31469
3 | 6:59.45 | 4:42.60 | 31470 | 52679
4 | 11:42.30 | 3:38.15 | 52680 | 69044
5 | 15:20.45 | 5:13.70 | 69045 | 92589
6 | 20:34.40 | 4:40.30 | 92590 | 113619
7 | 25:14.70 | 3:37.60 | 113620 | 129954
8 | 28:52.55 | 3:46.20 | 129955 | 146924
9 | 32:39.00 | 7:33.65 | 146925 | 180964
10 | 40:12.65 | 3:16.32 | 180965 | 195696


Range status and errors

Selected range

Filename D:\Smokie Discography\1976. Smokie - Midnight Cafe\1976. Smokie - Midnight Cafe (Ariola BMG,261031-217,Germany)\Smokie - Midnight Cafe (261 031-217).wav

Peak level 96.0 %
Extraction speed 6.4 X
Range quality 100.0 %
Test CRC DEE35A89
Copy CRC DEE35A89
Copy OK

No errors occurred


AccurateRip summary

Track 1 accurately ripped (confidence 7) [0012DE64] (AR v2)
Track 2 accurately ripped (confidence 6) [5062E4AD] (AR v2)
Track 3 accurately ripped (confidence 7) [217F5EDC] (AR v2)
Track 4 accurately ripped (confidence 7) [4CF58617] (AR v2)
Track 5 accurately ripped (confidence 7) [8CE48D27] (AR v2)
Track 6 accurately ripped (confidence 7) [C0BA9D66] (AR v2)
Track 7 accurately ripped (confidence 7) [C403C777] (AR v2)
Track 8 accurately ripped (confidence 7) [C7210986] (AR v2)
Track 9 accurately ripped (confidence 7) [6FE17B48] (AR v2)
Track 10 accurately ripped (confidence 7) [C8A05510] (AR v2)

All tracks accurately ripped

End of status report

==== Log checksum 80D4DC237A6818957F159BB74256DD2A2EBC2D965ABE77BAA46932324F319E4B ====

AUDIOCHECKER v2.0 beta (build 457) - by Dester - opdester@freemail.hu
~~~~~~~~~~~~~~~~~~~~~~~~~~~~~~~~~~
-=== DO NOT EDIT THIS FILE! ===-

Path: …\1976 - Midnight Cafe - flac

1 -=- Smokie - Midnight Cafe.flac -=- CDDA (99%)

148583348

foobar2000 1.1.18 / Dynamic Range Meter 1.1.1
log date: 2013-01-24 05:05:32

––––––––––––––––––––––––––––––––––––––––
Analyzed: Smokie / Midnight Cafe
––––––––––––––––––––––––––––––––––––––––

DR Peak RMS Duration Track
––––––––––––––––––––––––––––––––––––––––
DR13 -1.05 dB -16.16 dB 3:02 01-Something's Been Making Me Blue
DR12 -0.95 dB -16.53 dB 3:58 02-Wild Wild Angels
DR13 -0.73 dB -16.31 dB 4:43 03-Poor Lady (Midnight Baby)
DR14 -4.76 dB -22.96 dB 3:38 04-When My Back Was Against The wall
DR16 -0.59 dB -19.04 dB 5:14 05-Make Ya Boogie
DR16 -0.35 dB -18.96 dB 4:40 06-Stranger
DR14 -2.31 dB -18.05 dB 3:38 07-What Can I Do
DR14 -0.37 dB -17.03 dB 3:46 08-Little Lucy
DR14 -1.99 dB -19.60 dB 7:34 09-Going Home
DR13 -2.12 dB -19.27 dB 3:16 10-I'll Meet You At Midnight
––––––––––––––––––––––––––––––––––––––––

Number of tracks: 10
Official DR value: DR14

Samplerate: 44100 Hz
Channels: 2
Bits per sample: 16
Bitrate: 819 kbps
Codec: FLAC

===========================

Smokie Discography. Part1 (1975 - 1982) Re-up

CD04: Smokie - Bright Lights And Back Alleys (1977)
EAC Rip | Flac(Image) + Cue + Log & MP3 CBR 320Kbps
Pop Rock | Ariola / BMG 261028 | ~ 249 or 103 Mb | Scans

Tracklist:

1. It's Your Life
2. I Can't Stay Here Tonight
3. Sunshine Avenue
4. Think Of Me (The Lonely One)
5. In The Heat Of The Night
6. Needles And Pins
7. No One Could Ever Love You More
8. The Dancer
9. Baby It's You
10. Walk Right Back

Exact Audio Copy V1.0 beta 3 from 29. August 2011

EAC extraction logfile from 19. August 2013, 19:04

Smokie / Bright Lights & Back Alleys

Used drive : SONY BD RW BDX-S600U Adapter: 1 ID: 1

Read mode : Secure
Utilize accurate stream : Yes
Defeat audio cache : Yes
Make use of C2 pointers : No

Read offset correction : 48
Overread into Lead-In and Lead-Out : No
Fill up missing offset samples with silence : Yes
Delete leading and trailing silent blocks : No
Null samples used in CRC calculations : Yes
Used interface : Native Win32 interface for Win NT & 2000

Used output format : User Defined Encoder
Selected bitrate : 128 kBit/s
Quality : High
Add ID3 tag : No
Command line compressor : C:\Program Files (x86)\Exact Audio Copy\Flac\flac.exe
Additional command line options : -V -8 -T "Date=%year%" -T "Genre=%genre%" %source%


TOC of the extracted CD

Track | Start | Length | Start sector | End sector
––––––––––––––––––––––––––––-
1 | 0:00.00 | 3:36.37 | 0 | 16236
2 | 3:36.37 | 4:09.00 | 16237 | 34911
3 | 7:45.37 | 3:12.43 | 34912 | 49354
4 | 10:58.05 | 4:44.05 | 49355 | 70659
5 | 15:42.10 | 4:50.17 | 70660 | 92426
6 | 20:32.27 | 2:46.63 | 92427 | 104939
7 | 23:19.15 | 2:33.25 | 104940 | 116439
8 | 25:52.40 | 3:53.05 | 116440 | 133919
9 | 29:45.45 | 3:51.55 | 133920 | 151299
10 | 33:37.25 | 5:30.27 | 151300 | 176076


Range status and errors

Selected range

Filename D:\Smokie discography\1977. Smokie - Bright Lights & Back Alleys\1977. Smokie - Bright Lights & Back Alleys (Ariola BMG,261028-217,Germany)\Smokie - Bright Lights & Back Alleys.wav

Peak level 98.8 %
Extraction speed 13.9 X
Range quality 100.0 %
Test CRC 9D3585F0
Copy CRC 9D3585F0
Copy OK

No errors occurred


AccurateRip summary

Track 1 accurately ripped (confidence 2) [1B51E4A2] (AR v2)
Track 2 accurately ripped (confidence 2) [F1709B3F] (AR v2)
Track 3 accurately ripped (confidence 2) [9A7406E0] (AR v2)
Track 4 accurately ripped (confidence 2) [4BDC5DC4] (AR v2)
Track 5 accurately ripped (confidence 2) [583D1E33] (AR v2)
Track 6 accurately ripped (confidence 2) [2AA22940] (AR v2)
Track 7 accurately ripped (confidence 2) [CB12CA32] (AR v2)
Track 8 accurately ripped (confidence 2) [3F988075] (AR v2)
Track 9 accurately ripped (confidence 2) [2E68FC1B] (AR v2)
Track 10 accurately ripped (confidence 2) [A76A0D90] (AR v2)

All tracks accurately ripped

End of status report

–– CUETools DB Plugin V2.1.3

[CTDB TOCID: bnTO30E3WW9yBnGGKp9qLefbMt8-] found, Submit result: bnTO30E3WW9yBnGGKp9qLefbMt8- has been confirmed
[42bc3b52] (41/41) Accurately ripped


==== Log checksum 4513BD41A707B0F09D260690219F14F3141381F5480BD023FF1FEAE815AD950D ====

AUDIOCHECKER v2.0 beta (build 457) - by Dester - opdester@freemail.hu
~~~~~~~~~~~~~~~~~~~~~~~~~~~~~~~~~~
-=== DO NOT EDIT THIS FILE! ===-

Path: …\1977 - Bright Lights And Back Alleys - flac

1 -=- Smokie - Bright Lights And Back Alleys.flac -=- CDDA (100%)

85484228

foobar2000 1.1.18 / Dynamic Range Meter 1.1.1
log date: 2013-01-24 05:05:58

––––––––––––––––––––––––––––––––––––––––
Analyzed: Smokie / Bright Lights And Back Alleys
––––––––––––––––––––––––––––––––––––––––

DR Peak RMS Duration Track
––––––––––––––––––––––––––––––––––––––––
DR14 -0.10 dB -17.46 dB 3:36 01-It's Your Life
DR14 -1.74 dB -16.86 dB 4:09 02-I Can't Stay Here Tonight
DR14 -1.12 dB -16.66 dB 3:13 03-Sunshine Avenue
DR14 -0.10 dB -17.47 dB 4:44 04-Think Of Me
DR14 -2.01 dB -18.70 dB 4:50 05-In The Heat Of The Night
DR13 -0.78 dB -16.10 dB 2:47 06-Needles And Pins
DR13 -1.15 dB -16.32 dB 2:33 07-No One Could Ever Love You More
DR13 -1.17 dB -17.30 dB 3:53 08-The Dancer
DR12 -1.13 dB -17.15 dB 3:52 09-Baby It's You
DR15 -2.86 dB -19.54 dB 5:30 10-Walk Right Back
––––––––––––––––––––––––––––––––––––––––

Number of tracks: 10
Official DR value: DR14

Samplerate: 44100 Hz
Channels: 2
Bits per sample: 16
Bitrate: 828 kbps
Codec: FLAC

===========================

Smokie Discography. Part1 (1975 - 1982) Re-up

CD05: Smokie - The Montreux Album (1978)
EAC Rip | Flac(Image) + Cue + Log & MP3 CBR 320Kbps
Pop Rock | Ariola / BMG 261027 | ~ 227 or 109 Mb | Scans

Tracklist:

1. The Girl Can't Help It
2. Power Of Love
3. No More Letters
4. Mexican Girl
5. You Took Me By Surprise
6. Oh Carol
7. Liverpool Docks
8. Light Up My Life
9. Petesey's Song
10. For A Few Dollars More

Exact Audio Copy V1.0 beta 3 from 29. August 2011

EAC extraction logfile from 15. August 2013, 19:12

Smokie / The Montreux Album

Used drive : SONY BD RW BDX-S600U Adapter: 1 ID: 1

Read mode : Secure
Utilize accurate stream : Yes
Defeat audio cache : Yes
Make use of C2 pointers : No

Read offset correction : 48
Overread into Lead-In and Lead-Out : No
Fill up missing offset samples with silence : Yes
Delete leading and trailing silent blocks : No
Null samples used in CRC calculations : Yes
Used interface : Native Win32 interface for Win NT & 2000

Used output format : User Defined Encoder
Selected bitrate : 128 kBit/s
Quality : High
Add ID3 tag : No
Command line compressor : C:\Program Files (x86)\Exact Audio Copy\Flac\flac.exe
Additional command line options : -V -8 -T "Date=%year%" -T "Genre=%genre%" %source%


TOC of the extracted CD

Track | Start | Length | Start sector | End sector
––––––––––––––––––––––––––––-
1 | 0:00.00 | 3:49.72 | 0 | 17246
2 | 3:49.72 | 1:57.28 | 17247 | 26049
3 | 5:47.25 | 3:31.00 | 26050 | 41874
4 | 9:18.25 | 4:00.27 | 41875 | 59901
5 | 13:18.52 | 3:38.68 | 59902 | 76319
6 | 16:57.45 | 3:40.50 | 76320 | 92869
7 | 20:38.20 | 2:58.52 | 92870 | 106271
8 | 23:36.72 | 4:25.58 | 106272 | 126204
9 | 28:02.55 | 2:53.45 | 126205 | 139224
10 | 30:56.25 | 3:35.25 | 139225 | 155374


Range status and errors

Selected range

Filename D:\Smokie discography\1978. Smokie - The Montreux Album\1978. Smokie - The Montreux Album - (Ariola BMG,261027-217,Germany)\Smokie - The Montreux Album.wav

Peak level 96.6 %
Extraction speed 13.1 X
Range quality 99.9 %
Test CRC 273157A3
Copy CRC 273157A3
Copy OK

No errors occurred


AccurateRip summary

Track 1 accurately ripped (confidence 8) [207D57AF] (AR v2)
Track 2 accurately ripped (confidence 8) [CCE6D5CA] (AR v2)
Track 3 accurately ripped (confidence 8) [193C644B] (AR v2)
Track 4 accurately ripped (confidence 8) [E234C99B] (AR v2)
Track 5 accurately ripped (confidence 8) [C89CF72E] (AR v2)
Track 6 accurately ripped (confidence 8) [6AECB27F] (AR v2)
Track 7 accurately ripped (confidence 8) [476E7D1F] (AR v2)
Track 8 accurately ripped (confidence 8) [634A1F86] (AR v2)
Track 9 accurately ripped (confidence 8) [360AEB27] (AR v2)
Track 10 accurately ripped (confidence 8) [7B18DCEF] (AR v2)

All tracks accurately ripped

End of status report

–– CUETools DB Plugin V2.1.3

[CTDB TOCID: 0IpcFCPalPB0nnBoYQMK32b8zO0-] found, Submit result: 0IpcFCPalPB0nnBoYQMK32b8zO0- has been confirmed
[47d5ec43] (02/19) Differs in 670 samples @34:31:33-34:31:34
[f6eb43ef] (17/19) Accurately ripped
You can use CUETools to repair this rip.


==== Log checksum FDAC9F9976BE63157B1C9B69A2E67497402A4070E32F313D9B58CC0AA80DDCB7 ====

AUDIOCHECKER v2.0 beta (build 457) - by Dester - opdester@freemail.hu
~~~~~~~~~~~~~~~~~~~~~~~~~~~~~~~~~~
-=== DO NOT EDIT THIS FILE! ===-

Path: …\1978 - The Montreux Album - flac

1 -=- Smokie - The Montreux Album.flac -=- CDDA (100%)

257060020

foobar2000 1.1.18 / Dynamic Range Meter 1.1.1
log date: 2013-01-24 05:06:19

––––––––––––––––––––––––––––––––––––––––
Analyzed: Smokie / The Montreux Album
––––––––––––––––––––––––––––––––––––––––

DR Peak RMS Duration Track
––––––––––––––––––––––––––––––––––––––––
DR14 -0.30 dB -16.02 dB 3:50 01- The Girl Can't Help It
DR13 -0.98 dB -16.35 dB 1:57 02-Power Of Love
DR15 -1.71 dB -19.81 dB 3:31 03-No More Letters
DR13 -2.18 dB -18.47 dB 4:00 04-Mexican Girl
DR13 -0.98 dB -17.48 dB 3:39 05-You Took Me By Surprise
DR14 -1.49 dB -17.58 dB 3:41 06-Oh Carol
DR13 -1.71 dB -17.63 dB 2:59 07-Liverpool Docks
DR13 -2.10 dB -18.23 dB 4:26 08-Light Up My Life
DR15 -1.79 dB -18.96 dB 2:54 09-Petesey's Song
DR13 -1.84 dB -17.43 dB 3:35 10-For A Few Dollars More
––––––––––––––––––––––––––––––––––––––––

Number of tracks: 10
Official DR value: DR14

Samplerate: 44100 Hz
Channels: 2
Bits per sample: 16
Bitrate: 850 kbps
Codec: FLAC

===========================

Smokie Discography. Part1 (1975 - 1982) Re-up

CD06: Smokie - The Other Side Of The Road (1979)
EAC Rip | Flac(Image) + Cue + Log & MP3 CBR 320Kbps
Pop Rock | Ariola / BMG 74321 72971 2 | ~ 302 or 128 Mb | Scans

Tracklist:

1. The Other Side Of The Road
2. Do To Me
3. Belinda
4. Big Fat Momma
5. Don't Take Your Love Away This Time
6. London Is Burning
7. Babe It's Up To You
8. You Don't Care
9. All Alone
10. I Can't Stop Loving You
11. Too Many Pennies In Hell
12. Samatha Elizabeth
13. San Francisco Bay

Exact Audio Copy V1.0 beta 3 from 29. August 2011

EAC extraction logfile from 2. August 2013, 14:42

Smokie / The Other Side of the Road

Used drive : SONY BD RW BDX-S600U Adapter: 2 ID: 0

Read mode : Secure
Utilize accurate stream : Yes
Defeat audio cache : Yes
Make use of C2 pointers : No

Read offset correction : 48
Overread into Lead-In and Lead-Out : No
Fill up missing offset samples with silence : Yes
Delete leading and trailing silent blocks : No
Null samples used in CRC calculations : Yes
Used interface : Native Win32 interface for Win NT & 2000

Used output format : User Defined Encoder
Selected bitrate : 128 kBit/s
Quality : High
Add ID3 tag : No
Command line compressor : C:\Program Files\Exact Audio Copy\Flac\flac.exe
Additional command line options : -V -8 -T "Date=%year%" -T "Genre=%genre%" %source%


TOC of the extracted CD

Track | Start | Length | Start sector | End sector
––––––––––––––––––––––––––––-
1 | 0:00.00 | 3:53.74 | 0 | 17548
2 | 3:53.74 | 3:21.20 | 17549 | 32643
3 | 7:15.19 | 3:00.48 | 32644 | 46191
4 | 10:15.67 | 2:49.35 | 46192 | 58901
5 | 13:05.27 | 3:14.33 | 58902 | 73484
6 | 16:19.60 | 5:11.73 | 73485 | 96882
7 | 21:31.58 | 3:44.62 | 96883 | 113744
8 | 25:16.45 | 3:19.54 | 113745 | 128723
9 | 28:36.24 | 3:57.18 | 128724 | 146516
10 | 32:33.42 | 3:38.22 | 146517 | 162888
11 | 36:11.64 | 1:16.28 | 162889 | 168616
12 | 37:28.17 | 4:02.44 | 168617 | 186810
13 | 41:30.61 | 3:17.14 | 186811 | 201599


Range status and errors

Selected range

Filename H:\ALIK\Smokie discography\1979. Smokie - The Other Side Of The Road\1979. Smokie - The Other Side Of The Road (Ariola BMG,74321 72971 2,EU)\Smokie - The Other Side of the Road.wav

Peak level 99.8 %
Extraction speed 14.1 X
Range quality 100.0 %
Test CRC F407A9E8
Copy CRC F407A9E8
Copy OK

No errors occurred


AccurateRip summary

Track 1 accurately ripped (confidence 7) [BFC3DF12] (AR v2)
Track 2 accurately ripped (confidence 7) [97C3D158] (AR v2)
Track 3 accurately ripped (confidence 7) [4DF4E4B6] (AR v2)
Track 4 accurately ripped (confidence 7) [52DA9C8C] (AR v2)
Track 5 accurately ripped (confidence 7) [5E3274AA] (AR v2)
Track 6 accurately ripped (confidence 7) [E0803BC8] (AR v2)
Track 7 accurately ripped (confidence 7) [52FBE793] (AR v2)
Track 8 accurately ripped (confidence 7) [FE97A971] (AR v2)
Track 9 accurately ripped (confidence 7) [04565414] (AR v2)
Track 10 accurately ripped (confidence 7) [87C5C2E7] (AR v2)
Track 11 accurately ripped (confidence 7) [BEE8BDAD] (AR v2)
Track 12 accurately ripped (confidence 7) [C7AF13C9] (AR v2)
Track 13 accurately ripped (confidence 7) [21C60FC7] (AR v2)

All tracks accurately ripped

End of status report

–– CUETools DB Plugin V2.1.3

[CTDB TOCID: 9it089ED7IIjC.qHUXpQj65LVxY-] found, Submit result: 9it089ED7IIjC.qHUXpQj65LVxY- has been confirmed
[660ab0f8] (8/8) Accurately ripped


==== Log checksum BDCE6A1DB9DF29CA174E3188373EF6E7B011648EC2D9AE514CC168927EB43D76 ====

AUDIOCHECKER v2.0 beta (build 457) - by Dester - opdester@freemail.hu
~~~~~~~~~~~~~~~~~~~~~~~~~~~~~~~~~~
-=== DO NOT EDIT THIS FILE! ===-

Path: …\1979 - The Other Side Of The Road - flac

1 -=- Smokie - The Other Side Of The Road.flac -=- CDDA (100%)

227039028

foobar2000 1.1.18 / Dynamic Range Meter 1.1.1
log date: 2013-01-24 05:06:42

––––––––––––––––––––––––––––––––––––––––
Analyzed: Smokie / The Other Side Of The Road
––––––––––––––––––––––––––––––––––––––––

DR Peak RMS Duration Track
––––––––––––––––––––––––––––––––––––––––
DR11 -0.14 dB -13.55 dB 3:54 01-The Other Side Of The Road
DR12 -0.27 dB -14.82 dB 3:21 02-Do To Me
DR11 -0.09 dB -13.61 dB 3:01 03-Belinda
DR14 -0.25 dB -17.44 dB 2:49 04-Big Fat Momma
DR12 -0.30 dB -14.30 dB 3:14 05-Don't Take Your Love Away This Time
DR12 -0.19 dB -15.07 dB 5:12 06-London Is Burning
DR11 -0.07 dB -13.16 dB 3:45 07-Babe It's Up To You
DR11 -0.10 dB -12.41 dB 3:20 08-You Don't Care
DR10 -0.26 dB -12.82 dB 3:57 09-All Alone
DR12 -0.17 dB -14.57 dB 3:38 10-I Can't Stop Lovin You
DR13 -4.26 dB -22.00 dB 1:16 11-Too Many Pennies In Hell
DR15 -0.08 dB -18.69 dB 4:03 12-Samantha Elizabeth
DR12 -0.01 dB -15.14 dB 3:17 13-San Francisco Bay
––––––––––––––––––––––––––––––––––––––––

Number of tracks: 13
Official DR value: DR12

Samplerate: 44100 Hz
Channels: 2
Bits per sample: 16
Bitrate: 849 kbps
Codec: FLAC

===========================

Smokie Discography. Part1 (1975 - 1982) Re-up

CD07: Smokie - Solid Ground (1981)
EAC Rip | Flac(Image) + Cue + Log & MP3 CBR 320Kbps
Pop Rock | Ariola / BMG 74321 72970 2 | ~ 242 or 106 Mb | Scans

Tracklist:

1. Jet Lagged
2. I'm In Love With You
3. Everything A Man Could Need
4. My Woman Don't Like Rock'n'Roll
5. Take Good Care Of My Baby
6. Rock'n'Roll Woman
7. Your Love Is So Good For Me
8. Long Time Coming
9. Melody Goes On
10. Songs

Exact Audio Copy V1.1 from 23. June 2015

EAC extraction logfile from 5. June 2016, 11:22

Smokie / Solid Ground

Used drive : SONY BD RW BDX-S600U Adapter: 1 ID: 2

Read mode : Secure
Utilize accurate stream : Yes
Defeat audio cache : Yes
Make use of C2 pointers : No

Read offset correction : 48
Overread into Lead-In and Lead-Out : No
Fill up missing offset samples with silence : Yes
Delete leading and trailing silent blocks : No
Null samples used in CRC calculations : Yes
Used interface : Native Win32 interface for Win NT & 2000

Used output format : User Defined Encoder
Selected bitrate : 768 kBit/s
Quality : High
Add ID3 tag : No
Command line compressor : C:\Program Files (x86)\Exact Audio Copy\FLAC\FLAC.EXE
Additional command line options : -V -8 -T "Date=%year%" -T "Genre=%genre%" %source%


TOC of the extracted CD

Track | Start | Length | Start sector | End sector
––––––––––––––––––––––––––––-
1 | 0:00.00 | 2:59.43 | 0 | 13467
2 | 2:59.43 | 3:27.55 | 13468 | 29047
3 | 6:27.23 | 5:14.49 | 29048 | 52646
4 | 11:41.72 | 2:19.66 | 52647 | 63137
5 | 14:01.63 | 3:23.17 | 63138 | 78379
6 | 17:25.05 | 4:14.69 | 78380 | 97498
7 | 21:39.74 | 4:06.17 | 97499 | 115965
8 | 25:46.16 | 4:16.71 | 115966 | 135236
9 | 30:03.12 | 2:27.62 | 135237 | 146323
10 | 32:30.74 | 2:24.39 | 146324 | 157162


Range status and errors

Selected range

Filename D:\Smokie Discography\1981. Smokie - Solid Ground\1981. Smokie - Solid Ground (Ariola BMG,74321 72970 2,EU)\Smokie - Solid Ground.wav

Peak level 100.0 %
Extraction speed 6.0 X
Range quality 100.0 %
Test CRC BB57C3DA
Copy CRC BB57C3DA
Copy OK

No errors occurred


AccurateRip summary

Track 1 accurately ripped (confidence 2) [488908E2] (AR v2)
Track 2 accurately ripped (confidence 2) [26125CA7] (AR v2)
Track 3 accurately ripped (confidence 2) [4348E9CE] (AR v2)
Track 4 accurately ripped (confidence 2) [59E6DC22] (AR v2)
Track 5 accurately ripped (confidence 2) [FD86F4E7] (AR v2)
Track 6 accurately ripped (confidence 2) [48E5AE74] (AR v2)
Track 7 accurately ripped (confidence 2) [58978B02] (AR v2)
Track 8 accurately ripped (confidence 2) [36514764] (AR v2)
Track 9 accurately ripped (confidence 2) [4DD5CD9A] (AR v2)
Track 10 accurately ripped (confidence 2) [BE6C9130] (AR v2)

All tracks accurately ripped

End of status report

==== Log checksum 961876B618E4B20C02DB321F3631BF31BA0B3244CB7542B2EE0C6A969786B014 ====

AUDIOCHECKER v2.0 beta (build 457) - by Dester - opdester@freemail.hu
~~~~~~~~~~~~~~~~~~~~~~~~~~~~~~~~~~
-=== DO NOT EDIT THIS FILE! ===-

Path: …\1981 - Solid Ground - flac

1 -=- Smokie - Solid Ground.flac -=- CDDA (100%)

188249252

foobar2000 1.1.18 / Dynamic Range Meter 1.1.1
log date: 2013-01-24 05:07:01

––––––––––––––––––––––––––––––––––––––––
Analyzed: Smokie / Solid Ground
––––––––––––––––––––––––––––––––––––––––

DR Peak RMS Duration Track
––––––––––––––––––––––––––––––––––––––––
DR9 -0.10 dB -10.39 dB 3:00 01-Jet Lagged
DR10 0.00 dB -12.64 dB 3:28 02-Iґm In Love With You
DR10 -0.07 dB -14.34 dB 5:15 03-Everything A Man Could Need
DR8 -0.11 dB -10.16 dB 2:20 04-My Woman Donґt Like Rockґn Roll
DR9 -0.20 dB -11.30 dB 3:23 05-Take Good Care Of My Baby
DR10 -0.19 dB -13.35 dB 4:15 06-Rockґn Roll Woman
DR11 -0.21 dB -13.93 dB 4:06 07-Your Love Is So Good For Me
DR11 -0.20 dB -13.73 dB 4:17 08-Long Time Coming
DR10 -0.34 dB -14.02 dB 2:28 09-Melody Goes On
DR13 -0.58 dB -17.67 dB 2:25 10-Songs
––––––––––––––––––––––––––––––––––––––––

Number of tracks: 10
Official DR value: DR10

Samplerate: 44100 Hz
Channels: 2
Bits per sample: 16
Bitrate: 874 kbps
Codec: FLAC

===========================

Smokie Discography. Part1 (1975 - 1982) Re-up

CD08: Smokie - Strangers In Paradise (1982)
EAC Rip | Flac(Image) + Cue + Log & MP3 CBR 320Kbps
Pop Rock | Ariola / BMG 74321 72972 2 | ~ 286 or 115 Mb | Scans

Tracklist:

1. Introduction
2. Love Remains A Stranger
3. Falling For You
4. Yesterday's Dreams
5. Come On Home
6. Can You Feel My Heartbeat?
7. Two Strangers Falling
8. You'll Be Lonely Tonight
9. Mirror, Mirror
10. Now It's Too Late
11. Long Way From Home
12. Strangers In Paradise

Exact Audio Copy V1.0 beta 3 from 29. August 2011

EAC extraction logfile from 2. August 2013, 15:00

Smokie / Strangers in Paradise

Used drive : SONY BD RW BDX-S600U Adapter: 2 ID: 0

Read mode : Secure
Utilize accurate stream : Yes
Defeat audio cache : Yes
Make use of C2 pointers : No

Read offset correction : 48
Overread into Lead-In and Lead-Out : No
Fill up missing offset samples with silence : Yes
Delete leading and trailing silent blocks : No
Null samples used in CRC calculations : Yes
Used interface : Native Win32 interface for Win NT & 2000

Used output format : User Defined Encoder
Selected bitrate : 128 kBit/s
Quality : High
Add ID3 tag : No
Command line compressor : C:\Program Files\Exact Audio Copy\Flac\flac.exe
Additional command line options : -V -8 -T "Date=%year%" -T "Genre=%genre%" %source%


TOC of the extracted CD

Track | Start | Length | Start sector | End sector
––––––––––––––––––––––––––––-
1 | 0:00.00 | 0:18.48 | 0 | 1397
2 | 0:18.48 | 3:57.64 | 1398 | 19236
3 | 4:16.37 | 3:50.40 | 19237 | 36526
4 | 8:07.02 | 3:12.56 | 36527 | 50982
5 | 11:19.58 | 3:55.44 | 50983 | 68651
6 | 15:15.27 | 3:35.00 | 68652 | 84776
7 | 18:50.27 | 3:41.67 | 84777 | 101418
8 | 22:32.19 | 3:09.57 | 101419 | 115650
9 | 25:42.01 | 4:07.43 | 115651 | 134218
10 | 29:49.44 | 3:34.48 | 134219 | 150316
11 | 33:24.17 | 4:08.32 | 150317 | 168948
12 | 37:32.49 | 2:38.26 | 168949 | 180824


Range status and errors

Selected range

Filename H:\ALIK\Smokie discography\1982. Smokie - Strangers In Paradise\1982. Smokie - Strangers In Paradise (Ariola BMG,74321 72972 2,EU)\Smokie - Strangers in Paradise.wav

Peak level 99.4 %
Extraction speed 13.7 X
Range quality 99.9 %
Test CRC 4E2217FD
Copy CRC 4E2217FD
Copy OK

No errors occurred


AccurateRip summary

Track 1 accurately ripped (confidence 4) [B16A6D95] (AR v2)
Track 2 accurately ripped (confidence 4) [5849D232] (AR v2)
Track 3 accurately ripped (confidence 4) [5CA3E857] (AR v2)
Track 4 accurately ripped (confidence 4) [7B8E1C0A] (AR v2)
Track 5 accurately ripped (confidence 4) [99F9FC49] (AR v2)
Track 6 accurately ripped (confidence 4) [14791E15] (AR v2)
Track 7 accurately ripped (confidence 4) [F016CEB7] (AR v2)
Track 8 accurately ripped (confidence 4) [4FF02799] (AR v2)
Track 9 accurately ripped (confidence 4) [FB06B7C5] (AR v2)
Track 10 accurately ripped (confidence 4) [AF15358B] (AR v2)
Track 11 accurately ripped (confidence 4) [84ED7FB5] (AR v2)
Track 12 accurately ripped (confidence 4) [FB742050] (AR v2)

All tracks accurately ripped

End of status report

–– CUETools DB Plugin V2.1.3

[CTDB TOCID: 0YWCg0pH47E4Z5ULKA0NHusp_Dw-] found, Submit result: 0YWCg0pH47E4Z5ULKA0NHusp_Dw- has been confirmed
[b5091535] (5/5) Accurately ripped


==== Log checksum CD484631C7C704907DD6BB6945E678C0D22167D8E1C19152C5B0C4A0E5E6FB7B ====

AUDIOCHECKER v2.0 beta (build 457) - by Dester - opdester@freemail.hu
~~~~~~~~~~~~~~~~~~~~~~~~~~~~~~~~~~
-=== DO NOT EDIT THIS FILE! ===-

Path: …\1982 - Strangers In Paradise - flac

1 -=- Smokie - Strangers In Paradise.flac -=- CDDA (100%)

200762100

foobar2000 1.1.18 / Dynamic Range Meter 1.1.1
log date: 2013-01-24 05:07:45

––––––––––––––––––––––––––––––––––––––––
Analyzed: Smokie / Strangers In Paradise
––––––––––––––––––––––––––––––––––––––––

DR Peak RMS Duration Track
––––––––––––––––––––––––––––––––––––––––
DR10 -4.82 dB -18.67 dB 0:19 01-Introduction
DR10 -0.06 dB -12.55 dB 3:58 02-Love Remains A Stranger
DR11 -0.05 dB -13.39 dB 3:51 03-Falling For You
DR11 -0.09 dB -14.00 dB 3:13 04-Yesterday's Dreams
DR10 -0.05 dB -11.65 dB 3:56 05-Come On Home
DR15 -0.87 dB -22.34 dB 3:35 06-Can You Feel My Heartbeat
DR12 -0.25 dB -15.38 dB 3:42 07-Two Strangers Falling
DR11 -0.05 dB -12.86 dB 3:10 08-You'll Be Lonely Tonight
DR11 -0.07 dB -14.54 dB 4:08 09-Mirror, Mirror
DR13 -0.13 dB -15.51 dB 3:35 10-Now It's Too Late
DR12 -0.06 dB -13.49 dB 4:08 11-Long Way From Home
DR12 -0.06 dB -14.30 dB 2:38 12-Strangers In Paradise
––––––––––––––––––––––––––––––––––––––––

Number of tracks: 12
Official DR value: DR12

Samplerate: 44100 Hz
Channels: 2
Bits per sample: 16
Bitrate: 900 kbps
Codec: FLAC

===========================

Smokie Discography. Part1 (1975 - 1982) Re-up

CD09: Smokie - Midnight Delight (1982)
EAC Rip | Flac(Image) + Cue + Log & MP3 CBR 320Kbps
Pop Rock | Ariola / BMG 261033 | ~ 253 or 104 Mb | Scans

Tracklist:

1. Warm Nights With You
2. Hiding From The Night
3. One More For The Road
4. Time Keeps Turning
5. Midnight Delight
6. Number On My Wall
7. Time Of Your Life
8. Winter's Day
9. You're A Lady
10. Don't Throw It Away

Exact Audio Copy V1.0 beta 3 from 29. August 2011

EAC extraction logfile from 2. August 2013, 14:25

Smokie / Midnight Delight

Used drive : SONY BD RW BDX-S600U Adapter: 2 ID: 0

Read mode : Secure
Utilize accurate stream : Yes
Defeat audio cache : Yes
Make use of C2 pointers : No

Read offset correction : 48
Overread into Lead-In and Lead-Out : No
Fill up missing offset samples with silence : Yes
Delete leading and trailing silent blocks : No
Null samples used in CRC calculations : Yes
Used interface : Native Win32 interface for Win NT & 2000

Used output format : User Defined Encoder
Selected bitrate : 128 kBit/s
Quality : High
Add ID3 tag : No
Command line compressor : C:\Program Files\Exact Audio Copy\Flac\flac.exe
Additional command line options : -V -8 -T "Date=%year%" -T "Genre=%genre%" %source%


TOC of the extracted CD

Track | Start | Length | Start sector | End sector
––––––––––––––––––––––––––––-
1 | 0:00.00 | 3:03.71 | 0 | 13795
2 | 3:03.71 | 3:46.26 | 13796 | 30771
3 | 6:50.22 | 2:57.22 | 30772 | 44068
4 | 9:47.44 | 3:25.73 | 44069 | 59516
5 | 13:13.42 | 4:13.31 | 59517 | 78522
6 | 17:26.73 | 3:38.46 | 78523 | 94918
7 | 21:05.44 | 3:58.55 | 94919 | 112823
8 | 25:04.24 | 3:05.69 | 112824 | 126767
9 | 28:10.18 | 4:14.60 | 126768 | 145877
10 | 32:25.03 | 3:26.15 | 145878 | 161342


Range status and errors

Selected range

Filename H:\ALIK\Smokie discography\1982. Smokie - Midnight Delight\1982. Smokie - Midnight Delight (Ariola BMG,261033,Germany)\Smokie - Midnight Delight.wav

Peak level 100.0 %
Extraction speed 13.3 X
Range quality 100.0 %
Test CRC 1137D822
Copy CRC 1137D822
Copy OK

No errors occurred


AccurateRip summary

Track 1 accurately ripped (confidence 2) [DB84C7D8] (AR v2)
Track 2 accurately ripped (confidence 2) [6B8F8AFC] (AR v2)
Track 3 accurately ripped (confidence 2) [36EA672B] (AR v2)
Track 4 accurately ripped (confidence 2) [09DFE3EF] (AR v2)
Track 5 accurately ripped (confidence 2) [5F617757] (AR v2)
Track 6 accurately ripped (confidence 2) [ED43249E] (AR v2)
Track 7 accurately ripped (confidence 2) [436F197A] (AR v2)
Track 8 accurately ripped (confidence 2) [63DE5ECB] (AR v2)
Track 9 accurately ripped (confidence 2) [756998D8] (AR v2)
Track 10 accurately ripped (confidence 2) [C0243DF2] (AR v2)

All tracks accurately ripped

End of status report

–– CUETools DB Plugin V2.1.3

[CTDB TOCID: H6y8MhoR9SSkGXbcucSOyJuWMGg-] found, Submit result: H6y8MhoR9SSkGXbcucSOyJuWMGg- has been confirmed
[7d6b0915] (5/5) Accurately ripped


==== Log checksum 3E3F7EFB433561910868FDD0257B473286B65AE4916240E17203371CC2574543 ====

AUDIOCHECKER v2.0 beta (build 457) - by Dester - opdester@freemail.hu
~~~~~~~~~~~~~~~~~~~~~~~~~~~~~~~~~~
-=== DO NOT EDIT THIS FILE! ===-

Path: …\1982 - Midnight Delight - flac

1 -=- Various - Midnight Delight.flac -=- CDDA (100%)

244511044

foobar2000 1.1.18 / Dynamic Range Meter 1.1.1
log date: 2013-01-25 10:17:47

––––––––––––––––––––––––––––––––––––––––
Analyzed: Hiding From The Night / Midnight Delight (1)
Midnight Delight / Midnight Delight (2)
Number On My Wall / Midnight Delight (3)
––––––––––––––––––––––––––––––––––––––––

DR Peak RMS Duration Track
––––––––––––––––––––––––––––––––––––––––
DR12 -0.22 dB -15.32 dB 3:46 02-Hiding From The Night
DR10 -0.30 dB -13.34 dB 4:13 05-Midnight Delight
DR10 -0.29 dB -12.17 dB 3:39 06-Number On My Wall
––––––––––––––––––––––––––––––––––––––––

Number of tracks: 3
Official DR value: DR11

Samplerate: 44100 Hz
Channels: 2
Bits per sample: 16
Bitrate: 913 kbps
Codec: FLAC
================================================================================

––––––––––––––––––––––––––––––––––––––––
Analyzed: One More For The Road / Midnight Delight (1)
Time Keeps turning / Midnight Delight (2)
Time Of Your Life / Midnight Delight (3)
––––––––––––––––––––––––––––––––––––––––

DR Peak RMS Duration Track
––––––––––––––––––––––––––––––––––––––––
DR9 -0.30 dB -13.04 dB 2:57 03-One More For The Road
DR10 -0.30 dB -12.27 dB 3:26 04-Time Keeps turning
DR10 0.00 dB -12.45 dB 3:59 07-Time Of Your Life
––––––––––––––––––––––––––––––––––––––––

Number of tracks: 3
Official DR value: DR10

Samplerate: 44100 Hz
Channels: 2
Bits per sample: 16
Bitrate: 913 kbps
Codec: FLAC
================================================================================

––––––––––––––––––––––––––––––––––––––––
Analyzed: Warm Nights With You / Midnight Delight (1)
Winter's Day / Midnight Delight (2)
You're A Lady / Midnight Delight (3)
––––––––––––––––––––––––––––––––––––––––

DR Peak RMS Duration Track
––––––––––––––––––––––––––––––––––––––––
DR10 -0.30 dB -12.97 dB 3:04 01-Warm Nights With You
DR11 -0.30 dB -14.86 dB 3:06 08-Winter's Day
DR11 -0.30 dB -12.65 dB 4:15 09-You're A Lady
––––––––––––––––––––––––––––––––––––––––

Number of tracks: 3
Official DR value: DR11

Samplerate: 44100 Hz
Channels: 2
Bits per sample: 16
Bitrate: 913 kbps
Codec: FLAC

All thanks go to original releaser

Discography in my Blog

Download Smokie Discography. Part1 (1975 - 1982):