Subcategories

Soft Machine - 11 Live Albums (1988-2006) (Repost)

Posted By: gribovar
Soft Machine - 11 Live Albums (1988-2006) (Repost)

Soft Machine - 11 Live Albums (1988-2006)
EAC Rip | WavPack (image+.cue+log) - 4,74 GB | MP3 CBR 320 kbps (LAME 3.93) - 1,89 GB | Covers - 1,16 GB
Genre: Progressive/Jazz Rock, Canterbury Scene | RAR 3% Rec. | Label: Reckless Records, Strange Fruit Records, Cuneiform Records, Voiceprint, Hux Records, Major League

The probably most important and influential band to grow out the Canterbury Scene was Soft Machine. The band emerged in 1967 as the quartet of Robert Wyatt (drums, vocals), Mike Ratledge (keyboards), Kevin Ayers (bass, vocals) and Daevid Allen (guitar, vocals). Through a persistence of personnel changes (totalling ~30), their sound was to changed continually over the years of their existence. This band along with Caravan (both to come out of the formative Wilde Flowers), would influence the emergence of the Canterbury Sound (Matching Mole, Egg, Hatfield & the North, and many more). Many careers began with Soft Machine: Robert Wyatt (Matching Mole band and solo artist), Kevin Ayers (later his own Whole World band and solo artist), and Daevid Allen (later Gong and solo artist). Virtuosic instrumentalists such as Hugh Hopper, Mike Ratledge, Elton Dean, Allan Holdsworth, (briefly) Andy Summers, Roy Babbington, John Marshall and Karl Jenkins were attracted to Machine's ranks through out its history, leaving us a series of ground-breaking albums.

Soft Machine - 11 Live Albums (1988-2006) (Repost)

Soft Machine - Live at the Proms 1970 (1988)
EAC Rip | WavPack (image+.cue+log) - 238 MB | MP3 CBR 320 kbps (LAME 3.93) - 91 MB | Covers - 67 MB
Genre: Progressive/Jazz Rock, Canterbury Scene | RAR 3% Rec. | Label: Reckless Records (CD RECK 5)

Tracklist:
01. Out-Bloody-Rageous
02. Facelift
03. Esther's Nose Job

Total time: 38:57

Exact Audio Copy V1.0 beta 3 from 29. August 2011

EAC extraction logfile from 8. December 2012, 10:17

Soft Machine / Live at the Proms 1970

Used drive : HL-DT-STBDDVDRW GBC-H20N Adapter: 1 ID: 0

Read mode : Secure
Utilize accurate stream : Yes
Defeat audio cache : Yes
Make use of C2 pointers : No

Read offset correction : 667
Overread into Lead-In and Lead-Out : No
Fill up missing offset samples with silence : Yes
Delete leading and trailing silent blocks : No
Null samples used in CRC calculations : Yes
Used interface : Native Win32 interface for Win NT & 2000

Used output format : User Defined Encoder
Selected bitrate : 1024 kBit/s
Quality : High
Add ID3 tag : No
Command line compressor : C:\Program Files\Exact Audio Copy\wavpack.exe
Additional command line options : -hm %source% %dest%


TOC of the extracted CD

Track | Start | Length | Start sector | End sector
––––––––––––––––––––––––––––-
1 | 0:00.00 | 11:54.55 | 0 | 53604
2 | 11:54.55 | 11:22.57 | 53605 | 104811
3 | 23:17.37 | 15:39.50 | 104812 | 175286


Range status and errors

Selected range

Filename I:\Music\Canterbury scene\Soft Machine\Soft.Machine-Discography.1968-2010.FLAC.CUE.Lossless\2 - Live\05 - Live at the Proms 1970\Soft Machine - Live at the Proms 1970.wav

Peak level 100.0 %
Extraction speed 5.6 X
Range quality 100.0 %
Test CRC 504EE489
Copy CRC 504EE489
Copy OK

No errors occurred


AccurateRip summary

Track 1 accurately ripped (confidence 7) [9BB24D0C] (AR v1)
Track 2 accurately ripped (confidence 7) [1287932F] (AR v1)
Track 3 accurately ripped (confidence 6) [DE8C64FE] (AR v1)

All tracks accurately ripped

End of status report

–– CUETools DB Plugin V2.1.3

[CTDB TOCID: YNmcPaXz_ml54nleOnU9d1uPiBE-] found, Submit result: YNmcPaXz_ml54nleOnU9d1uPiBE- has been confirmed
[d4357e9a] (2/2) Accurately ripped


==== Log checksum 37DAD4CB219401D820AE09C9BCDDB5C566C1632B3FB6559922B0A62C92162AF8 ====

[CUETools log; Date: 20.08.2018 18:26:01; Version: 2.1.4]
[CTDB TOCID: YNmcPaXz_ml54nleOnU9d1uPiBE-] found.
Track | CTDB Status
1 | (22/22) Accurately ripped
2 | (22/22) Accurately ripped
3 | (22/22) Accurately ripped
[AccurateRip ID: 00051788-001121eb-26092103] found.
Track [ CRC | V2 ] Status
01 [9bb24d0c|3a69b85b] (10+11/25) Accurately ripped
02 [1287932f|f0627724] (11+13/28) Accurately ripped
03 [de8c64fe|817bca64] (06+11/19) Accurately ripped
Offsetted by 471:
01 [d2ead2d3] (02/25) Accurately ripped
02 [82291719] (02/28) Accurately ripped
03 [a3d85038] (00/19) No match (V2 was not tested)

Track Peak [ CRC32 ] [W/O NULL] [ LOG ]
– 100,0 [504EE489] [0A8EC2A8] CRC32
01 88,0 [C414734C] [8B41DDE7]
02 100,0 [3160F97C] [33D729FF]
03 85,1 [E8DA2E40] [070D388D]

Soft Machine - 11 Live Albums (1988-2006) (Repost)

Soft Machine - The Peel Sessions (1990)
EAC Rip | WavPack (image+.cue+log) - 412 MB | MP3 CBR 320 kbps (LAME 3.93) - 226 MB | Covers - 77 MB
Genre: Progressive/Jazz Rock, Canterbury Scene | RAR 3% Rec. | Label: Strange Fruit Records (DEI8501-2)

CD 1 Tracklist:
01. Moon In June
02. Esther's Nose Job
03. Moustrap, Noisette, Backwards, Mousetrap Reprise
04. Slightly All The Time, Out-Bloody-Rageous, Eamonn Andrews

Total time: 49:11

CD 2 Tracklist:
01. Facelift
02. Virtually
03. Neo Caliban Grides
04. Drop
05. As If
06. Dedicated To You But You Weren't Listening

Total time: 47:05

Exact Audio Copy V1.0 beta 3 from 29. August 2011

EAC extraction logfile from 8. December 2012, 14:35

Soft Machine / The Peel Sessions

Used drive : HL-DT-STBDDVDRW GBC-H20N Adapter: 1 ID: 0

Read mode : Secure
Utilize accurate stream : Yes
Defeat audio cache : Yes
Make use of C2 pointers : No

Read offset correction : 667
Overread into Lead-In and Lead-Out : No
Fill up missing offset samples with silence : Yes
Delete leading and trailing silent blocks : No
Null samples used in CRC calculations : Yes
Used interface : Native Win32 interface for Win NT & 2000

Used output format : User Defined Encoder
Selected bitrate : 1024 kBit/s
Quality : High
Add ID3 tag : No
Command line compressor : C:\Program Files\Exact Audio Copy\wavpack.exe
Additional command line options : -hm %source% %dest%


TOC of the extracted CD

Track | Start | Length | Start sector | End sector
––––––––––––––––––––––––––––-
1 | 0:00.00 | 13:05.00 | 0 | 58874
2 | 13:05.00 | 11:58.38 | 58875 | 112762
3 | 25:03.38 | 8:47.57 | 112763 | 152344
4 | 33:51.20 | 15:20.13 | 152345 | 221357


Range status and errors

Selected range

Filename I:\Music\Canterbury scene\Soft Machine\Soft.Machine-Discography.1968-2010.FLAC.CUE.Lossless\2 - Live\06 - The Peel Sessions\CD One\Soft Machine - The Peel Sessions.wav

Peak level 95.0 %
Extraction speed 6.0 X
Range quality 100.0 %
Test CRC 1C5EDCDB
Copy CRC 1C5EDCDB
Copy OK

No errors occurred


AccurateRip summary

Track 1 accurately ripped (confidence 3) [89669CF4] (AR v1)
Track 2 accurately ripped (confidence 4) [774295B9] (AR v1)
Track 3 accurately ripped (confidence 4) [8B3DBC39] (AR v1)
Track 4 accurately ripped (confidence 4) [27F64F98] (AR v1)

All tracks accurately ripped

End of status report

–– CUETools DB Plugin V2.1.3

[CTDB TOCID: 03w1JXE9uA9EQk_TX.eAGGfHl60-] found, Submit result: already submitted
[14c7a69d] (7/7) Accurately ripped


==== Log checksum 6D94FD67D9ED1009C00BD8FEE87ABF18BC53CE9881972F5E547D3DB4693B0E56 ====

[CUETools log; Date: 20.08.2018 18:51:07; Version: 2.1.4]
[CTDB TOCID: 03w1JXE9uA9EQk_TX.eAGGfHl60-] found.
Track | CTDB Status
1 | (13/14) Accurately ripped
2 | (13/14) Accurately ripped
3 | (13/14) Accurately ripped
4 | (14/14) Accurately ripped
[AccurateRip ID: 0008523d-00212532-2b0b8704] found.
Track [ CRC | V2 ] Status
01 [89669cf4|04ee4328] (3+3/8) Accurately ripped
02 [774295b9|ad4bca55] (4+3/9) Accurately ripped
03 [8b3dbc39|c28ac5cd] (4+3/9) Accurately ripped
04 [27f64f98|0749c8d8] (4+3/9) Accurately ripped
Offsetted by -899:
01 [e13e5b4a] (2/8) Accurately ripped
02 [def7ec81] (2/9) Accurately ripped
03 [eade6dad] (2/9) Accurately ripped
04 [b7bbad68] (2/9) Accurately ripped

Track Peak [ CRC32 ] [W/O NULL] [ LOG ]
– 95,0 [1C5EDCDB] [AC9BE3A6] CRC32
01 88,6 [CD5E87B9] [6D53550B]
02 83,1 [71683A0F] [608079DC]
03 80,3 [050B38A9] [A7E43FAF]
04 95,0 [8FED396D] [CDD5D9F7]

Exact Audio Copy V1.0 beta 3 from 29. August 2011

EAC extraction logfile from 8. December 2012, 14:55

Soft Machine / The Peel Sessions

Used drive : HL-DT-STBDDVDRW GBC-H20N Adapter: 1 ID: 0

Read mode : Secure
Utilize accurate stream : Yes
Defeat audio cache : Yes
Make use of C2 pointers : No

Read offset correction : 667
Overread into Lead-In and Lead-Out : No
Fill up missing offset samples with silence : Yes
Delete leading and trailing silent blocks : No
Null samples used in CRC calculations : Yes
Used interface : Native Win32 interface for Win NT & 2000

Used output format : User Defined Encoder
Selected bitrate : 1024 kBit/s
Quality : High
Add ID3 tag : No
Command line compressor : C:\Program Files\Exact Audio Copy\wavpack.exe
Additional command line options : -hm %source% %dest%


TOC of the extracted CD

Track | Start | Length | Start sector | End sector
––––––––––––––––––––––––––––-
1 | 0:00.00 | 11:58.12 | 0 | 53861
2 | 11:58.12 | 9:58.03 | 53862 | 98714
3 | 21:56.15 | 7:34.30 | 98715 | 132794
4 | 29:30.45 | 6:59.15 | 132795 | 164234
5 | 36:29.60 | 7:49.67 | 164235 | 199476
6 | 44:19.52 | 2:45.13 | 199477 | 211864


Range status and errors

Selected range

Filename I:\Music\Canterbury scene\Soft Machine\Soft.Machine-Discography.1968-2010.FLAC.CUE.Lossless\2 - Live\06 - The Peel Sessions\CD Two\Soft Machine - The Peel Sessions.wav

Peak level 98.9 %
Extraction speed 5.9 X
Range quality 100.0 %
Test CRC 56A83FED
Copy CRC 56A83FED
Copy OK

No errors occurred


AccurateRip summary

Track 1 accurately ripped (confidence 3) [FB04A157] (AR v1)
Track 2 accurately ripped (confidence 3) [42708DE1] (AR v1)
Track 3 accurately ripped (confidence 3) [6E12AD25] (AR v1)
Track 4 accurately ripped (confidence 3) [B29114D2] (AR v1)
Track 5 accurately ripped (confidence 3) [635461EA] (AR v1)
Track 6 accurately ripped (confidence 3) [992D3921] (AR v1)

All tracks accurately ripped

End of status report

–– CUETools DB Plugin V2.1.3

[CTDB TOCID: NRYTaa4af7VMO6k.3lmyNOsYHHk-] found, Submit result: NRYTaa4af7VMO6k.3lmyNOsYHHk- has been confirmed
[f93f16b7] (6/6) Accurately ripped


==== Log checksum AAB5EB89DC9EF48BD488743AD9F49A586CBC01226397C359FEB8D4CB59847C90 ====

[CUETools log; Date: 20.08.2018 18:56:07; Version: 2.1.4]
[CTDB TOCID: NRYTaa4af7VMO6k.3lmyNOsYHHk-] found.
Track | CTDB Status
1 | (11/12) Accurately ripped
2 | (11/12) Accurately ripped
3 | (11/12) Accurately ripped
4 | (11/12) Accurately ripped
5 | (11/12) Accurately ripped
6 | (12/12) Accurately ripped
[AccurateRip ID: 000d2315-0043b0ae-450b0806] found.
Track [ CRC | V2 ] Status
01 [fb04a157|fc49e99c] (3+0/5) Accurately ripped
02 [42708de1|55954d7b] (3+0/5) Accurately ripped
03 [6e12ad25|e4728da4] (3+0/5) Accurately ripped
04 [b29114d2|dc719959] (3+0/5) Accurately ripped
05 [635461ea|9402fccd] (3+0/5) Accurately ripped
06 [992d3921|aee77c97] (3+0/5) Accurately ripped
Offsetted by 1265:
01 [a8213721] (2/5) Accurately ripped
02 [bd4db6d3] (2/5) Accurately ripped
03 [99dc67c7] (2/5) Accurately ripped
04 [6febaf0f] (2/5) Accurately ripped
05 [cf05528f] (2/5) Accurately ripped
06 [ed76f7d1] (2/5) Accurately ripped

Track Peak [ CRC32 ] [W/O NULL] [ LOG ]
– 98,9 [56A83FED] [FA1AFA34] CRC32
01 98,0 [BAFDB088] [7BBCDD12]
02 91,5 [11DAA210] [46D0EED1]
03 97,2 [A7508541] [9DA0911F]
04 98,9 [171BB567] [5D10741F]
05 85,8 [1B249091] [D47FF15C]
06 86,3 [21BB82DA] [9F3EBE8C]

Soft Machine - 11 Live Albums (1988-2006) (Repost)

Soft Machine - Virtually (1998)
EAC Rip | WavPack (image+.cue+log) - 417 MB | MP3 CBR 320 kbps (LAME 3.93) - 182 MB | Covers - 57 MB
Genre: Progressive/Jazz Rock, Canterbury Scene | RAR 3% Rec. | Label: Cuneiform Records (RUNE 100)

Tracklist:
01. Facelift
02. Virtually
03. Slightly All The Time
04. Fletcher's Blemish
05. Neo-Caliban Grides
06. Out-Bloody-Rageous
07. Eamonn Andrews
08. All White
09. Kings And Queens
10. Teeth
11. Pigling Bland

Total time: 01:17:35

Exact Audio Copy V1.0 beta 3 from 29. August 2011

EAC extraction logfile from 13. December 2012, 9:31

Soft Machine / Virtually

Used drive : HL-DT-STBDDVDRW GBC-H20N Adapter: 1 ID: 0

Read mode : Secure
Utilize accurate stream : Yes
Defeat audio cache : Yes
Make use of C2 pointers : No

Read offset correction : 667
Overread into Lead-In and Lead-Out : No
Fill up missing offset samples with silence : Yes
Delete leading and trailing silent blocks : No
Null samples used in CRC calculations : Yes
Used interface : Native Win32 interface for Win NT & 2000

Used output format : User Defined Encoder
Selected bitrate : 1024 kBit/s
Quality : High
Add ID3 tag : No
Command line compressor : C:\Program Files\Exact Audio Copy\wavpack.exe
Additional command line options : -hm %source% %dest%


TOC of the extracted CD

Track | Start | Length | Start sector | End sector
––––––––––––––––––––––––––––-
1 | 0:00.00 | 10:05.07 | 0 | 45381
2 | 10:05.07 | 8:17.25 | 45382 | 82681
3 | 18:22.32 | 8:12.45 | 82682 | 119626
4 | 26:35.02 | 5:53.03 | 119627 | 146104
5 | 32:28.05 | 9:26.42 | 146105 | 188596
6 | 41:54.47 | 10:00.13 | 188597 | 233609
7 | 51:54.60 | 4:29.65 | 233610 | 253849
8 | 56:24.50 | 3:16.07 | 253850 | 268556
9 | 59:40.57 | 3:37.73 | 268557 | 284904
10 | 63:18.55 | 9:20.40 | 284905 | 326944
11 | 72:39.20 | 4:55.67 | 326945 | 349136


Range status and errors

Selected range

Filename I:\Music\Canterbury scene\Soft Machine\Soft.Machine-Discography.1968-2010.FLAC.CUE.Lossless\2 - Live\11 - Virtually\Soft Machine - Virtually.wav

Peak level 98.8 %
Extraction speed 6.4 X
Range quality 100.0 %
Test CRC 3C6DFDC1
Copy CRC 3C6DFDC1
Copy OK

No errors occurred


AccurateRip summary

Track 1 accurately ripped (confidence 11) [E54B2E32] (AR v1)
Track 2 accurately ripped (confidence 11) [CFDF4BF0] (AR v1)
Track 3 accurately ripped (confidence 11) [99D131C2] (AR v1)
Track 4 accurately ripped (confidence 11) [ABB71F66] (AR v1)
Track 5 accurately ripped (confidence 11) [15284EC1] (AR v1)
Track 6 accurately ripped (confidence 11) [AD5CA79F] (AR v1)
Track 7 accurately ripped (confidence 11) [932B02F8] (AR v1)
Track 8 accurately ripped (confidence 11) [444EC767] (AR v1)
Track 9 accurately ripped (confidence 11) [7B437868] (AR v1)
Track 10 accurately ripped (confidence 11) [D3B0F839] (AR v1)
Track 11 accurately ripped (confidence 11) [3FA6E1FE] (AR v1)

All tracks accurately ripped

End of status report

–– CUETools DB Plugin V2.1.3

[CTDB TOCID: 4sam2rtIuUl3I5yfb0b44MIIsR8-] found, Submit result: 4sam2rtIuUl3I5yfb0b44MIIsR8- has been confirmed
[56622811] (1/3) No match
[e4f5aff3] (2/3) Accurately ripped


==== Log checksum F6DCDA9F14CFCE6A01910FA2F01BFAC0D4289F2B4F2B1AF1A48858A4A7A2FD4A ====

[CUETools log; Date: 20.08.2018 19:03:22; Version: 2.1.4]
[CTDB TOCID: 4sam2rtIuUl3I5yfb0b44MIIsR8-] found.
Track | CTDB Status
1 | (33/33) Accurately ripped
2 | (33/33) Accurately ripped
3 | (33/33) Accurately ripped
4 | (33/33) Accurately ripped
5 | (33/33) Accurately ripped
6 | (32/33) Accurately ripped
7 | (33/33) Accurately ripped
8 | (33/33) Accurately ripped
9 | (33/33) Accurately ripped
10 | (32/33) Accurately ripped
11 | (31/33) Accurately ripped
[AccurateRip ID: 00231605-0127fbde-92122f0b] found.
Track [ CRC | V2 ] Status
01 [e54b2e32|7429c673] (11+22/35) Accurately ripped
02 [cfdf4bf0|74edeeef] (11+22/35) Accurately ripped
03 [99d131c2|e207f0bc] (11+22/35) Accurately ripped
04 [abb71f66|fa75f8f8] (11+22/35) Accurately ripped
05 [15284ec1|62a93c58] (11+22/37) Accurately ripped
06 [ad5ca79f|03da20a6] (11+21/36) Accurately ripped
07 [932b02f8|39f89062] (11+22/37) Accurately ripped
08 [444ec767|1e915c01] (11+21/36) Accurately ripped
09 [7b437868|98c097c9] (11+21/36) Accurately ripped
10 [d3b0f839|9aebfe6d] (11+21/36) Accurately ripped
11 [3fa6e1fe|d6bf07b9] (11+19/34) Accurately ripped
Offsetted by -18:
01 [df23cdfa] (00/35) No match (V2 was not tested)
02 [a10c0442] (00/35) No match (V2 was not tested)
03 [f38bd67f] (00/35) No match (V2 was not tested)
04 [68c31ff6] (00/35) No match (V2 was not tested)
05 [1cee651e] (00/37) No match (V2 was not tested)
06 [47d999d6] (00/36) No match (V2 was not tested)
07 [85d3ffd6] (00/37) No match (V2 was not tested)
08 [b4c2079a] (00/36) No match (V2 was not tested)
09 [8610bd84] (00/36) No match (V2 was not tested)
10 [b15b2420] (00/36) No match (V2 was not tested)
11 [fc54d10d] (00/34) No match (V2 was not tested)
Offsetted by 6:
01 [d36e8737] (00/35) No match (V2 was not tested)
02 [6316e297] (00/35) No match (V2 was not tested)
03 [36c26622] (00/35) No match (V2 was not tested)
04 [6a1214ce] (00/35) No match (V2 was not tested)
05 [4c6159aa] (00/37) No match (V2 was not tested)
06 [fd420a55] (00/36) No match (V2 was not tested)
07 [e0e518f9] (00/37) No match (V2 was not tested)
08 [62926d76] (00/36) No match (V2 was not tested)
09 [b3880871] (00/36) No match (V2 was not tested)
10 [009858e3] (00/36) No match (V2 was not tested)
11 [0ffe1806] (00/34) No match (V2 was not tested)

Track Peak [ CRC32 ] [W/O NULL] [ LOG ]
– 98,8 [3C6DFDC1] [698258ED] CRC32
01 78,9 [D88E9B94] [A5E8734E]
02 62,5 [A39052E0] [7AAFEDB8]
03 65,6 [BDCE8D4B] [E96B04BC]
04 50,9 [CA6D0E79] [86E0177D]
05 98,8 [EE9FF2B2] [7B3FDD9B]
06 63,1 [FCCEDB3A] [6EFF4B38]
07 71,4 [2FA5DD06] [62CFF28D]
08 61,6 [F67BB0F1] [F6C2573B]
09 68,4 [9A75CA0C] [979E1A2D]
10 94,4 [2AF33239] [63665C96]
11 67,6 [A282C250] [B0EC7514]

Soft Machine - 11 Live Albums (1988-2006) (Repost)

Soft Machine - Noisette (2000)
EAC Rip | WavPack (image+.cue+log) - 446 MB | MP3 CBR 320 kbps (LAME 3.93) - 173 MB | Covers - 85 MB
Genre: Progressive/Jazz Rock, Canterbury Scene | RAR 3% Rec. | Label: Cuneiform Records (RUNE 130)

Tracklist:
01. Eamonn Andrews
02. Mousetrap
03. Noisette
04. Backwards
05. Mousetrap (Reprise)
06. Hibou, Anemone And Bear
07. Moon In June
08. 12/8 Theme
09. Esther's Nose Job
10. We Did It Again

Total time: 01:13:27

Exact Audio Copy V1.0 beta 3 from 29. August 2011

EAC extraction logfile from 13. December 2012, 11:07

Soft Machine / Noisette

Used drive : HL-DT-STBDDVDRW GBC-H20N Adapter: 1 ID: 0

Read mode : Secure
Utilize accurate stream : Yes
Defeat audio cache : Yes
Make use of C2 pointers : No

Read offset correction : 667
Overread into Lead-In and Lead-Out : No
Fill up missing offset samples with silence : Yes
Delete leading and trailing silent blocks : No
Null samples used in CRC calculations : Yes
Used interface : Native Win32 interface for Win NT & 2000

Used output format : User Defined Encoder
Selected bitrate : 1024 kBit/s
Quality : High
Add ID3 tag : No
Command line compressor : C:\Program Files\Exact Audio Copy\wavpack.exe
Additional command line options : -hm %source% %dest%


TOC of the extracted CD

Track | Start | Length | Start sector | End sector
––––––––––––––––––––––––––––-
1 | 0:00.00 | 12:15.02 | 0 | 55126
2 | 12:15.02 | 5:24.23 | 55127 | 79449
3 | 17:39.25 | 0:37.22 | 79450 | 82246
4 | 18:16.47 | 4:47.33 | 82247 | 103804
5 | 23:04.05 | 0:25.42 | 103805 | 105721
6 | 23:29.47 | 9:21.18 | 105722 | 147814
7 | 32:50.65 | 6:55.15 | 147815 | 178954
8 | 39:46.05 | 11:24.57 | 178955 | 230311
9 | 51:10.62 | 14:59.70 | 230312 | 297806
10 | 66:10.57 | 7:16.45 | 297807 | 330551


Range status and errors

Selected range

Filename I:\Music\Canterbury scene\Soft Machine\Soft.Machine-Discography.1968-2010.FLAC.CUE.Lossless\2 - Live\12 - Noisette\Soft Machine - Noisette.wav

Peak level 98.2 %
Extraction speed 1.6 X
Range quality 100.0 %
Test CRC 867B0115
Copy CRC 867B0115
Copy OK

No errors occurred


AccurateRip summary

Track 1 accurately ripped (confidence 2) [ECEDDB2B] (AR v2)
Track 2 accurately ripped (confidence 2) [6E975C72] (AR v2)
Track 3 accurately ripped (confidence 2) [145F00BC] (AR v2)
Track 4 accurately ripped (confidence 2) [0E25FA77] (AR v2)
Track 5 accurately ripped (confidence 2) [5C40CD1C] (AR v2)
Track 6 accurately ripped (confidence 2) [10DAF9A0] (AR v2)
Track 7 accurately ripped (confidence 2) [684F1F9C] (AR v2)
Track 8 accurately ripped (confidence 2) [1525EC3B] (AR v2)
Track 9 accurately ripped (confidence 2) [54145282] (AR v2)
Track 10 accurately ripped (confidence 2) [D2BBF4DF] (AR v2)

All tracks accurately ripped

End of status report

–– CUETools DB Plugin V2.1.3

[CTDB TOCID: _2hI7AeT4lGX7YmPa8funAV83y4-] found, Submit result: _2hI7AeT4lGX7YmPa8funAV83y4- has been confirmed
[6acc16da] (1/1) Accurately ripped


==== Log checksum 0751035F49EE3B608881FDB8E9DF5F72AEE77F0A0AF6B5014D96C82AC958342F ====

[CUETools log; Date: 20.08.2018 19:07:28; Version: 2.1.4]
[CTDB TOCID: _2hI7AeT4lGX7YmPa8funAV83y4-] found.
Track | CTDB Status
1 | (11/11) Accurately ripped
2 | (11/11) Accurately ripped
3 | (11/11) Accurately ripped
4 | (11/11) Accurately ripped
5 | (11/11) Accurately ripped
6 | (11/11) Accurately ripped
7 | (11/11) Accurately ripped
8 | (11/11) Accurately ripped
9 | (11/11) Accurately ripped
10 | (11/11) Accurately ripped
[AccurateRip ID: 00189810-00c61fb5-8f11370a] found.
Track [ CRC | V2 ] Status
01 [82407c60|eceddb2b] (03+05/13) Accurately ripped
02 [5456009b|6e975c72] (03+05/13) Accurately ripped
03 [38a88f42|145f00bc] (03+05/13) Accurately ripped
04 [e30f155d|0e25fa77] (03+05/13) Accurately ripped
05 [cb1699af|5c40cd1c] (03+05/13) Accurately ripped
06 [55897de6|10daf9a0] (03+05/13) Accurately ripped
07 [87e3c7bd|684f1f9c] (03+05/13) Accurately ripped
08 [1bfe388f|1525ec3b] (03+05/13) Accurately ripped
09 [0dcf6cb8|54145282] (03+05/13) Accurately ripped
10 [3a1d1acb|d2bbf4df] (03+05/13) Accurately ripped
Offsetted by 18:
01 [dc86772e] (00/13) No match (V2 was not tested)
02 [41f3cc14] (00/13) No match (V2 was not tested)
03 [820a5243] (00/13) No match (V2 was not tested)
04 [330e3810] (00/13) No match (V2 was not tested)
05 [477db11a] (00/13) No match (V2 was not tested)
06 [fd08f635] (00/13) No match (V2 was not tested)
07 [10814c94] (00/13) No match (V2 was not tested)
08 [e2554827] (00/13) No match (V2 was not tested)
09 [6ad61654] (00/13) No match (V2 was not tested)
10 [0ec0796a] (00/13) No match (V2 was not tested)
Offsetted by 24:
01 [60330488] (00/13) No match (V2 was not tested)
02 [d32a15fb] (00/13) No match (V2 was not tested)
03 [c4b4f739] (00/13) No match (V2 was not tested)
04 [72a80ba4] (00/13) No match (V2 was not tested)
05 [0c2d85b7] (00/13) No match (V2 was not tested)
06 [be2aa0e0] (00/13) No match (V2 was not tested)
07 [f9c9c720] (00/13) No match (V2 was not tested)
08 [ab20f5b2] (00/13) No match (V2 was not tested)
09 [762a1679] (00/13) No match (V2 was not tested)
10 [28a7a47d] (00/13) No match (V2 was not tested)

Track Peak [ CRC32 ] [W/O NULL] [ LOG ]
– 98,2 [867B0115] [5EEBD1A8] CRC32
01 96,3 [4237A248] [BBDB91B7]
02 91,8 [72AA8B66] [7DC5D15D]
03 80,7 [3C533A4D] [45BD5058]
04 87,5 [5FF71EC4] [C92D1575]
05 82,1 [8B0F1F24] [45BC2DFF]
06 96,6 [C6B8AAAE] [226858B7]
07 96,6 [681BD88A] [E96B51CA]
08 96,0 [0C8F8578] [2B886DD9]
09 98,2 [6C169BB3] [70D75D74]
10 97,1 [CBC657BD] [B0E3E3A0]

Soft Machine - 11 Live Albums (1988-2006) (Repost)

Soft Machine - Backwards (2002)
EAC Rip | WavPack (image+.cue+log) - 430 MB | MP3 CBR 320 kbps (LAME 3.93) - 171 MB | Covers - 152 MB
Genre: Progressive/Jazz Rock, Canterbury Scene | RAR 3% Rec. | Label: Cuneiform Records (RUNE 170)

Tracklist:
01. Facelift
02. Moon In June
03. Ester's Nose Job
04. Facelift
05. Hibou Anemone And Bear
06. Moon In June - Demo

Total time: 01:12:36

Exact Audio Copy V1.0 beta 3 from 29. August 2011

EAC extraction logfile from 13. December 2012, 20:31

Soft Machine / Backwards

Used drive : HL-DT-STBDDVDRW GBC-H20N Adapter: 1 ID: 0

Read mode : Secure
Utilize accurate stream : Yes
Defeat audio cache : Yes
Make use of C2 pointers : No

Read offset correction : 667
Overread into Lead-In and Lead-Out : No
Fill up missing offset samples with silence : Yes
Delete leading and trailing silent blocks : No
Null samples used in CRC calculations : Yes
Used interface : Native Win32 interface for Win NT & 2000

Used output format : User Defined Encoder
Selected bitrate : 1024 kBit/s
Quality : High
Add ID3 tag : No
Command line compressor : C:\Program Files\Exact Audio Copy\wavpack.exe
Additional command line options : -hm %source% %dest%


TOC of the extracted CD

Track | Start | Length | Start sector | End sector
––––––––––––––––––––––––––––-
1 | 0:00.00 | 18:39.57 | 0 | 83981
2 | 18:39.57 | 7:38.65 | 83982 | 118396
3 | 26:18.47 | 12:59.65 | 118397 | 176886
4 | 39:18.37 | 8:36.10 | 176887 | 215596
5 | 47:54.47 | 4:05.53 | 215597 | 234024
6 | 52:00.25 | 20:35.50 | 234025 | 326699


Range status and errors

Selected range

Filename I:\Music\Canterbury scene\Soft Machine\Soft.Machine-Discography.1968-2010.FLAC.CUE.Lossless\2 - Live\13 - Backwards\Soft Machine - Backwards.wav

Peak level 100.0 %
Extraction speed 1.5 X
Range quality 100.0 %
Test CRC 41B5FBFA
Copy CRC 41B5FBFA
Copy OK

No errors occurred


AccurateRip summary

Track 1 accurately ripped (confidence 2) [01FF5151] (AR v1)
Track 2 accurately ripped (confidence 2) [F812A463] (AR v1)
Track 3 accurately ripped (confidence 2) [38C2D633] (AR v1)
Track 4 accurately ripped (confidence 2) [8A47BAB9] (AR v1)
Track 5 accurately ripped (confidence 2) [5869D4EB] (AR v1)
Track 6 accurately ripped (confidence 2) [59753F88] (AR v1)

All tracks accurately ripped

End of status report

–– CUETools DB Plugin V2.1.3

[CTDB TOCID: KhNveShLQRzGLNw8JoD4SZuDdnc-] found, Submit result: KhNveShLQRzGLNw8JoD4SZuDdnc- has been confirmed
[8618ff81] (1/1) Accurately ripped


==== Log checksum ABBE31DDAA96ACFC2F43334BC4FAABE2D705FD00C1C68F74F63ACF5B44CC9803 ====

[CUETools log; Date: 20.08.2018 19:08:45; Version: 2.1.4]
[CTDB TOCID: KhNveShLQRzGLNw8JoD4SZuDdnc-] found.
Track | CTDB Status
1 | (5/5) Accurately ripped
2 | (5/5) Accurately ripped
3 | (5/5) Accurately ripped
4 | (5/5) Accurately ripped
5 | (5/5) Accurately ripped
6 | (5/5) Accurately ripped
[AccurateRip ID: 0011a204-005b8c7b-3f110406] found.
Track [ CRC | V2 ] Status
01 [01ff5151|5d4aedc3] (2+0/2) Accurately ripped
02 [f812a463|0b25c692] (2+0/2) Accurately ripped
03 [38c2d633|eaa4966d] (2+0/2) Accurately ripped
04 [8a47bab9|b06492bd] (2+0/2) Accurately ripped
05 [5869d4eb|27d910ad] (2+0/2) Accurately ripped
06 [59753f88|bced3dbe] (2+0/2) Accurately ripped

Track Peak [ CRC32 ] [W/O NULL] [ LOG ]
– 100,0 [41B5FBFA] [0AAB520F] CRC32
01 99,4 [B70FBD55] [66847644]
02 98,1 [920FC996] [0C0D4FEF]
03 99,7 [9F6852B9] [70AD7DB2]
04 100,0 [A2ED93CC] [5E1DEBA8]
05 99,9 [D3223D41] [BF3E7779]
06 99,9 [8B209A54] [D60EA739]

Soft Machine - 11 Live Albums (1988-2006) (Repost)

Soft Machine - Live in Paris, May 2nd, 1972 (2004)
EAC Rip | WavPack (image+.cue+log) - 657 MB | MP3 CBR 320 kbps (LAME 3.93) - 247 MB | Covers - 80 MB
Genre: Progressive/Jazz Rock, Canterbury Scene | RAR 3% Rec. | Label: Cuneiform Records (RUNE 195/196)

CD 1 Tracklist:
01. Plain Tiffs
02. All White
03. Slightly All The Time
04. Drop
05. M.C.
06. Out-Bloody-Rageous

Total time: 47:06

CD 2 Tracklist:
01. Facelift
02. And Sevens
03. As If
04. LBO
05. Pigling Bland
06. At Sixes

Total time: 58:00

Exact Audio Copy V1.0 beta 3 from 29. August 2011

EAC extraction logfile from 13. December 2012, 7:46

Soft Machine / Live in France

Used drive : HL-DT-STBDDVDRW GBC-H20N Adapter: 1 ID: 0

Read mode : Secure
Utilize accurate stream : Yes
Defeat audio cache : Yes
Make use of C2 pointers : No

Read offset correction : 667
Overread into Lead-In and Lead-Out : No
Fill up missing offset samples with silence : Yes
Delete leading and trailing silent blocks : No
Null samples used in CRC calculations : Yes
Used interface : Native Win32 interface for Win NT & 2000

Used output format : User Defined Encoder
Selected bitrate : 1024 kBit/s
Quality : High
Add ID3 tag : No
Command line compressor : C:\Program Files\Exact Audio Copy\wavpack.exe
Additional command line options : -hm %source% %dest%


TOC of the extracted CD

Track | Start | Length | Start sector | End sector
––––––––––––––––––––––––––––-
1 | 0:00.00 | 3:30.10 | 0 | 15759
2 | 3:30.10 | 6:23.24 | 15760 | 44508
3 | 9:53.34 | 13:07.71 | 44509 | 103604
4 | 23:01.30 | 7:42.06 | 103605 | 138260
5 | 30:43.36 | 2:59.14 | 138261 | 151699
6 | 33:42.50 | 13:22.66 | 151700 | 211915


Range status and errors

Selected range

Filename I:\Music\Canterbury scene\Soft Machine\Soft.Machine-Discography.1968-2010.FLAC.CUE.Lossless\2 - Live\09 - Live in Paris\CD One\Soft Machine - Live in France.wav

Peak level 100.0 %
Extraction speed 5.8 X
Range quality 100.0 %
Test CRC A4080927
Copy CRC A4080927
Copy OK

No errors occurred


AccurateRip summary

Track 1 accurately ripped (confidence 2) [F168859A] (AR v2)
Track 2 accurately ripped (confidence 2) [0EDA49B8] (AR v2)
Track 3 accurately ripped (confidence 2) [E44C2BFD] (AR v2)
Track 4 accurately ripped (confidence 2) [6611022B] (AR v2)
Track 5 accurately ripped (confidence 2) [D5D5E188] (AR v2)
Track 6 accurately ripped (confidence 2) [5AB311B3] (AR v2)

All tracks accurately ripped

End of status report

–– CUETools DB Plugin V2.1.3

[CTDB TOCID: soXqBJXNpFztbQTBmiXxH_C17H0-] found, Submit result: soXqBJXNpFztbQTBmiXxH_C17H0- has been confirmed
[d5d29018] (6/6) Accurately ripped


==== Log checksum C56C142E93DC0D6B7208EEFC8D95876FD00E0CE07F105D1F135A4E34D46EDDF5 ====

[CUETools log; Date: 20.08.2018 19:12:56; Version: 2.1.4]
[CTDB TOCID: soXqBJXNpFztbQTBmiXxH_C17H0-] found.
Track | CTDB Status
1 | (19/19) Accurately ripped
2 | (19/19) Accurately ripped
3 | (19/19) Accurately ripped
4 | (19/19) Accurately ripped
5 | (19/19) Accurately ripped
6 | (18/19) Accurately ripped
[AccurateRip ID: 000a2897-0037ea01-430b0906] found.
Track [ CRC | V2 ] Status
01 [baaad200|f168859a] (04+10/14) Accurately ripped
02 [ca6f60fa|0eda49b8] (04+10/14) Accurately ripped
03 [560d4c79|e44c2bfd] (04+10/14) Accurately ripped
04 [9d3a571c|6611022b] (04+10/14) Accurately ripped
05 [f94d02c9|d5d5e188] (04+10/14) Accurately ripped
06 [55f77b20|5ab311b3] (04+10/14) Accurately ripped

Track Peak [ CRC32 ] [W/O NULL] [ LOG ]
– 100,0 [A4080927] [DE3F0B88] CRC32
01 98,1 [2EF15E66] [8CA30E81]
02 98,4 [5248F12F] [9AB132EA]
03 87,0 [EDAA1996] [22D0B6EC]
04 100,0 [D6E4DE21] [01E68189]
05 73,3 [1B98DC0F] [ECB924CA]
06 95,8 [CAA71044] [CEBEB6F1]

Exact Audio Copy V1.0 beta 3 from 29. August 2011

EAC extraction logfile from 13. December 2012, 8:34

The Soft Machine / Live In Paris, May 2nd, 1972 - Disc 2

Used drive : HL-DT-STBDDVDRW GBC-H20N Adapter: 1 ID: 0

Read mode : Secure
Utilize accurate stream : Yes
Defeat audio cache : Yes
Make use of C2 pointers : No

Read offset correction : 667
Overread into Lead-In and Lead-Out : No
Fill up missing offset samples with silence : Yes
Delete leading and trailing silent blocks : No
Null samples used in CRC calculations : Yes
Used interface : Native Win32 interface for Win NT & 2000

Used output format : User Defined Encoder
Selected bitrate : 1024 kBit/s
Quality : High
Add ID3 tag : No
Command line compressor : C:\Program Files\Exact Audio Copy\wavpack.exe
Additional command line options : -hm %source% %dest%


TOC of the extracted CD

Track | Start | Length | Start sector | End sector
––––––––––––––––––––––––––––-
1 | 0:00.00 | 17:50.38 | 0 | 80287
2 | 17:50.38 | 8:54.41 | 80288 | 120378
3 | 26:45.04 | 8:27.72 | 120379 | 158475
4 | 35:13.01 | 6:07.57 | 158476 | 186057
5 | 41:20.58 | 6:04.23 | 186058 | 213380
6 | 47:25.06 | 10:34.70 | 213381 | 261000


Range status and errors

Selected range

Filename I:\Music\Canterbury scene\Soft Machine\Soft.Machine-Discography.1968-2010.FLAC.CUE.Lossless\2 - Live\09 - Live in Paris\CD Two\The Soft Machine - Live In Paris, May 2nd, 1972 - Disc 2.wav

Peak level 96.8 %
Extraction speed 6.0 X
Range quality 99.9 %
Test CRC B2A2BB92
Copy CRC B2A2BB92
Copy OK

No errors occurred


AccurateRip summary

Track 1 accurately ripped (confidence 2) [9F155227] (AR v2)
Track 2 accurately ripped (confidence 2) [A32CDD4E] (AR v2)
Track 3 accurately ripped (confidence 2) [06303954] (AR v2)
Track 4 accurately ripped (confidence 2) [5A338A99] (AR v2)
Track 5 accurately ripped (confidence 2) [5AA72B70] (AR v2)
Track 6 accurately ripped (confidence 2) [1EAF3028] (AR v2)

All tracks accurately ripped

End of status report

–– CUETools DB Plugin V2.1.3

[CTDB TOCID: GHrVMRHU7TyENHEMSquqDFYwArc-] found, Submit result: GHrVMRHU7TyENHEMSquqDFYwArc- has been confirmed
[3b8a8cd8] (6/6) Accurately ripped


==== Log checksum E6530819EB6E5E4DA4440201CC6F35D12095B290A18FEEEE3CAA0F03481B6F1C ====

[CUETools log; Date: 20.08.2018 19:16:27; Version: 2.1.4]
[CTDB TOCID: GHrVMRHU7TyENHEMSquqDFYwArc-] found.
Track | CTDB Status
1 | (18/18) Accurately ripped
2 | (18/18) Accurately ripped
3 | (18/18) Accurately ripped
4 | (18/18) Accurately ripped
5 | (18/18) Accurately ripped
6 | (17/18) Accurately ripped
[AccurateRip ID: 000f8ebf-004f3df1-480d9806] found.
Track [ CRC | V2 ] Status
01 [ccdb6f4a|9f155227] (04+10/14) Accurately ripped
02 [9faece07|a32cdd4e] (04+10/14) Accurately ripped
03 [6643fc73|06303954] (04+10/14) Accurately ripped
04 [8b08d151|5a338a99] (04+10/14) Accurately ripped
05 [cdfceadb|5aa72b70] (04+10/14) Accurately ripped
06 [f78b2132|1eaf3028] (04+10/14) Accurately ripped

Track Peak [ CRC32 ] [W/O NULL] [ LOG ]
– 96,8 [B2A2BB92] [8DE4E7A9] CRC32
01 87,5 [37E1857C] [85D98CDB]
02 96,3 [165DD4C4] [1AC5B9DD]
03 96,6 [C1CE3305] [CEFB7A48]
04 96,8 [F5A500EB] [33AB2A9E]
05 84,5 [E6E6BBC3] [36DAD82B]
06 90,2 [5BB0B144] [16D323D3]

Soft Machine - 11 Live Albums (1988-2006) (Repost)

Soft Machine - Breda Reactor (2004)
EAC Rip | WavPack (image+.cue+log) - 565 MB | MP3 CBR 320 kbps (LAME 3.93) - 208 MB | Covers - 74 MB
Genre: Progressive/Jazz Rock, Canterbury Scene | RAR 3% Rec. | Label: Voiceprint (VP345CD)

CD 1 Tracklist:
01. Eanmonn Andrews
02. Mousetrap
03. Noisette
04. Backwards
05. Mousetrap (Reprise)
06. Hibou Anemone & Bear

Total time: 33:13

CD 2 Tracklist:
01. Facelift
02. Moon In June
03. 12/8 Theme
04. Drum Link
05. Esther's Nose Job
06. Pigling Band
07. Cymbalism
08. Out-Bloody-Rageous (Excerpt)
09. Ester's Nose Job (Reprise)
10. We Did It Again

Total time: 55:11

Exact Audio Copy V1.0 beta 3 from 29. August 2011

EAC extraction logfile from 14. December 2012, 7:08

Soft Machine / Breda Reactor

Used drive : HL-DT-STBDDVDRW GBC-H20N Adapter: 1 ID: 0

Read mode : Secure
Utilize accurate stream : Yes
Defeat audio cache : Yes
Make use of C2 pointers : No

Read offset correction : 667
Overread into Lead-In and Lead-Out : No
Fill up missing offset samples with silence : Yes
Delete leading and trailing silent blocks : No
Null samples used in CRC calculations : Yes
Used interface : Native Win32 interface for Win NT & 2000

Used output format : User Defined Encoder
Selected bitrate : 1024 kBit/s
Quality : High
Add ID3 tag : No
Command line compressor : C:\Program Files\Exact Audio Copy\wavpack.exe
Additional command line options : -hm %source% %dest%


TOC of the extracted CD

Track | Start | Length | Start sector | End sector
––––––––––––––––––––––––––––-
1 | 0:00.00 | 12:53.12 | 0 | 57986
2 | 12:53.12 | 5:35.00 | 57987 | 83111
3 | 18:28.12 | 0:38.61 | 83112 | 86022
4 | 19:06.73 | 4:25.48 | 86023 | 105945
5 | 23:32.46 | 0:15.36 | 105946 | 107106
6 | 23:48.07 | 9:25.05 | 107107 | 149486


Range status and errors

Selected range

Filename I:\Music\Canterbury scene\Soft Machine\Soft.Machine-Discography.1968-2010.FLAC.CUE.Lossless\2 - Live\18 - Breda Reactor\CD One\Soft Machine - Breda Reactor.wav

Peak level 98.8 %
Extraction speed 5.4 X
Range quality 100.0 %
Test CRC 013F87DE
Copy CRC 013F87DE
Copy OK

No errors occurred


AccurateRip summary

Track 1 accurately ripped (confidence 2) [B31B7806] (AR v2)
Track 2 accurately ripped (confidence 2) [F357BFA2] (AR v2)
Track 3 accurately ripped (confidence 2) [CB54212E] (AR v2)
Track 4 accurately ripped (confidence 2) [CE0AB85C] (AR v2)
Track 5 accurately ripped (confidence 2) [A5496068] (AR v2)
Track 6 accurately ripped (confidence 2) [6E8BECD4] (AR v2)

All tracks accurately ripped

End of status report

–– CUETools DB Plugin V2.1.3

[CTDB TOCID: 6UsHiOGlbeAqiD_3Tt_J86Rpvrc-] found, Submit result: 6UsHiOGlbeAqiD_3Tt_J86Rpvrc- has been confirmed
[0fe48c44] (8/8) Accurately ripped


==== Log checksum 0D10D9A057E268935765AE477B975ACB3B87167AE88AB7D27524CB1AF394E5EA ====

[CUETools log; Date: 20.08.2018 19:17:04; Version: 2.1.4]
[CTDB TOCID: 6UsHiOGlbeAqiD_3Tt_J86Rpvrc-] found.
Track | CTDB Status
1 | (19/19) Accurately ripped
2 | (19/19) Accurately ripped
3 | (19/19) Accurately ripped
4 | (19/19) Accurately ripped
5 | (19/19) Accurately ripped
6 | (19/19) Accurately ripped
[AccurateRip ID: 0008ff5e-002cae38-3807c906] found.
Track [ CRC | V2 ] Status
01 [70089afc|b31b7806] (00+04/12) Accurately ripped
02 [4c0a3726|f357bfa2] (00+04/12) Accurately ripped
03 [aef21657|cb54212e] (00+04/12) Accurately ripped
04 [840af9b7|ce0ab85c] (00+04/12) Accurately ripped
05 [a256bbcf|a5496068] (00+04/12) Accurately ripped
06 [5a02ad22|6e8becd4] (00+04/12) Accurately ripped
Offsetted by 36:
01 [8b35f19a] (05/12) Accurately ripped
02 [5282a8bc] (05/12) Accurately ripped
03 [f2645040] (05/12) Accurately ripped
04 [9210ec7c] (05/12) Accurately ripped
05 [d7b9b570] (05/12) Accurately ripped
06 [d5b62072] (05/12) Accurately ripped

Track Peak [ CRC32 ] [W/O NULL] [ LOG ]
– 98,8 [013F87DE] [60645F23] CRC32
01 98,3 [F5F9314E] [F37A4E46]
02 98,8 [4559361B] [EC0871D2]
03 91,6 [BFB1B9D2] [8B0D3D24]
04 84,5 [BD961103] [9C307F44]
05 83,6 [BFB0B20E] [6B60D93C]
06 88,6 [6C7F9503] [B81DDC7E]

Exact Audio Copy V1.0 beta 3 from 29. August 2011

EAC extraction logfile from 14. December 2012, 7:32

Soft Machine / Breda Reactor

Used drive : HL-DT-STBDDVDRW GBC-H20N Adapter: 1 ID: 0

Read mode : Secure
Utilize accurate stream : Yes
Defeat audio cache : Yes
Make use of C2 pointers : No

Read offset correction : 667
Overread into Lead-In and Lead-Out : No
Fill up missing offset samples with silence : Yes
Delete leading and trailing silent blocks : No
Null samples used in CRC calculations : Yes
Used interface : Native Win32 interface for Win NT & 2000

Used output format : User Defined Encoder
Selected bitrate : 1024 kBit/s
Quality : High
Add ID3 tag : No
Command line compressor : C:\Program Files\Exact Audio Copy\wavpack.exe
Additional command line options : -hm %source% %dest%


TOC of the extracted CD

Track | Start | Length | Start sector | End sector
––––––––––––––––––––––––––––-
1 | 0:00.00 | 21:48.39 | 0 | 98138
2 | 21:48.39 | 7:14.22 | 98139 | 130710
3 | 29:02.61 | 5:16.08 | 130711 | 154418
4 | 34:18.69 | 1:08.46 | 154419 | 159564
5 | 35:27.40 | 7:43.42 | 159565 | 194331
6 | 43:11.07 | 3:23.59 | 194332 | 209615
7 | 46:34.66 | 1:58.35 | 209616 | 218500
8 | 48:33.26 | 2:21.61 | 218501 | 229136
9 | 50:55.12 | 1:56.05 | 229137 | 237841
10 | 52:51.17 | 2:19.68 | 237842 | 248334


Range status and errors

Selected range

Filename I:\Music\Canterbury scene\Soft Machine\Soft.Machine-Discography.1968-2010.FLAC.CUE.Lossless\2 - Live\18 - Breda Reactor\CD Two\Soft Machine - Breda Reactor.wav

Peak level 90.1 %
Extraction speed 6.1 X
Range quality 100.0 %
Test CRC E1E31E83
Copy CRC E1E31E83
Copy OK

No errors occurred


AccurateRip summary

Track 1 accurately ripped (confidence 2) [F2271942] (AR v2)
Track 2 accurately ripped (confidence 2) [16086BA7] (AR v2)
Track 3 accurately ripped (confidence 2) [1538D1EF] (AR v2)
Track 4 accurately ripped (confidence 2) [CE8DAA6B] (AR v2)
Track 5 accurately ripped (confidence 2) [DE97647A] (AR v2)
Track 6 accurately ripped (confidence 2) [9A07EE57] (AR v2)
Track 7 accurately ripped (confidence 2) [BFF7F2EE] (AR v2)
Track 8 accurately ripped (confidence 2) [7C9EEC2C] (AR v2)
Track 9 accurately ripped (confidence 2) [8D71F5FB] (AR v2)
Track 10 accurately ripped (confidence 2) [FE832F6D] (AR v2)

All tracks accurately ripped

End of status report

–– CUETools DB Plugin V2.1.3

[CTDB TOCID: woi08GmPFFBBLbUjwHJpA4hWoto-] found, Submit result: woi08GmPFFBBLbUjwHJpA4hWoto- has been confirmed
[d95438df] (8/8) Accurately ripped


==== Log checksum B7A63A705BC5D590573788982F0452E198B0F459C2E5A9C69C8D37130FB13B0B ====

[CUETools log; Date: 20.08.2018 19:18:28; Version: 2.1.4]
[CTDB TOCID: woi08GmPFFBBLbUjwHJpA4hWoto-] found.
Track | CTDB Status
1 | (18/19) Accurately ripped
2 | (18/19) Accurately ripped
3 | (18/19) Accurately ripped
4 | (18/19) Accurately ripped
5 | (18/19) Accurately ripped
6 | (18/19) Accurately ripped
7 | (18/19) Accurately ripped
8 | (18/19) Accurately ripped
9 | (18/19) Accurately ripped
10 | (18/19) Accurately ripped
[AccurateRip ID: 001cb215-00cedf3b-860cef0a] found.
Track [ CRC | V2 ] Status
01 [b668ad97|f2271942] (00+05/13) Accurately ripped
02 [86d5b77b|16086ba7] (00+05/13) Accurately ripped
03 [82807bb5|1538d1ef] (00+05/13) Accurately ripped
04 [ab8a68b9|ce8daa6b] (00+05/13) Accurately ripped
05 [d6356496|de97647a] (00+05/13) Accurately ripped
06 [0ead43a5|9a07ee57] (00+05/13) Accurately ripped
07 [39b2fe90|bff7f2ee] (00+05/13) Accurately ripped
08 [47c7440d|7c9eec2c] (00+05/13) Accurately ripped
09 [ab76d65d|8d71f5fb] (00+05/13) Accurately ripped
10 [977f546a|fe832f6d] (00+05/13) Accurately ripped
Offsetted by 36:
01 [eb02c58d] (05/13) Accurately ripped
02 [6e97f11e] (05/13) Accurately ripped
03 [e2bb05e1] (05/13) Accurately ripped
04 [e3c7a95f] (05/13) Accurately ripped
05 [dc13e940] (05/13) Accurately ripped
06 [005a22d5] (05/13) Accurately ripped
07 [fd8d7a8e] (05/13) Accurately ripped
08 [ba65a5ec] (05/13) Accurately ripped
09 [96daa04a] (05/13) Accurately ripped
10 [ad3c2238] (05/13) Accurately ripped

Track Peak [ CRC32 ] [W/O NULL] [ LOG ]
– 90,1 [E1E31E83] [A1191F43] CRC32
01 90,1 [745692EE] [DEBE983A]
02 84,7 [19E212CF] [0B87DBDD]
03 86,9 [1B54CF7B] [DBBC56CC]
04 72,6 [2D5B3C97] [32378038]
05 82,9 [13480873] [23F738DD]
06 81,2 [CD348151] [FB07CA80]
07 80,5 [C0DE3AB5] [C6DFBAC6]
08 75,2 [37A435F2] [E7E1CBAA]
09 77,5 [29733F32] [CD60C4C5]
10 80,1 [A1A5BF28] [8EEDF52F]

Soft Machine - 11 Live Albums (1988-2006) (Repost)

Soft Machine & Heavy Friends - BBC In Concert 1971 (2005)
EAC Rip | WavPack (image+.cue+log) - 357 MB | MP3 CBR 320 kbps (LAME 3.93) - 129 MB | Covers - 156 MB
Genre: Progressive/Jazz Rock, Canterbury Scene | RAR 3% Rec. | Label: Hux Records (HUX067)

Tracklist:
01. John Peel Introduction
02. Blind Badger
03. Neo-Caliban Grides
04. Out Bloody Rageous/Eamonn Andrews/All White/Kings And Queens/Teeth/Pigling Bland/10.30 Returns To The Bedroom
05. Slightly All The Time/Noisette

Total time: 54:50

Exact Audio Copy V1.0 beta 3 from 29. August 2011

EAC extraction logfile from 10. December 2012, 8:06

Soft Machine & Heavy Friends / BBC In Concert 1971

Used drive : HL-DT-STBDDVDRW GBC-H20N Adapter: 1 ID: 0

Read mode : Secure
Utilize accurate stream : Yes
Defeat audio cache : Yes
Make use of C2 pointers : No

Read offset correction : 667
Overread into Lead-In and Lead-Out : No
Fill up missing offset samples with silence : Yes
Delete leading and trailing silent blocks : No
Null samples used in CRC calculations : Yes
Used interface : Native Win32 interface for Win NT & 2000

Used output format : User Defined Encoder
Selected bitrate : 1024 kBit/s
Quality : High
Add ID3 tag : No
Command line compressor : C:\Program Files\Exact Audio Copy\wavpack.exe
Additional command line options : -hm %source% %dest%


TOC of the extracted CD

Track | Start | Length | Start sector | End sector
––––––––––––––––––––––––––––-
1 | 0:00.00 | 1:02.00 | 0 | 4649
2 | 1:02.00 | 10:07.31 | 4650 | 50205
3 | 11:09.31 | 5:41.35 | 50206 | 75815
4 | 16:50.66 | 31:58.32 | 75816 | 219697
5 | 48:49.23 | 6:00.72 | 219698 | 246769


Range status and errors

Selected range

Filename I:\Music\Canterbury scene\Soft Machine\Soft.Machine-Discography.1968-2010.FLAC.CUE.Lossless\2 - Live\07 - BBC Radio 1 Live in Concert 1971\Soft Machine & Heavy Friends - BBC In Concert 1971.wav

Peak level 97.1 %
Extraction speed 6.1 X
Range quality 100.0 %
Test CRC A8FAC06D
Copy CRC A8FAC06D
Copy OK

No errors occurred


AccurateRip summary

Track 1 accurately ripped (confidence 2) [FE2B0B15] (AR v1)
Track 2 accurately ripped (confidence 2) [0AD7BCEF] (AR v1)
Track 3 accurately ripped (confidence 2) [D043E437] (AR v1)
Track 4 accurately ripped (confidence 2) [A7DD1A96] (AR v1)
Track 5 accurately ripped (confidence 2) [2043551D] (AR v1)

All tracks accurately ripped

End of status report

–– CUETools DB Plugin V2.1.3

[CTDB TOCID: KNZ4SwIWKPm9UI_aY_evGGMvBN0-] found, Submit result: KNZ4SwIWKPm9UI_aY_evGGMvBN0- has been confirmed
[7d805c9c] (2/2) Accurately ripped


==== Log checksum 8148E808003EBA984E0A3D912EF19CDA4C7E163A9177BA60F1D43EE1EB2A35E7 ====

[CUETools log; Date: 20.08.2018 19:19:43; Version: 2.1.4]
[CTDB TOCID: KNZ4SwIWKPm9UI_aY_evGGMvBN0-] found.
Track | CTDB Status
1 | (9/9) Accurately ripped
2 | (9/9) Accurately ripped
3 | (9/9) Accurately ripped
4 | (9/9) Accurately ripped
5 | (9/9) Accurately ripped
[AccurateRip ID: 00091c94-002e6bf5-2d0cda05] found.
Track [ CRC | V2 ] Status
01 [fe2b0b15|cc8e31ce] (2+0/6) Accurately ripped
02 [0ad7bcef|a81dbc96] (2+0/6) Accurately ripped
03 [d043e437|847b768a] (2+0/6) Accurately ripped
04 [a7dd1a96|bbc02128] (2+0/6) Accurately ripped
05 [2043551d|2ef90dec] (2+0/5) Accurately ripped
Offsetted by 664:
01 [d0090dc0] (0/6) No match (V2 was not tested)
02 [0eeecb0d] (0/6) No match (V2 was not tested)
03 [91a3a499] (0/6) No match (V2 was not tested)
04 [1f1e86b4] (0/6) No match (V2 was not tested)
05 [779356ef] (0/5) No match (V2 was not tested)

Track Peak [ CRC32 ] [W/O NULL] [ LOG ]
– 97,1 [A8FAC06D] [F7AA6A8F] CRC32
01 91,7 [5FD013B5] [88B78F43]
02 93,8 [C91E1CD1] [5B1EDB37]
03 97,1 [24EEF122] [A18882F6]
04 95,9 [F95D8FF3] [B9AB56DF]
05 95,1 [4CD0154E] [D5F3D6D3]

Soft Machine - 11 Live Albums (1988-2006) (Repost)

Soft Machine - Softstage: BBC In Concert 1972 (2005)
EAC Rip | WavPack (image+.cue+log) - 316 MB | MP3 CBR 320 kbps (LAME 3.93) - 128 MB | Covers - 93 MB
Genre: Progressive/Jazz Rock, Canterbury Scene | RAR 3% Rec. | Label: Hux Records (HUX070)

Tracklist:
01. Fanfare
02. All White
03. Slightly All The Time
04. MC
05. Drop
06. Stumble
07. One Across
08. As If
09. Riff
10. Gesolreut

Total time: 54:18

Exact Audio Copy V1.0 beta 3 from 29. August 2011

EAC extraction logfile from 10. December 2012, 7:41

Soft Machine / Softstage - BBC In Concert 1972

Used drive : HL-DT-STBDDVDRW GBC-H20N Adapter: 1 ID: 0

Read mode : Secure
Utilize accurate stream : Yes
Defeat audio cache : Yes
Make use of C2 pointers : No

Read offset correction : 667
Overread into Lead-In and Lead-Out : No
Fill up missing offset samples with silence : Yes
Delete leading and trailing silent blocks : No
Null samples used in CRC calculations : Yes
Used interface : Native Win32 interface for Win NT & 2000

Used output format : User Defined Encoder
Selected bitrate : 1024 kBit/s
Quality : High
Add ID3 tag : No
Command line compressor : C:\Program Files\Exact Audio Copy\wavpack.exe
Additional command line options : -hm %source% %dest%


TOC of the extracted CD

Track | Start | Length | Start sector | End sector
––––––––––––––––––––––––––––-
1 | 0:00.00 | 1:59.22 | 0 | 8946
2 | 1:59.22 | 5:17.30 | 8947 | 32751
3 | 7:16.52 | 11:51.62 | 32752 | 86138
4 | 19:08.39 | 2:37.64 | 86139 | 97977
5 | 21:46.28 | 5:34.63 | 97978 | 123090
6 | 27:21.16 | 5:53.25 | 123091 | 149590
7 | 33:14.41 | 3:11.53 | 149591 | 163968
8 | 36:26.19 | 3:48.61 | 163969 | 181129
9 | 40:15.05 | 7:03.21 | 181130 | 212875
10 | 47:18.26 | 6:59.55 | 212876 | 244355


Range status and errors

Selected range

Filename I:\Music\Canterbury scene\Soft Machine\Soft.Machine-Discography.1968-2010.FLAC.CUE.Lossless\2 - Live\08 - BBC Radio 1 Live In Concert 1972\Soft Machine - Softstage - BBC In Concert 1972.wav

Peak level 100.0 %
Extraction speed 6.1 X
Range quality 100.0 %
Test CRC ED3D8759
Copy CRC ED3D8759
Copy OK

No errors occurred


AccurateRip summary

Track 1 cannot be verified as accurate (confidence 3) [407F474F], AccurateRip returned [DAF34D3E] (AR v2)
Track 2 cannot be verified as accurate (confidence 3) [3F4B79B6], AccurateRip returned [C3CA86C5] (AR v2)
Track 3 cannot be verified as accurate (confidence 3) [002AE7B1], AccurateRip returned [A6AB68EC] (AR v2)
Track 4 cannot be verified as accurate (confidence 3) [605B4882], AccurateRip returned [335B6555] (AR v2)
Track 5 cannot be verified as accurate (confidence 3) [53585195], AccurateRip returned [1A09B0D4] (AR v2)
Track 6 cannot be verified as accurate (confidence 3) [D06AAEF7], AccurateRip returned [70E3F77C] (AR v2)
Track 7 cannot be verified as accurate (confidence 3) [D99DF63A], AccurateRip returned [84CB1C52] (AR v2)
Track 8 cannot be verified as accurate (confidence 3) [BCCF93C9], AccurateRip returned [0F9EB0A2] (AR v2)
Track 9 cannot be verified as accurate (confidence 3) [F4D91197], AccurateRip returned [9906B054] (AR v2)
Track 10 cannot be verified as accurate (confidence 3) [71BDD808], AccurateRip returned [F5515CFF] (AR v2)

No tracks could be verified as accurate
You may have a different pressing from the one(s) in the database

End of status report

–– CUETools DB Plugin V2.1.3

[CTDB TOCID: M519AjcAX__eJBieebWIEMMg6wE-] disk not present in database, Submit result: M519AjcAX__eJBieebWIEMMg6wE- has been uploaded


==== Log checksum 588A726BD7C2B01E18A35D28F66CE8C834BCB53E2E97482BD19430BD01A63D9A ====

[CUETools log; Date: 20.08.2018 19:21:32; Version: 2.1.4]
[CTDB TOCID: M519AjcAX__eJBieebWIEMMg6wE-] found.
Track | CTDB Status
1 | (5/5) Accurately ripped
2 | (5/5) Accurately ripped
3 | (5/5) Accurately ripped
4 | (5/5) Accurately ripped
5 | (5/5) Accurately ripped
6 | (5/5) Accurately ripped
7 | (5/5) Accurately ripped
8 | (5/5) Accurately ripped
9 | (5/5) Accurately ripped
10 | (5/5) Accurately ripped
[AccurateRip ID: 0013d95d-00a0239e-7e0cba0a] found.
Track [ CRC | V2 ] Status
01 [c5a0f60f|407f474f] (0+2/8) Accurately ripped
02 [ee1bef12|3f4b79b6] (0+2/8) Accurately ripped
03 [d149cc56|002ae7b1] (0+2/8) Accurately ripped
04 [5f92b54c|605b4882] (0+2/8) Accurately ripped
05 [61a63941|53585195] (0+2/8) Accurately ripped
06 [cdd3e961|d06aaef7] (0+2/8) Accurately ripped
07 [480e99b1|d99df63a] (0+2/8) Accurately ripped
08 [e83ee198|bccf93c9] (0+2/8) Accurately ripped
09 [ab010e23|f4d91197] (0+2/8) Accurately ripped
10 [d8c8f020|71bdd808] (0+2/8) Accurately ripped
Offsetted by -646:
01 [daf34d3e] (3/8) Accurately ripped
02 [c3ca86c5] (3/8) Accurately ripped
03 [a6ab68ec] (3/8) Accurately ripped
04 [335b6555] (3/8) Accurately ripped
05 [1a09b0d4] (3/8) Accurately ripped
06 [70e3f77c] (3/8) Accurately ripped
07 [84cb1c52] (3/8) Accurately ripped
08 [0f9eb0a2] (3/8) Accurately ripped
09 [9906b054] (3/8) Accurately ripped
10 [f5515cff] (3/8) Accurately ripped

Track Peak [ CRC32 ] [W/O NULL] [ LOG ]
– 100,0 [ED3D8759] [ECBDCF90] CRC32
01 98,0 [CEC525F5] [35D49C00]
02 97,1 [894389DE] [D8E76EFD]
03 92,7 [ACC1EF35] [6966DFA2]
04 81,2 [25436BC0] [13C60E8B]
05 91,3 [6C2E0347] [4623C7A5]
06 100,0 [7FE7A2CE] [2D0B58B3]
07 82,1 [2985BE28] [04B4E626]
08 91,9 [A21E9D8C] [6211DBA7]
09 88,9 [992EC1E6] [59EC1315]
10 100,0 [127541C4] [04611F75]

Soft Machine - 11 Live Albums (1988-2006) (Repost)

Soft Machine - British Tour '75 (2005)
EAC Rip | WavPack (image+.cue+log) - 508 MB | MP3 CBR 320 kbps (LAME 3.93) - 184 MB | Covers - 178 MB
Genre: Progressive/Jazz Rock, Canterbury Scene | RAR 3% Rec. | Label: Major League (MLP10CD)

Tracklist:
01. Bundles
02. Land Of The Bag Snake
03. Out Of Season
04. The Man Who Waved At Trains
05. JVH
06. The Floating World
07. Ban - Ban Caliban
08. Sideburn
09. Hazard Profile Part 1
10. Hazard Profile Part 2
11. Hazard Profile Part 3
12. Hazard Profile Part 4
13. Hazard Profile Part 5
14. Song Of Aeolus
15. Sign Of Five

Total time: 01:18:23

Exact Audio Copy V1.0 beta 3 from 29. August 2011

EAC extraction logfile from 14. December 2012, 8:03

Soft Machine / British Tour '75

Used drive : HL-DT-STBDDVDRW GBC-H20N Adapter: 1 ID: 0

Read mode : Secure
Utilize accurate stream : Yes
Defeat audio cache : Yes
Make use of C2 pointers : No

Read offset correction : 667
Overread into Lead-In and Lead-Out : No
Fill up missing offset samples with silence : Yes
Delete leading and trailing silent blocks : No
Null samples used in CRC calculations : Yes
Used interface : Native Win32 interface for Win NT & 2000

Used output format : User Defined Encoder
Selected bitrate : 1024 kBit/s
Quality : High
Add ID3 tag : No
Command line compressor : C:\Program Files\Exact Audio Copy\wavpack.exe
Additional command line options : -hm %source% %dest%


TOC of the extracted CD

Track | Start | Length | Start sector | End sector
––––––––––––––––––––––––––––-
1 | 0:00.00 | 3:17.01 | 0 | 14775
2 | 3:17.01 | 4:01.09 | 14776 | 32859
3 | 7:18.10 | 6:13.53 | 32860 | 60887
4 | 13:31.63 | 6:15.59 | 60888 | 89071
5 | 19:47.47 | 4:12.31 | 89072 | 108002
6 | 24:00.03 | 1:12.05 | 108003 | 113407
7 | 25:12.08 | 9:53.23 | 113408 | 157905
8 | 35:05.31 | 10:21.67 | 157906 | 204547
9 | 45:27.23 | 6:12.60 | 204548 | 232507
10 | 51:40.08 | 1:41.36 | 232508 | 240118
11 | 53:21.44 | 0:24.44 | 240119 | 241962
12 | 53:46.13 | 1:39.00 | 241963 | 249387
13 | 55:25.13 | 4:14.49 | 249388 | 268486
14 | 59:39.62 | 3:58.04 | 268487 | 286340
15 | 63:37.66 | 14:45.14 | 286341 | 352729


Range status and errors

Selected range

Filename I:\Music\Canterbury scene\Soft Machine\Soft.Machine-Discography.1968-2010.FLAC.CUE.Lossless\2 - Live\19 - British Tour'75\Soft Machine - British Tour '75.wav

Peak level 98.6 %
Extraction speed 6.5 X
Range quality 100.0 %
Test CRC B5B8BF18
Copy CRC B5B8BF18
Copy OK

No errors occurred


AccurateRip summary

Track 1 cannot be verified as accurate (confidence 2) [145B70D8], AccurateRip returned [F128A595] (AR v2)
Track 2 cannot be verified as accurate (confidence 2) [DE999478], AccurateRip returned [BEFF0350] (AR v2)
Track 3 cannot be verified as accurate (confidence 2) [492D6E9D], AccurateRip returned [265CA50E] (AR v2)
Track 4 cannot be verified as accurate (confidence 2) [1C24815B], AccurateRip returned [1921CBF7] (AR v2)
Track 5 cannot be verified as accurate (confidence 2) [5C444C05], AccurateRip returned [39023C3F] (AR v2)
Track 6 cannot be verified as accurate (confidence 2) [983704F4], AccurateRip returned [21A87434] (AR v2)
Track 7 cannot be verified as accurate (confidence 2) [3E200291], AccurateRip returned [24AEB1C7] (AR v2)
Track 8 cannot be verified as accurate (confidence 2) [E0D6F5D9], AccurateRip returned [AE512F42] (AR v2)
Track 9 cannot be verified as accurate (confidence 2) [339EF80B], AccurateRip returned [57B95E82] (AR v2)
Track 10 cannot be verified as accurate (confidence 2) [E4AE7EC9], AccurateRip returned [E4BFE79A] (AR v2)
Track 11 cannot be verified as accurate (confidence 2) [B05CD71C], AccurateRip returned [D93830EB] (AR v2)
Track 12 cannot be verified as accurate (confidence 2) [41BE2AB9], AccurateRip returned [8FBCB892] (AR v2)
Track 13 cannot be verified as accurate (confidence 2) [147F8C5D], AccurateRip returned [66F90BA0] (AR v2)
Track 14 cannot be verified as accurate (confidence 2) [109137E8], AccurateRip returned [29541917] (AR v2)
Track 15 cannot be verified as accurate (confidence 3) [7AE1A2C0], AccurateRip returned [09187F9E] (AR v2)

No tracks could be verified as accurate
You may have a different pressing from the one(s) in the database

End of status report

–– CUETools DB Plugin V2.1.3

[CTDB TOCID: X.GSsVveraIgdI85JIGnFNGiUhE-] disk not present in database, Submit result: X.GSsVveraIgdI85JIGnFNGiUhE- has been uploaded


==== Log checksum 7630FFAA826BEDDAF9D59B8EA3C9F62C775DE47F81DBEBAB690EEA6DF49FBAE7 ====

[CUETools log; Date: 20.08.2018 19:22:17; Version: 2.1.4]
[CTDB TOCID: X.GSsVveraIgdI85JIGnFNGiUhE-] found.
Track | CTDB Status
1 | (19/19) Accurately ripped
2 | (19/19) Accurately ripped
3 | (19/19) Accurately ripped
4 | (19/19) Accurately ripped
5 | (19/19) Accurately ripped
6 | (19/19) Accurately ripped
7 | (19/19) Accurately ripped
8 | (19/19) Accurately ripped
9 | (19/19) Accurately ripped
10 | (19/19) Accurately ripped
11 | (19/19) Accurately ripped
12 | (19/19) Accurately ripped
13 | (19/19) Accurately ripped
14 | (18/19) Accurately ripped
15 | (10/19) Accurately ripped
[AccurateRip ID: 00287b45-01cc661d-c2125f0f] found.
Track [ CRC | V2 ] Status
01 [510d8460|145b70d8] (00+04/12) Accurately ripped
02 [8a1e2ff4|de999478] (00+04/12) Accurately ripped
03 [42947daf|492d6e9d] (00+04/12) Accurately ripped
04 [9e374698|1c24815b] (00+04/12) Accurately ripped
05 [69597b3d|5c444c05] (00+04/12) Accurately ripped
06 [d226ccb6|983704f4] (00+04/12) Accurately ripped
07 [a83bd41f|3e200291] (00+04/12) Accurately ripped
08 [8670ff6f|e0d6f5d9] (00+04/12) Accurately ripped
09 [94eefdb2|339ef80b] (00+04/12) Accurately ripped
10 [69b8b351|e4ae7ec9] (00+04/12) Accurately ripped
11 [748b938d|b05cd71c] (00+04/12) Accurately ripped
12 [e3c7bd9d|41be2ab9] (00+04/12) Accurately ripped
13 [ae54b212|147f8c5d] (00+04/12) Accurately ripped
14 [882a4c83|109137e8] (00+04/12) Accurately ripped
15 [8c1ad42c|7ae1a2c0] (00+04/13) Accurately ripped
Offsetted by 12:
01 [f128a595] (03/12) Accurately ripped
02 [beff0350] (03/12) Accurately ripped
03 [265ca50e] (03/12) Accurately ripped
04 [1921cbf7] (03/12) Accurately ripped
05 [39023c3f] (03/12) Accurately ripped
06 [21a87434] (03/12) Accurately ripped
07 [24aeb1c7] (03/12) Accurately ripped
08 [ae512f42] (03/12) Accurately ripped
09 [57b95e82] (03/12) Accurately ripped
10 [e4bfe79a] (03/12) Accurately ripped
11 [d93830eb] (03/12) Accurately ripped
12 [8fbcb892] (03/12) Accurately ripped
13 [66f90ba0] (03/12) Accurately ripped
14 [29541917] (03/12) Accurately ripped
15 [7305171c] (00/13) No match (V2 was not tested)

Track Peak [ CRC32 ] [W/O NULL] [ LOG ]
– 98,6 [B5B8BF18] [A8E4A1ED] CRC32
01 98,6 [33708E25] [8055D1B4]
02 98,6 [CA316AB6] [80809125]
03 98,6 [23A0500D] [40521C32]
04 98,6 [EF75D210] [A7B5F289]
05 98,6 [3AF7EE8D] [A555BF5C]
06 63,5 [1B7A8AD6] [F786B80F]
07 98,6 [515AB2C5] [427E73EF]
08 98,6 [E2CAC6FE] [CBD58A96]
09 98,6 [B7BAA421] [90AA9669]
10 98,6 [7B674F3E] [2CB77B7A]
11 98,6 [40E33C52] [C9EE0DB9]
12 98,6 [F8CC9C86] [19B93138]
13 98,6 [CF8428A6] [B57CAEC5]
14 98,6 [046C3D22] [B4A4332A]
15 98,6 [425D49EE] [F97BB147]

Soft Machine - 11 Live Albums (1988-2006) (Repost)

Soft Machine - Middle Earth Masters (2006)
EAC Rip | WavPack (image+.cue+log) - 399 MB | MP3 CBR 320 kbps (LAME 3.93) - 153 MB | Covers - 148 MB
Genre: Progressive/Jazz Rock, Canterbury Scene | RAR 3% Rec. | Label: Cuneiform Records (RUNE 235)

Tracklist:
01. Clarence In Wonderland
02. We Know What You Mean
03. Bossa Nova Express
04. Hope For Hapiness
05. Disorganisation
06. We Did It Again
07. Why Are We Sleeping?
08. I Should've Known
09. That's How Much I Need You Now
10. I Should've Known
11. A Certain Kind
12. We Did It Again

Total time: 01:05:02

Exact Audio Copy V1.0 beta 3 from 29. August 2011

EAC extraction logfile from 14. December 2012, 13:09

Soft Machine / Middle Earth Masters

Used drive : HL-DT-STBDDVDRW GBC-H20N Adapter: 1 ID: 0

Read mode : Secure
Utilize accurate stream : Yes
Defeat audio cache : Yes
Make use of C2 pointers : No

Read offset correction : 667
Overread into Lead-In and Lead-Out : No
Fill up missing offset samples with silence : Yes
Delete leading and trailing silent blocks : No
Null samples used in CRC calculations : Yes
Used interface : Native Win32 interface for Win NT & 2000

Used output format : User Defined Encoder
Selected bitrate : 1024 kBit/s
Quality : High
Add ID3 tag : No
Command line compressor : C:\Program Files\Exact Audio Copy\wavpack.exe
Additional command line options : -hm %source% %dest%


TOC of the extracted CD

Track | Start | Length | Start sector | End sector
––––––––––––––––––––––––––––-
1 | 0:00.00 | 4:34.14 | 0 | 20563
2 | 4:34.14 | 3:02.10 | 20564 | 34223
3 | 7:36.24 | 2:40.11 | 34224 | 46234
4 | 10:16.35 | 13:19.68 | 46235 | 106227
5 | 23:36.28 | 6:03.09 | 106228 | 133461
6 | 29:39.37 | 5:48.45 | 133462 | 159606
7 | 35:28.07 | 6:17.05 | 159607 | 187886
8 | 41:45.12 | 9:47.56 | 187887 | 231967
9 | 51:32.68 | 2:20.53 | 231968 | 242520
10 | 53:53.46 | 6:44.70 | 242521 | 272890
11 | 60:38.41 | 3:46.73 | 272891 | 289913
12 | 64:25.39 | 0:36.31 | 289914 | 292644


Range status and errors

Selected range

Filename I:\Music\Canterbury scene\Soft Machine\Soft.Machine-Discography.1968-2010.FLAC.CUE.Lossless\2 - Live\22 - Middle Earth Masters\Soft Machine - Middle Earth Masters.wav

Peak level 100.0 %
Extraction speed 1.5 X
Range quality 100.0 %
Test CRC C5D261AD
Copy CRC C5D261AD
Copy OK

No errors occurred


AccurateRip summary

Track 1 accurately ripped (confidence 4) [A8AA5939] (AR v1)
Track 2 accurately ripped (confidence 4) [CC72AC4E] (AR v1)
Track 3 accurately ripped (confidence 4) [AD3A8FE9] (AR v1)
Track 4 accurately ripped (confidence 4) [B057A515] (AR v1)
Track 5 accurately ripped (confidence 5) [D0B8C516] (AR v1)
Track 6 accurately ripped (confidence 5) [5C315888] (AR v1)
Track 7 accurately ripped (confidence 5) [E16558D8] (AR v1)
Track 8 accurately ripped (confidence 5) [F95526F3] (AR v1)
Track 9 accurately ripped (confidence 5) [22F2C1F0] (AR v1)
Track 10 accurately ripped (confidence 5) [64B0D50D] (AR v1)
Track 11 accurately ripped (confidence 5) [2CCB2508] (AR v1)
Track 12 accurately ripped (confidence 5) [9E749DE4] (AR v1)

All tracks accurately ripped

End of status report

–– CUETools DB Plugin V2.1.3

[CTDB TOCID: OVYvTHzcX_p8seYuGZpf2hVa5J8-] disk not present in database, Submit result: OVYvTHzcX_p8seYuGZpf2hVa5J8- has been uploaded


==== Log checksum 5CBFE30CF6D62A1C6762C7BD40A9D7665372AAE240391BF90A31BCCA57FEA62D ====

[CUETools log; Date: 20.08.2018 19:22:58; Version: 2.1.4]
[CTDB TOCID: OVYvTHzcX_p8seYuGZpf2hVa5J8-] found.
Track | CTDB Status
1 | (16/16) Accurately ripped
2 | (16/16) Accurately ripped
3 | (16/16) Accurately ripped
4 | (16/16) Accurately ripped
5 | (16/16) Accurately ripped
6 | (16/16) Accurately ripped
7 | (16/16) Accurately ripped
8 | (16/16) Accurately ripped
9 | (16/16) Accurately ripped
10 | (16/16) Accurately ripped
11 | (16/16) Accurately ripped
12 | (16/16) Accurately ripped
[AccurateRip ID: 001ecb62-01231fa2-a60f3d0c] found.
Track [ CRC | V2 ] Status
01 [a8aa5939|991e72e5] (04+08/12) Accurately ripped
02 [cc72ac4e|a42df95a] (04+08/12) Accurately ripped
03 [ad3a8fe9|3a92fff2] (04+08/12) Accurately ripped
04 [b057a515|e50885d2] (04+08/12) Accurately ripped
05 [d0b8c516|19f061be] (05+08/13) Accurately ripped
06 [5c315888|f24c7170] (05+08/13) Accurately ripped
07 [e16558d8|f6e0d3b6] (05+08/13) Accurately ripped
08 [f95526f3|7e5e7199] (05+08/13) Accurately ripped
09 [22f2c1f0|dcd855aa] (05+08/13) Accurately ripped
10 [64b0d50d|5e5a1d15] (05+08/13) Accurately ripped
11 [2ccb2508|cb528df5] (05+08/13) Accurately ripped
12 [9e749de4|91afcb01] (05+08/13) Accurately ripped

Track Peak [ CRC32 ] [W/O NULL] [ LOG ]
– 100,0 [C5D261AD] [7BC1313B] CRC32
01 88,6 [68A61760] [AA236AE8]
02 91,2 [74671105] [8DD0A507]
03 88,1 [50862F03] [D1E78DC0]
04 100,0 [65867D83] [D7A33CE6]
05 99,0 [58F520FE] [DAE7C4AB]
06 98,3 [D911DCE9] [09FAD5B1]
07 97,5 [6F8BCE41] [D34B4428]
08 100,0 [D156B072] [E7311517]
09 85,6 [F954EBB4] [67040172]
10 100,0 [EDB35E1A] [B95EBC5D]
11 100,0 [7B48FD0A] [AA5320F5]
12 40,2 [8F9B2914] [B5ED3F83]

Thanks to arizonadream