Subcategories

Sonnerie, Matthew Halls, Monica Huggett - Handel: Six Organ Concertos Op. 4 (2006)

Posted By: tirexiss
Sonnerie, Matthew Halls, Monica Huggett - Handel: Six Organ Concertos Op. 4 (2006)

Sonnerie, Matthew Halls, Monica Huggett - Handel: Six Organ Concertos Op. 4 (2006)
EAC | APE (image+.cue, log) | Covers Included | 72:25 | 327 MB
Genre: Classical | Label: Avie Records | Catalog: AV2055

Monica Huggett and her ensemble Sonnerie scored a hit on Avie with their recording of Handel's Trio Sonatas, Op. 2. They continue their traversal of Handel's chamber works with the Organ Concertos, Op. 4, featuring soloist Matthew Halls, a brilliant young soloist who spins out Handel's endlessly tuneful works with an improvisatory flair that the composer - himself a virtuoso organist - would surely have approved of. On this CD, he plays a replica of a Baroque style chamber organ, built by Jaap Fama and Henk Klop, and owned by the Dutch Bach Society.
This is one of the few disks I'll grab if the house is burning down, or if I'm banished to a desert island for being considered too antisocial in my little town because I prefer to hide away from the locals & listen to music such as this as much as I can!
Everything about this disk is simply beautiful - the superb choice of chamber organ, the unassuming virtuosity & total commitment of the performers (one player to each part resulting in an intimacy not heard on other recordings), & the magical sense that Handel himself could have breezed in to suggest ideal tempi & to give a thumbs-up to the imaginative ornamentation & cadenzas. Add to these qualities the excellent clarity of the recording, &, of course, the sheer gorgeousness of the concertos themselves, & you're in for a ravishing experience.

Sonnerie, Matthew Halls, Monica Huggett - Handel: Six Organ Concertos Op. 4 (2006)

Track List:

Concerto no. 4 in F major (HWV 292)
1. Allegro
2. Andante
3. Adagio
4. Allegro

Concerto no. 2 in B flat major (HWV 290)
5. Sinfonia
6. Allegro
7. Adagio e staccato
8. Allegro ma non presto

Concerto no. 3 in G minor (HWV 291)
9. Adagio
10. Allegro
11. Adagio
12. Gavotte

Concerto no. 6 in B flat major (HWV 294)
13. Andante allegro
14. Larghetto - Adagio
15. Allegro moderato

Concerto no. 5 in F major (HWV 293)
16. Larghetto
17. Allegro
18. Alla Siciliana
19. Presto

Concerto no. 1 in G minor (HWV 289)
20. Larghetto e staccato - Adagio
21. Allegro
22. Adagio
23. Andante

Performers:
Sonnerie
Matthew Halls, organ,
Monica Huggett, director and violin

Exact Audio Copy V0.99 prebeta 3 from 28. July 2007

EAC extraction logfile from 13. December 2007, 13:23

Sonnerie / Handel - Six Organ Concertos Op. 4

Used drive : BENQ DVD DD DW1650 Adapter: 1 ID: 1

Read mode : Secure
Utilize accurate stream : Yes
Defeat audio cache : Yes
Make use of C2 pointers : No

Read offset correction : 30
Overread into Lead-In and Lead-Out : No
Fill up missing offset samples with silence : Yes
Delete leading and trailing silent blocks : No
Null samples used in CRC calculations : Yes
Used interface : Installed external ASPI interface

Used output format : Internal WAV Routines
Sample format : 44.100 Hz; 16 Bit; Stereo


TOC of the extracted CD

Track | Start | Length | Start sector | End sector
––––––––––––––––––––––––––––-
1 | 0:00.00 | 3:59.08 | 0 | 17932
2 | 3:59.08 | 5:28.50 | 17933 | 42582
3 | 9:27.58 | 1:20.73 | 42583 | 48655
4 | 10:48.56 | 3:41.15 | 48656 | 65245
5 | 14:29.71 | 0:55.55 | 65246 | 69425
6 | 15:25.51 | 4:31.31 | 69426 | 89781
7 | 19:57.07 | 0:44.20 | 89782 | 93101
8 | 20:41.27 | 3:58.56 | 93102 | 111007
9 | 24:40.08 | 3:23.06 | 111008 | 126238
10 | 28:03.14 | 4:06.70 | 126239 | 144758
11 | 32:10.09 | 0:47.66 | 144759 | 148349
12 | 32:58.00 | 2:22.03 | 148350 | 159002
13 | 35:20.03 | 5:59.46 | 159003 | 185973
14 | 41:19.49 | 3:47.74 | 185974 | 203072
15 | 45:07.48 | 2:37.43 | 203073 | 214890
16 | 47:45.16 | 2:01.24 | 214891 | 223989
17 | 49:46.40 | 2:19.02 | 223990 | 234416
18 | 52:05.42 | 1:39.70 | 234417 | 241911
19 | 53:45.37 | 2:15.67 | 241912 | 252103
20 | 56:01.29 | 5:50.23 | 252104 | 278376
21 | 61:51.52 | 5:30.28 | 278377 | 303154
22 | 67:22.05 | 1:24.31 | 303155 | 309485
23 | 68:46.36 | 3:38.41 | 309486 | 325876


Range status and errors

Selected range

Filename C:\Documents and Settings\Propietario\Escritorio\Handel - Organ Concertos Op.4 - Sonnerie-Huggett Ape+Cue+Scans (Vivaldini-Ordet)\Sonnerie - Handel - Six Organ Concertos Op. 4.wav

Peak level 86.5 %
Range quality 99.9 %
Copy CRC AE06F1F5
Copy OK

No errors occurred


AccurateRip summary

Track 1 not present in database
Track 2 not present in database
Track 3 not present in database
Track 4 not present in database
Track 5 not present in database
Track 6 not present in database
Track 7 not present in database
Track 8 not present in database
Track 9 not present in database
Track 10 not present in database
Track 11 not present in database
Track 12 not present in database
Track 13 not present in database
Track 14 not present in database
Track 15 not present in database
Track 16 not present in database
Track 17 not present in database
Track 18 not present in database
Track 19 not present in database
Track 20 not present in database
Track 21 not present in database
Track 22 not present in database
Track 23 not present in database

None of the tracks are present in the AccurateRip database

End of status report

[CUETools log; Date: 16.01.2018 10:51:04; Version: 2.1.5]
[CTDB TOCID: pDr53E9bRvc8yolFCNacCyYIgAM-] found.
Track | CTDB Status
1 | (5/5) Accurately ripped
2 | (5/5) Accurately ripped
3 | (5/5) Accurately ripped
4 | (5/5) Accurately ripped
5 | (5/5) Accurately ripped
6 | (5/5) Accurately ripped
7 | (5/5) Accurately ripped
8 | (5/5) Accurately ripped
9 | (5/5) Accurately ripped
10 | (5/5) Accurately ripped
11 | (5/5) Accurately ripped
12 | (5/5) Accurately ripped
13 | (5/5) Accurately ripped
14 | (5/5) Accurately ripped
15 | (5/5) Accurately ripped
16 | (5/5) Accurately ripped
17 | (5/5) Accurately ripped
18 | (5/5) Accurately ripped
19 | (5/5) Accurately ripped
20 | (5/5) Accurately ripped
21 | (5/5) Accurately ripped
22 | (5/5) Accurately ripped
23 | (5/5) Accurately ripped
[AccurateRip ID: 003b58bf-03d66aa2-5a10f917] found.
Track [ CRC | V2 ] Status
01 [68dc099c|1db88b96] (3+3/6) Accurately ripped
02 [3dd9435a|837c75b4] (3+3/6) Accurately ripped
03 [c02d601b|16da5bb9] (3+3/6) Accurately ripped
04 [68397572|0ac3830f] (3+3/6) Accurately ripped
05 [6150e123|9c5ff798] (3+3/6) Accurately ripped
06 [1c289e58|540e2642] (2+3/5) Accurately ripped
07 [c168af89|7eb8f7b8] (3+3/6) Accurately ripped
08 [ed64b7cb|a87f70e5] (3+3/6) Accurately ripped
09 [5bba2bb4|697ef723] (3+3/6) Accurately ripped
10 [cd19996c|fd055989] (3+3/6) Accurately ripped
11 [c71cc972|3bdee9b0] (3+3/6) Accurately ripped
12 [5c7b0a71|0211ab1d] (3+3/6) Accurately ripped
13 [18957345|5eac0c19] (3+3/6) Accurately ripped
14 [58cb601c|19ca08df] (3+3/6) Accurately ripped
15 [9a93d5a9|6fc1ce22] (3+3/6) Accurately ripped
16 [2fe110c4|3b6441d1] (3+3/6) Accurately ripped
17 [29cc1cd0|d99d1283] (3+3/6) Accurately ripped
18 [5f5107d0|f743c2bf] (3+3/6) Accurately ripped
19 [84a28501|49f449e6] (3+3/6) Accurately ripped
20 [0141fa17|e11f63e8] (3+3/6) Accurately ripped
21 [c07687bc|001ab2ed] (3+3/6) Accurately ripped
22 [7b4226f8|77d445d5] (3+3/6) Accurately ripped
23 [00ba9bdc|fddc58be] (3+3/6) Accurately ripped

Track Peak [ CRC32 ] [W/O NULL] [ LOG ]
– 86,5 [AE06F1F5] [736C7326] CRC32
01 72,4 [56FF392E] [86486475]
02 62,6 [FFCE84AE] [30832AAC]
03 35,5 [71C99C22] [F19B2360]
04 86,5 [66ABE26F] [15FED41B]
05 64,7 [65265B72] [EFBABB63]
06 64,1 [D94A5C62] [838CB2C4]
07 43,0 [6B1FEB2E] [A079CD48]
08 53,0 [4E4D5EEF] [FF458562]
09 66,8 [DC87C3EA] [FD22D471]
10 59,9 [D02ECF76] [7E1C2679]
11 63,6 [F073FF4F] [09C29898]
12 71,9 [89680EC4] [1CF62DDF]
13 39,7 [C02C05AE] [4FC69AC3]
14 52,9 [D3B45452] [689368C0]
15 58,3 [DEB3DC01] [1D63C665]
16 46,7 [417B0536] [E9B07CE8]
17 50,1 [517EB568] [CD956FF3]
18 26,3 [DF16FA0F] [D03ACC3F]
19 56,9 [8DC6FD01] [62D217C6]
20 70,1 [6AFF5714] [72C5E078]
21 69,2 [39054D7E] [A1D4E5B5]
22 24,0 [BA6627BB] [E3A8EDD8]
23 54,4 [E07A6554] [CB1D83E8]

Thanks to the Original ripper (unknown)!

Download: