Subcategories
Tags
Language
Tags

Spencer Barefield, Anthony Holland, Tani Tabbal - Live at Nickelsdorf Konfrontationen (1986)

Posted By: v3122
Spencer Barefield, Anthony Holland, Tani Tabbal - Live at Nickelsdorf Konfrontationen (1986)

Spencer Barefield, Anthony Holland, Tani Tabbal - Live at Nickelsdorf Konfrontationen (1986)
EAC | Flac(Image) + Cue + Log & MP3 CBR 320Kbps
Sound Aspects Records, SAS CD 007 | ~ 264 or 106 Mb | Artwork(jpg) -> 20 Mb
Free Jazz

~ Recorded live June 29, 1984 at Nickelsdorf Konfrontationen, Nickelsdorf, Austria. ~

Spencer Barefield, Anthony Holland, Tani Tabbal - Live at Nickelsdorf Konfrontationen (1986)

Anna Domino - Anna Domino (1986):

Spencer Barefield, Anthony Holland, Tani Tabbal - Live at Nickelsdorf Konfrontationen (1986)

Tracklist:

01 - IOCAB-4 18:27
02 - Xenogenesis 14:30
03 - Hindola Spring 11:54

A. Spencer Barefield -6-string acoustic guitar, 12-string sympathetic acoustic guitar, African harp
Anthony Holland - alto saxophone, soprano saxophone
Tani Tabbal - trap drums, tablas


Exact Audio Copy V0.99 prebeta 5 from 4. May 2009

EAC extraction logfile from 6. December 2010, 20:35

Barefield - Holland -Tabbal / Live at Nickelsdorf Konfrontationen

Used drive : TSSTcorpCDDVDW SH-S222A Adapter: 1 ID: 0

Read mode : Secure
Utilize accurate stream : Yes
Defeat audio cache : Yes
Make use of C2 pointers : No

Read offset correction : 6
Overread into Lead-In and Lead-Out : No
Fill up missing offset samples with silence : Yes
Delete leading and trailing silent blocks : No
Null samples used in CRC calculations : Yes
Used interface : Native Win32 interface for Win NT & 2000
Gap handling : Appended to previous track

Used output format : User Defined Encoder
Selected bitrate : 768 kBit/s
Quality : High
Add ID3 tag : No
Command line compressor : C:\tool\Audio\Exact Audio Copy\FLAC\FLAC.EXE
Additional command line options : -V -8 -T "ARTIST=%a" -T "TITLE=%t" -T "ALBUM=%g" -T "TRACKNUMBER=%n" -T "GENRE=%m" %s


TOC of the extracted CD

Track | Start | Length | Start sector | End sector
––––––––––––––––––––––––––––-
1 | 0:00.00 | 18:24.00 | 0 | 82799
2 | 18:24.00 | 14:25.52 | 82800 | 147726
3 | 32:49.52 | 11:51.40 | 147727 | 201091


Track 1

Filename C:\Spencer Barefield - Nickelsdorf\01 - IOCAB-4.wav

Pre-gap length 0:00:02.00

Peak level 100.0 %
Track quality 100.0 %
Test CRC 48984842
Copy CRC 48984842
Accurately ripped (confidence 2) [2441B478]
Copy OK

Track 2

Filename C:\Spencer Barefield - Nickelsdorf\02 - Xenogenesis.wav

Pre-gap length 0:00:02.50

Peak level 95.4 %
Track quality 99.9 %
Test CRC 3DEF5066
Copy CRC 3DEF5066
Accurately ripped (confidence 2) [B0853280]
Copy OK

Track 3

Filename C:\Spencer Barefield - Nickelsdorf\03 - Hindola Spring.wav

Pre-gap length 0:00:00.02

Peak level 100.0 %
Track quality 100.0 %
Test CRC AFBCDE7A
Copy CRC AFBCDE7A
Accurately ripped (confidence 2) [78E7B42A]
Copy OK


All tracks accurately ripped

No errors occurred

End of status report


[CUETools log; Date: 17.11.2019 17:18:58; Version: 2.1.4]
[AccurateRip ID: 00069603-0015901e-1c0a7903] found.
Track [ CRC | V2 ] Status
01 [2441b478|8ac937af] (2+3/5) Accurately ripped
02 [b0853280|d100e190] (2+3/5) Accurately ripped
03 [78e7b42a|5922ba66] (2+3/5) Accurately ripped

Track Peak [ CRC32 ] [W/O NULL] [ LOG ]
– 100,0 [293D27EB] [19B38EF3]
01 100,0 [48984842] [C2C5A34E] CRC32
02 95,4 [3DEF5066] [A7DF1A83] CRC32
03 100,0 [AFBCDE7A] [469E3E22] CRC32


Spencer Barefield, Anthony Holland, Tani Tabbal - Live at Nickelsdorf Konfrontationen (1986)

All thanks go to szakall

Spencer Barefield in my Blog

Download Spencer Barefield, Anthony Holland, Tani Tabbal - Live at Nickelsdorf Konfrontationen (1986):