Tags
Language
Tags

Square One - In Motion (2016) {SQ1}

Posted By: tiburon
Square One - In Motion (2016) {SQ1}

Square One - In Motion (2016) {SQ1}
EAC 1.0b3 | FLAC tracks level 8 | Cue+Log+M3U | Full Scans 600dpi | 360MB + 5% Recovery
MP3 CBR 320 Kbps | 191MB + 5% Recovery
Genre: Jazz, Fusion, Post-Bop

Square One are an award-winning jazz quartet from Glasgow, known for their free-spirited original music and energised live performances. The music they play alights upon many modern touchstones such as folk, fusion, soulfulness, ECM euro-cool and stylish, straight ahead jazz. This vibrant four-piece are the proud recipients of the Peter Whittingham Jazz Award 2015.
Track List
01. Square One. 7:42
02. Full Circle. 6:29
03. Eastern Ballad. 6:50
04. Quicksand. 5:11
05. Quicksand - Part 2. 2:16
06. 12. 7:20
07. Crawler. 9:59
08. Light Up The Sky - Prelude. 1:11
09. Light Up The Sky. 6:52
10. Ending Song. 6:21

musicians
Joe Williamson - guitar
Peter Johnstone - piano
David Bowden - bass
Stephen Henderson - drums, percussion


Exact Audio Copy V1.0 beta 3 from 29. August 2011

EAC extraction logfile from 15. November 2016, 21:47

Square One / In Motion

Used drive : ATAPI iHAS124 E Adapter: 0 ID: 0

Read mode : Secure
Utilize accurate stream : Yes
Defeat audio cache : Yes
Make use of C2 pointers : No

Read offset correction : 6
Overread into Lead-In and Lead-Out : No
Fill up missing offset samples with silence : Yes
Delete leading and trailing silent blocks : No
Null samples used in CRC calculations : Yes
Used interface : Native Win32 interface for Win NT & 2000
Gap handling : Not detected, thus appended to previous track

Used output format : Internal WAV Routines
Sample format : 44.100 Hz; 16 Bit; Stereo


TOC of the extracted CD

Track | Start | Length | Start sector | End sector
––––––––––––––––––––––––––––-
1 | 0:00.00 | 7:42.48 | 0 | 34697
2 | 7:42.48 | 6:29.09 | 34698 | 63881
3 | 14:11.57 | 6:50.59 | 63882 | 94690
4 | 21:02.41 | 5:11.22 | 94691 | 118037
5 | 26:13.63 | 2:16.63 | 118038 | 128300
6 | 28:30.51 | 7:20.07 | 128301 | 161307
7 | 35:50.58 | 9:59.59 | 161308 | 206291
8 | 45:50.42 | 1:11.29 | 206292 | 211645
9 | 47:01.71 | 6:52.58 | 211646 | 242603
10 | 53:54.54 | 6:21.51 | 242604 | 271229


Track 1

Filename C:\_EAC\01. Square One.wav

Peak level 97.7 %
Extraction speed 1.3 X
Track quality 100.0 %
Test CRC FC503D35
Copy CRC FC503D35
Track not present in AccurateRip database
Copy OK

Track 2

Filename C:\_EAC\02. Full Circle.wav

Peak level 97.7 %
Extraction speed 1.4 X
Track quality 99.9 %
Test CRC CE09037D
Copy CRC CE09037D
Track not present in AccurateRip database
Copy OK

Track 3

Filename C:\_EAC\03. Eastern Ballad.wav

Peak level 97.5 %
Extraction speed 1.6 X
Track quality 100.0 %
Test CRC 1C6A8CB8
Copy CRC 1C6A8CB8
Track not present in AccurateRip database
Copy OK

Track 4

Filename C:\_EAC\04. Quicksand.wav

Peak level 97.6 %
Extraction speed 1.7 X
Track quality 100.0 %
Test CRC FD65A933
Copy CRC FD65A933
Track not present in AccurateRip database
Copy OK

Track 5

Filename C:\_EAC\05. Quicksand - Part 2.wav

Peak level 97.6 %
Extraction speed 1.6 X
Track quality 100.0 %
Test CRC 007B7E04
Copy CRC 007B7E04
Track not present in AccurateRip database
Copy OK

Track 6

Filename C:\_EAC\06. 12.wav

Peak level 97.6 %
Extraction speed 2.0 X
Track quality 100.0 %
Test CRC 8AE32F91
Copy CRC 8AE32F91
Track not present in AccurateRip database
Copy OK

Track 7

Filename C:\_EAC\07. Crawler.wav

Peak level 97.5 %
Extraction speed 2.2 X
Track quality 100.0 %
Test CRC 8474897E
Copy CRC 8474897E
Track not present in AccurateRip database
Copy OK

Track 8

Filename C:\_EAC\08. Light Up The Sky - Prelude.wav

Peak level 88.1 %
Extraction speed 1.2 X
Track quality 99.8 %
Test CRC B6418695
Copy CRC B6418695
Track not present in AccurateRip database
Copy OK

Track 9

Filename C:\_EAC\09. Light Up The Sky.wav

Peak level 97.5 %
Extraction speed 2.3 X
Track quality 100.0 %
Test CRC F1CEB46E
Copy CRC F1CEB46E
Track not present in AccurateRip database
Copy OK

Track 10

Filename C:\_EAC\10. Ending Song.wav

Peak level 97.5 %
Extraction speed 2.4 X
Track quality 100.0 %
Test CRC EE1CE38D
Copy CRC EE1CE38D
Track not present in AccurateRip database
Copy OK


None of the tracks are present in the AccurateRip database

No errors occurred

End of status report

==== Log checksum CD966D6845D367B3D2315C74361620F3D4C14AE592017F21D50E335EBBA70CD2 ====


––––––––––––––––––––––––––––––––––––––––
Analyzed: Square One / In Motion
––––––––––––––––––––––––––––––––––––––––

DR Peak RMS Duration Track
––––––––––––––––––––––––––––––––––––––––
DR10 -0.19 dB -13.38 dB 7:43 01-Square One
DR10 -0.20 dB -13.63 dB 6:29 02-Full Circle
DR12 -0.21 dB -16.61 dB 6:51 03-Eastern Ballad
DR10 -0.21 dB -12.29 dB 5:11 04-Quicksand
DR12 -0.21 dB -15.97 dB 2:17 05-Quicksand - Part 2
DR11 -0.21 dB -14.43 dB 7:20 06-12
DR10 -0.22 dB -13.09 dB 10:00 07-Crawler
DR14 -1.10 dB -19.93 dB 1:11 08-Light Up The Sky - Prelude
DR11 -0.21 dB -15.30 dB 6:53 09-Light Up The Sky
DR13 -0.21 dB -17.77 dB 6:22 10-Ending Song
––––––––––––––––––––––––––––––––––––––––

Number of tracks: 10
Official DR value: DR11

Samplerate: 44100 Hz
Channels: 2
Bits per sample: 16
Bitrate: 612 kbps
Codec: FLAC
================================================================================

Square One - In Motion (2016) {SQ1}
Square One - In Motion (2016) {SQ1}
Square One - In Motion (2016) {SQ1}


Thanks to the original ripper