Subcategories

Status Quo - If You Can't Stand The Heat & 1+9+8+2 (1978/82) [2 in 1, Vertigo 848 090-2] Re-up

Posted By: v3122
Status Quo -  If You Can't Stand The Heat & 1+9+8+2 (1978/82) [2 in 1, Vertigo 848 090-2] Re-up

Status Quo - If You Can't Stand The Heat & 1+9+8+2 (1978/82) [2 in 1, Vertigo 848 090-2]
Rock | EAC Rip | Flac (Image) + Cue + Log | MP3 CBR 320Kbps | 21 Tracks
Scans | Vertigo | 848 090-2 | ~601 + 211 Mb

Status Quo -  If You Can't Stand The Heat & 1+9+8+2 (1978/82) [2 in 1, Vertigo 848 090-2] Re-up

Status Quo is one of Britain's longest-lived bands, staying together for over 30 years. During much of that time, the band was only successful in the UK, where they racked up a string of Top Ten singles that ran into the '90s. In America, the group was ignored after they abandoned psychedelia for heavy boogie rock in the early '70s. Before that, the Quo managed to reach number 12 in the US with the psychedelic classic "Pictures of Matchstick Men" (a Top Ten hit in the UK). Following that single, the band suffered a lean period for the next few years, before deciding to refashion themselves as a hard-rock boogie band in 1970 with their Ma Kelly's Greasy Spoon album. Over the next 25 years, the Quo have basically recycled the same simple boogie on each successive album and single, yet their popularity has never waned in Britain. If anything, their very predictability has ensured the group a large following.

The origins of Status Quo lie in a London-based beat group called the Spectres. Francis Rossi (vocals, guitar) and Alan Lancaster (bass) were the core members of the Spectres from their inception; within a few years, the band had addied drummer John Coughlan and organist Roy Lynes. The Spectres released three unsuccessful singles before changing their style to psychedelia and adopting the name Traffic Jam and releasing the unsuccessful single, "Almost But Not Quite There." After it flopped, the group added Rick Harrison (guitar, vocals), formerly of the cabaret band, the Highlights. When Harrison joined the band in August 1967, the group again changed their name, this time to Status Quo.

At first, Status Quo backed British solo artists, including Tommy Quickly, while working on their own material. "Pictures of Matchstick Men," the group's debut single, was released toward the end of the year and quickly shot to number seven on the UK charts; within a few months, it was a number 12 in the US as well. The immediate follow-up single, "Black Veils of Melancholy," was a flop, but "Ice in the Sun," written by former British pop star Marty Wilde, became Status Quo's second Top Ten hit in the fall of 1968. Over in America, the single barely registered, squeaking to number 70; it was the last time the group would ever chart in the US.

For the next year, Status Quo tried to replicate the success of their first two singles with similar psychedelic material, but they had little luck. Finally, they revamped their sound – and jettisoned organist Lynes – in the summer of 1970, debuting their new heavy, bluesy boogie rock with the single "Down the Dustpipe." The single reached number 12, yet the full-fledged hard-rock album Ma Kelly's Greasy Spoon didn't gain much attention. Status Quo began playing concerts regularly across England, slowly building up a strong following in England. Following well-received sets at 1972's Reading and Great Western festivals, the band became a hot property. The group signed with Vertigo Records and their first single for the label, "Paper Plane," cracked the Top Ten in early 1973, while their first album for Vertigo, Piledriver reached number five. Later that year, Hello entered the charts at number one, while its accompanying single "Caroline" reached number five. Also in 1973, keyboardist Andy Bown, formerly of the Herd and Judas Jump, became the band's unofficial keyboardist.

Throughout the '70s, each album Status Quo released went into the Top Five, while their singles – including the number one "Down Down" (1974), "Roll Over Lay Down" (1975), "Rain" (1976), "Wild Side of Life" (1976), and a cover of John Fogerty's "Rockin' All Over the World" (1977) – consistently hit the Top Ten and frequently went gold. Since they were experiencing a great deal of success, they didn't change their sound at all, they just kept churning out the same heavy boogie. America basically ignored Status Quo, yet their eponymous album managed to chart at 148 in 1976. Nevertheless, they were an English phenomenon, and England continued to support them even when pop music was undergoing drastic changes in the late '70s.

Following the release of 1980's Just Supposin', drummer John Coughlan left the band in 1981 to form his own goup, Diesel. Former Original Mirrors drummer Pete Kircher replaced him; his first appearance with the group was 1982's Never to Late. Druing the early '80s, tensions escalated between bassist Lancaster and guitarists Rossi and Parfitt, who were the group's main songwriters. Lancaster left the band after performing with them for a final time at Live Aid. He subsequently took Rossi and Parfitt to court to prevent them from using the name "Status Quo." Lancaster lost his battle, and the name became the property of the guitarists.

Once the lawsuit was settled, Rossi and Parfitt assembled a new band, hiring bassist John Edwards, drummer Jeff Rich, and keyboardist Andy Bown, who officially became a member of the group. The new lineup continued Status Quo's remarkable success, as they racked up a number of new Top Ten singles and hit albums, as well as consistently selling out concerts across England and Europe. In 1994, the group had its second number one hit of its career, with the football anthem "Come on You Reds"; the single was recorded with the football champions, Manchester United. By the mid-'90s, Status Quo had scored 50 British hit singles, which was a greater number than any other band in rock & roll's history.

~ Stephen Thomas Erlewine, All Music Guide


Status Quo - If You Can't Stand The Heat & 1+9+8+2 (1978/82):

Status Quo -  If You Can't Stand The Heat & 1+9+8+2 (1978/82) [2 in 1, Vertigo 848 090-2] Re-up

If You Can't Stand The Heat:

01. Again And Again
02. I'm Giving Up My Worryin'
03. Gonna Teach You To Love Me
04. Someone Show Me Home
05. Long Legged Linda
06. Oh! What A Night
07. Accident Prone
08. Stones
09. Let Me Fly
10. Like A Good Girl

1+9+8+2:

11. She Don't Fool Me
12. Young Pretender
13. Get Out And Walk
14. Jealousy
15. I Love Rock And Roll
16. Resurrection
17. Dear John
18. Doesn't Matter
19. I Want The World To Know
20. I Should Have Known
21. Big Man

Exact Audio Copy V0.99 prebeta 5 from 4. May 2009

Отчёт EAC об извлечении, выполненном 13. марта 2010, 21:04

Status Quo / If You Can't Stand The Heat + 1982

Дисковод: HL-DT-STDVDRAM GSA-T20N Adapter: 1 ID: 0

Режим чтения : Достоверность
Использование точного потока : Да
Отключение кэша аудио : Да
Использование указателей C2 : Нет

Коррекция смещения при чтении : 667
Способность читать области Lead-in и Lead-out : Нет
Заполнение пропущенных сэмплов тишиной : Да
Удаление блоков с тишиной в начале и конце : Нет
При вычислениях CRC использовались нулевые сэмплы : Да
Интерфейс : Встроенный Win32-интерфейс для Win NT/2000

Выходной формат : Пользовательский кодировщик
Выбранный битрейт : 768 kBit/s
Качество : Высокий
Добавление ID3-тэга : Нет
Утилита сжатия : C:\Program Files\Exact Audio Copy\FLAC\FLAC.EXE
Дополнительные параметры : -8 -V %s


TOC извлечённого CD

Трек | Старт | Длительность | Начальный сектор | Конечный сектор
––––––––––––––––––––––––––––––––––-
1 | 0:00.33 | 3:39.00 | 33 | 16457
2 | 3:39.33 | 3:03.50 | 16458 | 30232
3 | 6:43.08 | 3:09.37 | 30233 | 44444
4 | 9:52.45 | 3:51.50 | 44445 | 61819
5 | 13:44.20 | 3:29.63 | 61820 | 77557
6 | 17:14.08 | 3:45.37 | 77558 | 94469
7 | 20:59.45 | 5:05.63 | 94470 | 117407
8 | 26:05.33 | 3:57.37 | 117408 | 135219
9 | 30:02.70 | 4:22.13 | 135220 | 154882
10 | 34:25.08 | 3:29.25 | 154883 | 170582
11 | 37:54.33 | 4:33.12 | 170583 | 191069
12 | 42:27.45 | 3:33.25 | 191070 | 207069
13 | 46:00.70 | 3:09.63 | 207070 | 221307
14 | 49:10.58 | 2:55.12 | 221308 | 234444
15 | 52:05.70 | 3:17.13 | 234445 | 249232
16 | 55:23.08 | 3:54.00 | 249233 | 266782
17 | 59:17.08 | 3:14.12 | 266783 | 281344
18 | 62:31.20 | 3:41.25 | 281345 | 297944
19 | 66:12.45 | 3:23.13 | 297945 | 313182
20 | 69:35.58 | 3:31.12 | 313183 | 329019
21 | 73:06.70 | 3:43.63 | 329020 | 345807


Характеристики диапазона извлечения и сообщения об ошибках

Выбранный диапазон

Имя файла D:\uTorrent.compl\Status Quo -Studio Albums 1970-1986\If You Cant't Stand The Heat & 1+9+8+2 (Vertigo 848 090-2\Status Quo - If You Can't Stand The Heat + 1982.wav

Пиковый уровень 100.0 %
Качество диапазона 100.0 %
CRC теста DD471367
CRC копии DD471367
Копирование… OK

Ошибок не произошло


AccurateRip: сводка

Трек 1 точное извлечение (доверие 3) [0B18103D]
Трек 2 точное извлечение (доверие 3) [9A66A2B4]
Трек 3 точное извлечение (доверие 3) [B7EAA746]
Трек 4 точное извлечение (доверие 3) [05A7AC46]
Трек 5 точное извлечение (доверие 3) [9A2B3F9F]
Трек 6 точное извлечение (доверие 3) [1778BF19]
Трек 7 точное извлечение (доверие 3) [AC7F4E49]
Трек 8 точное извлечение (доверие 3) [CA9F7DAA]
Трек 9 точное извлечение (доверие 3) [FE4D9B15]
Трек 10 точное извлечение (доверие 3) [690BEC8C]
Трек 11 точное извлечение (доверие 3) [87DB9333]
Трек 12 точное извлечение (доверие 3) [E06C8348]
Трек 13 точное извлечение (доверие 3) [98DFE903]
Трек 14 точное извлечение (доверие 3) [E592DA0F]
Трек 15 точное извлечение (доверие 3) [D277088B]
Трек 16 точное извлечение (доверие 3) [64727A02]
Трек 17 точное извлечение (доверие 3) [E379BB40]
Трек 18 точное извлечение (доверие 3) [EE814F52]
Трек 19 точное извлечение (доверие 3) [CC75D115]
Трек 20 точное извлечение (доверие 3) [77BC1CE7]
Трек 21 точное извлечение (доверие 3) [E1FE05FD]

Все треки извлечены точно

Конец отчёта

AUDIOCHECKER v2.0 beta (build 457) - by Dester - opdester@freemail.hu
~~~~~~~~~~~~~~~~~~~~~~~~~~~~~~~~~~
-=== DO NOT EDIT THIS FILE! ===-

Path: …\If You Cant't Stand The Heat & 1+9+8+2 (Vertigo 848 090-2)

01 -=- Status Quo - If You Can't Stand The Heat + 1982.flac -=- CDDA (100%)

134654852

[Verification date: 09.09.2010 12:21:28]
[Disc ID: 003a9941-0383777a-41120215]
Pregap length 00:00:33.
Track [ CRC ] Status
01 [0b18103d] (03/03) Accurately ripped as in pressing(s) #1
02 [9a66a2b4] (03/03) Accurately ripped as in pressing(s) #1
03 [b7eaa746] (03/03) Accurately ripped as in pressing(s) #1
04 [05a7ac46] (03/03) Accurately ripped as in pressing(s) #1
05 [9a2b3f9f] (03/03) Accurately ripped as in pressing(s) #1
06 [1778bf19] (03/03) Accurately ripped as in pressing(s) #1
07 [ac7f4e49] (03/03) Accurately ripped as in pressing(s) #1
08 [ca9f7daa] (03/03) Accurately ripped as in pressing(s) #1
09 [fe4d9b15] (03/03) Accurately ripped as in pressing(s) #1
10 [690bec8c] (03/03) Accurately ripped as in pressing(s) #1
11 [87db9333] (03/03) Accurately ripped as in pressing(s) #1
12 [e06c8348] (03/03) Accurately ripped as in pressing(s) #1
13 [98dfe903] (03/03) Accurately ripped as in pressing(s) #1
14 [e592da0f] (03/03) Accurately ripped as in pressing(s) #1
15 [d277088b] (03/03) Accurately ripped as in pressing(s) #1
16 [64727a02] (03/03) Accurately ripped as in pressing(s) #1
17 [e379bb40] (03/03) Accurately ripped as in pressing(s) #1
18 [ee814f52] (03/03) Accurately ripped as in pressing(s) #1
19 [cc75d115] (03/03) Accurately ripped as in pressing(s) #1
20 [77bc1ce7] (03/03) Accurately ripped as in pressing(s) #1
21 [e1fe05fd] (03/03) Accurately ripped as in pressing(s) #1

Track [ CRC32 ] [W/O NULL] [ LOG ]
– [DD471367] [5315AE42] CRC32
01 [C6B0E1F4] [FDAEB37A]
02 [E23A4ED6] [479D6FE8]
03 [33610C0C] [4A6D9D9F]
04 [B6087B16] [1F47F994]
05 [3F8D3261] [263947B7]
06 [F1F76B9D] [69BA9326]
07 [5C5479F3] [5E97117B]
08 [2388AD84] [47D97432]
09 [13D564CA] [18E8164C]
10 [695AE875] [D8961EC6]
11 [DF83CCCF] [4F549FCD]
12 [C0FF3CA1] [0C6BE692]
13 [B42F182B] [9AD2ABF3]
14 [C42754FF] [C237736A]
15 [1EE7ADC7] [8BC2553A]
16 [B56564FC] [23E9CA6A]
17 [121BB441] [C55E7522]
18 [F5D5FBE7] [CADB06D8]
19 [D59C2A78] [472A7C8E]
20 [95712F17] [D9D4CDA5]
21 [EC42C627] [F587FA4F]

Status Quo -  If You Can't Stand The Heat & 1+9+8+2 (1978/82) [2 in 1, Vertigo 848 090-2] Re-up

All thanks go to the original releaser …

Download Status Quo - If You Can't Stand The Heat & 1+9+8+2 (1978/82):