Tags
Language
Tags

Stefan Parkman, Drottningholms Barockensemble - Joseph Martin Kraus: Funeral Music for Gustav III (1988)

Posted By: ArlegZ
Stefan Parkman, Drottningholms Barockensemble - Joseph Martin Kraus: Funeral Music for Gustav III  (1988)

Stefan Parkman, Drottningholms Barockensemble - Joseph Martin Kraus: Funeral Music for Gustav III (1988)
EAC | FLAC | Image (Cue & Log) ~ 256 Mb | Total time: 64:49 | Scans included
Classical | Musica Sveciae | # MSCD 416 | Recorded: 1987

Kraus' last and greatest works, the Symphonie funebre and Funeral Cantata for Gustav III, are fully able to stand with the best works in the forms of the period, as great as the late symphonies of Haydn and Mozart and, yes, even as great as the Requiem of Mozart. Written under the overwhelming personal and national tragedy of the assassination of the King of Sweden then at the peak of its cultural and national greatness, Kraus' funeral music is numb with shock and wild with grief, but always completely controlled, masterfully balanced, and profoundly moving. If there are only two works you ever listen to by Kraus, let them be these two works.
And if you ever listen to one recording of the works, let it be this 1987 recording by Stefan Parkman directing the Drottningholm Baroque Ensemble on Musica Sveciae. The performances are all superbly polished, deeply dedicated, and wholly compelling. The sound is lucid and compassionate. The accompanying booklet has 23 pages of text and seven pages of musical examples. The whole package is a virtually perfect embodiment of the highest ideals of recorded music and should be heard by anyone who loves great music.
–James Leonard

Performer:
Christina Högman, soprano
Hillevi Martinpelto, soprano
Claes-Håkan Ahnsjö, tenor
Thomas Lander, baritone
Uppsala Akademiska Kammarkör
Drottningholms Barockensemble
Stefan Parkman, conductor

Track List:
Joseph Martin Kraus (1756–1792)
Mortuary Music
01. I. Andante mesto
02. II. Larghetto
03. III. Choral
04. IV. Adagio
Funeral Cantata
05. I. Introduzzione
06. II. Coro
07. III. Recitativo, Aria con Coro
08. IV. Aria
09. V. Duo
10. VI. Recitativo, Aria con Coro
11. VII. Aria
12. VIII. Coro
13. IX. Introduzzione
14. X. Quartetto con Coro
15. XI. Aria
16. XII. Coro


Exact Audio Copy V1.3 from 2. September 2016

EAC extraction logfile from 25. July 2018, 0:05

Drottningholms Barockensemble Stefan Parkman dir., H Martinpelto, C Högman, C-H Ahnsjö, Th Lander, Uppsala akademiska kammarkör / Sorgemusik över Gustav III

Used drive : HL-DT-STDVDRAM GSA-4081B Adapter: 1 ID: 1

Read mode : Secure
Utilize accurate stream : Yes
Defeat audio cache : Yes
Make use of C2 pointers : No

Read offset correction : 667
Overread into Lead-In and Lead-Out : No
Fill up missing offset samples with silence : Yes
Delete leading and trailing silent blocks : No
Null samples used in CRC calculations : Yes
Used interface : Native Win32 interface for Win NT & 2000

Used output format : User Defined Encoder
Selected bitrate : 1024 kBit/s
Quality : High
Add ID3 tag : No
Command line compressor : C:\Program Files\Exact Audio Copy\FLAC\FLAC.EXE
Additional command line options : -6 -V -T "ARTIST=%artist%" -T "TITLE=%title%" -T "ALBUM=%albumtitle%" -T "DATE=%year%" -T "TRACKNUMBER=%tracknr%" -T "GENRE=%genre%" -T "COMMENT=%comment%" -T "BAND=%albuminterpret%" -T "ALBUMARTIST=%albuminterpret%" -T "COMPOSER=%composer%" %haslyrics%–tag-from-file=LYRICS="%lyricsfile%"%haslyrics% -T "DISCNUMBER=%cdnumber%" -T "TOTALDISCS=%totalcds%" -T "TOTALTRACKS=%numtracks%" %hascover%–picture="%coverfile%"%hascover% %source% -o %dest%


TOC of the extracted CD

Track | Start | Length | Start sector | End sector
––––––––––––––––––––––––––––-
1 | 0:00.00 | 8:52.35 | 0 | 39934
2 | 8:52.35 | 2:22.25 | 39935 | 50609
3 | 11:14.60 | 1:00.37 | 50610 | 55146
4 | 12:15.22 | 6:48.38 | 55147 | 85784
5 | 19:03.60 | 5:59.37 | 85785 | 112746
6 | 25:03.22 | 1:30.38 | 112747 | 119534
7 | 26:33.60 | 3:50.00 | 119535 | 136784
8 | 30:23.60 | 3:24.00 | 136785 | 152084
9 | 33:47.60 | 3:57.37 | 152085 | 169896
10 | 37:45.22 | 4:13.25 | 169897 | 188896
11 | 41:58.47 | 1:54.68 | 188897 | 197514
12 | 43:53.40 | 3:08.70 | 197515 | 211684
13 | 47:02.35 | 5:42.12 | 211685 | 237346
14 | 52:44.47 | 5:55.13 | 237347 | 263984
15 | 58:39.60 | 3:24.50 | 263985 | 279334
16 | 62:04.35 | 2:44.15 | 279335 | 291649


Range status and errors

Selected range

Filename C:\Users\Miguel Angel\Documents\kraus funeral\Drottningholms Barockensemble Stefan Parkman dir., H Martinpelto, C Högman, C-H Ahnsjö, Th Lander, Uppsala akademiska kammarkör - Sorgemusik över Gustav III.wav

Peak level 91.4 %
Extraction speed 4.6 X
Range quality 100.0 %
Test CRC 3AFEC67B
Copy CRC 3AFEC67B
Copy OK

No errors occurred


AccurateRip summary

Track 1 accurately ripped (confidence 5) [097734ED] (AR v2)
Track 2 accurately ripped (confidence 6) [AD18FA5C] (AR v2)
Track 3 accurately ripped (confidence 6) [B475BED5] (AR v2)
Track 4 accurately ripped (confidence 5) [8205FCDA] (AR v2)
Track 5 accurately ripped (confidence 6) [5712B9F7] (AR v2)
Track 6 accurately ripped (confidence 6) [5CF468C1] (AR v2)
Track 7 accurately ripped (confidence 5) [D30B1DE9] (AR v2)
Track 8 accurately ripped (confidence 5) [6A4D2C69] (AR v2)
Track 9 accurately ripped (confidence 6) [04080C0A] (AR v2)
Track 10 accurately ripped (confidence 6) [215A58C0] (AR v2)
Track 11 accurately ripped (confidence 6) [60C95A5D] (AR v2)
Track 12 accurately ripped (confidence 6) [7CB45AC9] (AR v2)
Track 13 accurately ripped (confidence 6) [9D98814E] (AR v2)
Track 14 accurately ripped (confidence 6) [D53F690E] (AR v2)
Track 15 accurately ripped (confidence 6) [2DCD582C] (AR v2)
Track 16 accurately ripped (confidence 6) [35224220] (AR v2)

All tracks accurately ripped

End of status report

–– CUETools DB Plugin V2.1.6

[CTDB TOCID: T9DuECcbyBD39sd6sqlBxGYmoRY-] found
Submit result: T9DuECcbyBD39sd6sqlBxGYmoRY- has been confirmed
Track | CTDB Status
1 | (15/15) Accurately ripped
2 | (15/15) Accurately ripped
3 | (15/15) Accurately ripped
4 | (15/15) Accurately ripped
5 | (15/15) Accurately ripped
6 | (15/15) Accurately ripped
7 | (15/15) Accurately ripped
8 | (14/15) Accurately ripped
9 | (14/15) Accurately ripped
10 | (13/15) Accurately ripped
11 | (14/15) Accurately ripped
12 | (14/15) Accurately ripped
13 | (14/15) Accurately ripped
14 | (14/15) Accurately ripped
15 | (14/15) Accurately ripped
16 | (14/15) Accurately ripped


==== Log checksum 50D66C4994D78032C2308A4B3EAAB7B1EC6449A95553A241A934451239629487 ====

Stefan Parkman, Drottningholms Barockensemble - Joseph Martin Kraus: Funeral Music for Gustav III  (1988)

Thanks to the original releaser