Tags
Language
Tags

Stefano Battaglia, Michele Rabbia - Stravagario (2002) {Via Veneto Jazz}

Posted By: tiburon
Stefano Battaglia, Michele Rabbia - Stravagario (2002) {Via Veneto Jazz}

Stefano Battaglia, Michele Rabbia - Stravagario (2002) {Via Veneto Jazz}
EAC 1.0b1 | FLAC tracks level 8 | Cue+Log+M3U | Full Scans 300dpi | 347MB + 5% Recovery
MP3 CBR 320 Kbps | 165MB + 5% Recovery
Genre: Jazz, Avant-Garde Jazz

The research by Stefano Battaglia and that of Michele Rabbia share training ( classical for both) , the sensual attraction for jazz , a love of classical music of the ' 900 , which extend in particular to two of the big issues which moves the musical evolution : I'm referring to the world of sound , the quest for its expansion and the theme of improvisation.
Track List
01. Millenaria 4:13
02. Fluxus 7:13
03. Quem Te Alumia Me Da' Luz 5:30
04. Body Music 4:25
05. Elogio Dell'Assenza 2:25
06. Altalena 8:22
07. Invocazione 3:10
08. Cantus Firmus 2:59
09. Oltre Frontiera 3:15
10. Passaggi Improvvisi, Improvvisi Paesaggi 3:05
11. Giada E Alabastro 1:42
12. Baco De Seta 4:23
13. La Boite De Jeux 1:24
14. Vano Preamblo 2:20
15. Exilio 3:43
16. Di Un'Ombra 4:46
17. Afghana 4:23
18. Madre Delle Stelle 2:38

All compositions by M. Rabbia and Stefano Battaglia

musicians
Stefano Battaglia - piano
Michele Rabbia - percussion


Exact Audio Copy V1.0 beta 1 from 15. November 2010

EAC extraction logfile from 12. March 2011, 16:19

Stefano Battaglia, Michele Rabbia / Stravagario

Used drive : HL-DT-STDVD-RAM GH22NS30 Adapter: 1 ID: 1

Read mode : Secure
Utilize accurate stream : Yes
Defeat audio cache : Yes
Make use of C2 pointers : No

Read offset correction : 102
Overread into Lead-In and Lead-Out : No
Fill up missing offset samples with silence : Yes
Delete leading and trailing silent blocks : No
Null samples used in CRC calculations : Yes
Used interface : Native Win32 interface for Win NT & 2000
Gap handling : Appended to previous track

Used output format : User Defined Encoder
Selected bitrate : 768 kBit/s
Quality : High
Add ID3 tag : No
Command line compressor : C:\Programmi\Exact Audio Copy\Flac\flac.exe
Additional command line options : -8 -V -T "ARTIST=%a" -T "TITLE=%t" -T "ALBUM=%g" -T "DATE=%y" -T "TRACKNUMBER=%n" -T "TOTALTRACKS=%x" -T "GENRE=%m" -T "ALBUMARTIST=%v" -T "ALBUM ARTIST=%v" -T "COMMENT=EAC Secure Mode, Test & Copy, AccurateRip, FLAC -8" %s


TOC of the extracted CD

Track | Start | Length | Start sector | End sector
––––––––––––––––––––––––––––-
1 | 0:00.00 | 4:18.08 | 0 | 19357
2 | 4:18.08 | 7:16.03 | 19358 | 52060
3 | 11:34.11 | 5:33.00 | 52061 | 77035
4 | 17:07.11 | 4:27.11 | 77036 | 97071
5 | 21:34.22 | 2:27.63 | 97072 | 108159
6 | 24:02.10 | 8:26.35 | 108160 | 146144
7 | 32:28.45 | 3:04.40 | 146145 | 159984
8 | 35:33.10 | 3:07.24 | 159985 | 174033
9 | 38:40.34 | 3:45.37 | 174034 | 190945
10 | 42:25.71 | 3:02.34 | 190946 | 204629
11 | 45:28.30 | 1:44.61 | 204630 | 212490
12 | 47:13.16 | 4:25.47 | 212491 | 232412
13 | 51:38.63 | 1:26.68 | 232413 | 238930
14 | 53:05.56 | 2:24.64 | 238931 | 249794
15 | 55:30.45 | 3:46.40 | 249795 | 266784
16 | 59:17.10 | 4:53.24 | 266785 | 288783
17 | 64:10.34 | 4:24.17 | 288784 | 308600
18 | 68:34.51 | 2:44.22 | 308601 | 320922


Track 1

Filename C:\Documents and Settings\user\Desktop\Stefano Battaglia, Michele Rabbia - Stravagario (2002) [FLAC] {VVJ}\01 - Millenaria.wav

Pre-gap length 0:00:02.00

Peak level 98.8 %
Extraction speed 1.7 X
Track quality 100.0 %
Test CRC 9B213A19
Copy CRC 9B213A19
Track not present in AccurateRip database
Copy OK

Track 2

Filename C:\Documents and Settings\user\Desktop\Stefano Battaglia, Michele Rabbia - Stravagario (2002) [FLAC] {VVJ}\02 - Fluxus.wav

Pre-gap length 0:00:01.05

Peak level 98.8 %
Extraction speed 2.0 X
Track quality 100.0 %
Test CRC 6F6B127D
Copy CRC 6F6B127D
Track not present in AccurateRip database
Copy OK

Track 3

Filename C:\Documents and Settings\user\Desktop\Stefano Battaglia, Michele Rabbia - Stravagario (2002) [FLAC] {VVJ}\03 - Quem te alumia me da' luz.wav

Pre-gap length 0:00:01.46

Peak level 100.0 %
Extraction speed 2.2 X
Track quality 100.0 %
Test CRC 145D27F9
Copy CRC 145D27F9
Track not present in AccurateRip database
Copy OK

Track 4

Filename C:\Documents and Settings\user\Desktop\Stefano Battaglia, Michele Rabbia - Stravagario (2002) [FLAC] {VVJ}\04 - Body music.wav

Pre-gap length 0:00:04.11

Peak level 100.0 %
Extraction speed 2.3 X
Track quality 100.0 %
Test CRC 9269F544
Copy CRC 9269F544
Track not present in AccurateRip database
Copy OK

Track 5

Filename C:\Documents and Settings\user\Desktop\Stefano Battaglia, Michele Rabbia - Stravagario (2002) [FLAC] {VVJ}\05 - Elegio dell'assenza.wav

Pre-gap length 0:00:01.24

Peak level 100.0 %
Extraction speed 2.2 X
Track quality 100.0 %
Test CRC F5EB1D3E
Copy CRC F5EB1D3E
Track not present in AccurateRip database
Copy OK

Track 6

Filename C:\Documents and Settings\user\Desktop\Stefano Battaglia, Michele Rabbia - Stravagario (2002) [FLAC] {VVJ}\06 - Altalena.wav

Pre-gap length 0:00:01.44

Peak level 98.8 %
Extraction speed 2.7 X
Track quality 100.0 %
Test CRC 15C1A2D9
Copy CRC 15C1A2D9
Track not present in AccurateRip database
Copy OK

Track 7

Filename C:\Documents and Settings\user\Desktop\Stefano Battaglia, Michele Rabbia - Stravagario (2002) [FLAC] {VVJ}\07 - Invocazione.wav

Pre-gap length 0:00:04.41

Peak level 98.8 %
Extraction speed 2.5 X
Track quality 100.0 %
Test CRC 3C6C4305
Copy CRC 3C6C4305
Track not present in AccurateRip database
Copy OK

Track 8

Filename C:\Documents and Settings\user\Desktop\Stefano Battaglia, Michele Rabbia - Stravagario (2002) [FLAC] {VVJ}\08 - Cantus firmus.wav

Pre-gap length 0:00:02.34

Peak level 98.8 %
Extraction speed 2.6 X
Track quality 100.0 %
Test CRC 20887C56
Copy CRC 20887C56
Track not present in AccurateRip database
Copy OK

Track 9

Filename C:\Documents and Settings\user\Desktop\Stefano Battaglia, Michele Rabbia - Stravagario (2002) [FLAC] {VVJ}\09 - Oltre frontiera.wav

Pre-gap length 0:00:02.11

Peak level 100.0 %
Extraction speed 2.7 X
Track quality 100.0 %
Test CRC BC0B8672
Copy CRC BC0B8672
Track not present in AccurateRip database
Copy OK

Track 10

Filename C:\Documents and Settings\user\Desktop\Stefano Battaglia, Michele Rabbia - Stravagario (2002) [FLAC] {VVJ}\10 - Passaggi improvvisi, improvvisi paesaggi.wav

Pre-gap length 0:00:03.00

Peak level 98.8 %
Extraction speed 2.8 X
Track quality 100.0 %
Test CRC 5986F58E
Copy CRC 5986F58E
Track not present in AccurateRip database
Copy OK

Track 11

Filename C:\Documents and Settings\user\Desktop\Stefano Battaglia, Michele Rabbia - Stravagario (2002) [FLAC] {VVJ}\11 - Giada e alabastro.wav

Pre-gap length 0:00:01.52

Peak level 98.8 %
Extraction speed 2.5 X
Track quality 100.0 %
Test CRC EB8AF17A
Copy CRC EB8AF17A
Track not present in AccurateRip database
Copy OK

Track 12

Filename C:\Documents and Settings\user\Desktop\Stefano Battaglia, Michele Rabbia - Stravagario (2002) [FLAC] {VVJ}\12 - Baco de seta.wav

Pre-gap length 0:00:02.54

Peak level 98.8 %
Extraction speed 2.7 X
Track quality 99.9 %
Test CRC 4C2EA52A
Copy CRC 4C2EA52A
Track not present in AccurateRip database
Copy OK

Track 13

Filename C:\Documents and Settings\user\Desktop\Stefano Battaglia, Michele Rabbia - Stravagario (2002) [FLAC] {VVJ}\13 - La boite de jeux.wav

Pre-gap length 0:00:02.24

Peak level 98.8 %
Extraction speed 2.5 X
Track quality 100.0 %
Test CRC 707FDB3E
Copy CRC 707FDB3E
Track not present in AccurateRip database
Copy OK

Track 14

Filename C:\Documents and Settings\user\Desktop\Stefano Battaglia, Michele Rabbia - Stravagario (2002) [FLAC] {VVJ}\14 - Vano preambolo.wav

Pre-gap length 0:00:02.26

Peak level 98.8 %
Extraction speed 2.9 X
Track quality 100.0 %
Test CRC 41E1C0E8
Copy CRC 41E1C0E8
Track not present in AccurateRip database
Copy OK

Track 15

Filename C:\Documents and Settings\user\Desktop\Stefano Battaglia, Michele Rabbia - Stravagario (2002) [FLAC] {VVJ}\15 - Exilio.wav

Pre-gap length 0:00:02.19

Peak level 100.0 %
Extraction speed 3.2 X
Track quality 100.0 %
Test CRC 26CDFCCB
Copy CRC 26CDFCCB
Track not present in AccurateRip database
Copy OK

Track 16

Filename C:\Documents and Settings\user\Desktop\Stefano Battaglia, Michele Rabbia - Stravagario (2002) [FLAC] {VVJ}\16 - Di un'ombra.wav

Pre-gap length 0:00:03.32

Peak level 98.8 %
Extraction speed 3.4 X
Track quality 100.0 %
Test CRC BA33C625
Copy CRC BA33C625
Track not present in AccurateRip database
Copy OK

Track 17

Filename C:\Documents and Settings\user\Desktop\Stefano Battaglia, Michele Rabbia - Stravagario (2002) [FLAC] {VVJ}\17 - Afghana.wav

Pre-gap length 0:00:02.52

Peak level 97.4 %
Extraction speed 3.4 X
Track quality 100.0 %
Test CRC 14E1A874
Copy CRC 14E1A874
Track not present in AccurateRip database
Copy OK

Track 18

Filename C:\Documents and Settings\user\Desktop\Stefano Battaglia, Michele Rabbia - Stravagario (2002) [FLAC] {VVJ}\18 - Madre delle stelle.wav

Pre-gap length 0:00:01.05

Peak level 98.8 %
Extraction speed 3.3 X
Track quality 100.0 %
Test CRC 8820FBAD
Copy CRC 8820FBAD
Track not present in AccurateRip database
Copy OK


None of the tracks are present in the AccurateRip database

No errors occurred

End of status report

==== Log checksum F8F6859A9809D17E1BB4D1FEE13523058D55750157D9FDBFE2FB744987FD216E ====


––––––––––––––––––––––––––––––––––––––––
Analyzed: Stefano Battaglia, Michele Rabbia / Stravagario
––––––––––––––––––––––––––––––––––––––––

DR Peak RMS Duration Track
––––––––––––––––––––––––––––––––––––––––
DR13 -0.10 dB -17.00 dB 4:18 01-Millenaria
DR10 -0.10 dB -13.02 dB 7:16 02-Fluxus
DR14 0.00 dB -17.09 dB 5:33 03-Quem te alumia me da' luz
DR12 0.00 dB -15.16 dB 4:27 04-Body music
DR17 0.00 dB -21.69 dB 2:28 05-Elegio dell'assenza
DR12 -0.10 dB -15.72 dB 8:26 06-Altalena
DR13 -0.10 dB -15.78 dB 3:05 07-Invocazione
DR14 -0.10 dB -19.67 dB 3:07 08-Cantus firmus
DR12 0.00 dB -15.65 dB 3:45 09-Oltre frontiera
DR14 -0.10 dB -17.49 dB 3:02 10-Passaggi improvvisi, improvvisi paesaggi
DR13 -0.10 dB -18.09 dB 1:45 11-Giada e alabastro
DR14 -0.10 dB -19.94 dB 4:26 12-Baco de seta
DR19 -0.10 dB -23.22 dB 1:27 13-La boite de jeux
DR14 -0.10 dB -18.30 dB 2:25 14-Vano preambolo
DR14 0.00 dB -16.84 dB 3:47 15-Exilio
DR13 -0.10 dB -17.63 dB 4:53 16-Di un'ombra
DR13 -0.22 dB -17.30 dB 4:24 17-Afghana
DR12 -0.10 dB -16.97 dB 2:44 18-Madre delle stelle
––––––––––––––––––––––––––––––––––––––––

Number of tracks: 18
Official DR value: DR14

Samplerate: 44100 Hz
Channels: 2
Bits per sample: 16
Bitrate: 664 kbps
Codec: FLAC
================================================================================

Stefano Battaglia, Michele Rabbia - Stravagario (2002) {Via Veneto Jazz}
Stefano Battaglia, Michele Rabbia - Stravagario (2002) {Via Veneto Jazz}
Stefano Battaglia, Michele Rabbia - Stravagario (2002) {Via Veneto Jazz}


Thanks to the original ripper