Subcategories

Stephane Grappelli - Stephane Grappelli in Tokyo (1991)

Posted By: gribovar
Stephane Grappelli - Stephane Grappelli in Tokyo (1991)

Stephane Grappelli - Stephane Grappelli in Tokyo (1991)
EAC Rip | FLAC (image+.cue+log) - 272 MB | MP3 CBR 320 kbps (LAME 3.93) - 160 MB | Covers (8 MB) included
Genre: Jazz, Swing | RAR 3% Rec. | Label: Denon (81757 9130 2)

Stephane Grappelli may have given up standing during concerts late in life as a concession to his health, but at the age of 82, he still swung like mad with the best of them, as heard in this 1990 concert recorded in Tokyo. Accompanied by guitarist Marc Fosset and bassist Jean-Philippe Viret, with the addition of accordion player Marcel Azzola on a few selections, the violinist devotes a good part of his show to the expected standards from the 1930s and 1940s. Highlights include a swinging "Just One of Those Things," a delightful "Honeysuckle Rose" and a loping "Ol' Man River," the latter which adds ripples supplied by Azzola's accordion, until the dam breaks and the second half of the song comes on like a spring flood. The inevitable tribute to his late partner Django Reinhardt comes in the form of a cooking medley of the guitarist's "Nuages" and "Daphne." But Grappelli was also open to exploring newer works. He treats the audience to a bossa nova flavored take of Stevie Wonder's "You Are the Sunshine of My Life" (opening with a bit of pizzicato violin) and a fleet interpretation of Sonny Rollins' "Pentup House," featuring a great series of trade-offs between the violinist and Azzola. This is easily one of the better Stephane Grappelli CDs from late in his career.
Tracklist:
01. I'm Coming Virginia
02. Honeysuckle Rose
03. Do You Know What it is to Miss New Orleans
04. Just One of Those Things
05. a) Nuages b) Daphne
06. As Time Goes By
07. b) Embraceable You b) Liza
08. Them There Eyes
09. You Are The Sunshine of my Life
10. a) Time After Time
b) Two Sleepy People
c) Satin Doll
11. Double Scotch
12. Pentup House
13. Ol'Man River
14. Sweet Georgia Brown
15. Valse du Passe
16. O, Lady be Good
17. Chicago

Total time: 01:04:37

Exact Audio Copy V0.99 prebeta 5 from 4. May 2009

Отчёт EAC об извлечении, выполненном 29. ноября 2009, 19:39

Stephane Grapelli / Stephane Grapelli in Tokyo

Дисковод: ASUS DRW-0804P Adapter: 0 ID: 1

Режим чтения : Достоверность
Использование точного потока : Да
Отключение кэша аудио : Да
Использование указателей C2 : Нет

Коррекция смещения при чтении : 48
Способность читать области Lead-in и Lead-out : Нет
Заполнение пропущенных сэмплов тишиной : Да
Удаление блоков с тишиной в начале и конце : Нет
При вычислениях CRC использовались нулевые сэмплы : Да
Интерфейс : Встроенный Win32-интерфейс для Win NT/2000

Выходной формат : Пользовательский кодировщик
Выбранный битрейт : 1024 kBit/s
Качество : Высокий
Добавление ID3-тэга : Нет
Утилита сжатия : C:\Program Files\Exact Audio Copy\Flac\flac.exe
Дополнительные параметры : -8 -V %s -o %d


TOC извлечённого CD

Трек | Старт | Длительность | Начальный сектор | Конечный сектор
––––––––––––––––––––––––––––––––––-
1 | 0:00.00 | 2:43.23 | 0 | 12247
2 | 2:43.23 | 4:02.50 | 12248 | 30447
3 | 6:45.73 | 3:02.02 | 30448 | 44099
4 | 9:48.00 | 2:28.30 | 44100 | 55229
5 | 12:16.30 | 4:50.25 | 55230 | 77004
6 | 17:06.55 | 3:30.65 | 77005 | 92819
7 | 20:37.45 | 3:28.18 | 92820 | 108437
8 | 24:05.63 | 2:28.22 | 108438 | 119559
9 | 26:34.10 | 6:09.00 | 119560 | 147234
10 | 32:43.10 | 6:43.40 | 147235 | 177499
11 | 39:26.50 | 3:55.00 | 177500 | 195124
12 | 43:21.50 | 2:43.45 | 195125 | 207394
13 | 46:05.20 | 4:24.40 | 207395 | 227234
14 | 50:29.60 | 4:37.53 | 227235 | 248062
15 | 55:07.38 | 2:05.55 | 248063 | 257492
16 | 57:13.18 | 4:00.00 | 257493 | 275492
17 | 61:13.18 | 3:23.32 | 275493 | 290749


Характеристики диапазона извлечения и сообщения об ошибках

Выбранный диапазон

Имя файла E:\Мои Раздачи\Stephane Grappelli\1990 - Stephane Grapelli in Tokyo\Stephane Grapelli - Stephane Grapelli in Tokyo.wav

Пиковый уровень 97.8 %
Качество диапазона 100.0 %
CRC копии 61FCA66C
Копирование… OK

Ошибок не произошло


AccurateRip: сводка

Трек 1 точность не определена (достоверность 2) [00DB84F8], AccurateRip вернул [0766E9F8]
Трек 2 точность не определена (достоверность 2) [9F9DF728], AccurateRip вернул [9BA1D86D]
Трек 3 точность не определена (достоверность 2) [3C39D980], AccurateRip вернул [EF4774FA]
Трек 4 точность не определена (достоверность 2) [C80AFE50], AccurateRip вернул [6F82299B]
Трек 5 точность не определена (достоверность 2) [F1B8445D], AccurateRip вернул [DCDE88CD]
Трек 6 точность не определена (достоверность 2) [D1C2A11F], AccurateRip вернул [752C45F0]
Трек 7 точность не определена (достоверность 2) [25248F37], AccurateRip вернул [8899B326]
Трек 8 точность не определена (достоверность 2) [CFED57CB], AccurateRip вернул [82E8FCDC]
Трек 9 точность не определена (достоверность 2) [13D6A527], AccurateRip вернул [92327DF4]
Трек 10 точность не определена (достоверность 2) [6A6B23E2], AccurateRip вернул [C322A02A]
Трек 11 точность не определена (достоверность 2) [61DF3F42], AccurateRip вернул [760D9966]
Трек 12 точность не определена (достоверность 2) [465FA1AC], AccurateRip вернул [8F67DE04]
Трек 13 точность не определена (достоверность 2) [8F9CC57C], AccurateRip вернул [E16D9210]
Трек 14 точность не определена (достоверность 2) [06BE5AB9], AccurateRip вернул [A1ACDC2A]
Трек 15 точность не определена (достоверность 2) [E771712B], AccurateRip вернул [9E4D4F69]
Трек 16 точность не определена (достоверность 2) [88020612], AccurateRip вернул [3165DB91]
Трек 17 точность не определена (достоверность 2) [89D920FA], AccurateRip вернул [81595C18]

Ни один трек не прошёл проверки на точность
В вашей базе может быть иной вариант штамповки диска

Конец отчёта

[CUETools log; Date: 02.04.2020 22:03:26; Version: 2.1.4]
[CTDB TOCID: 1UX1ENWwEjPv92J.LG16qWm6fMA-] found.
Track | CTDB Status
1 | (33/35) Accurately ripped
2 | (33/35) Accurately ripped
3 | (33/35) Accurately ripped
4 | (33/35) Accurately ripped
5 | (33/35) Accurately ripped
6 | (33/35) Accurately ripped
7 | (32/35) Accurately ripped
8 | (33/35) Accurately ripped
9 | (32/35) Accurately ripped
10 | (33/35) Accurately ripped
11 | (33/35) Accurately ripped
12 | (33/35) Accurately ripped
13 | (32/35) Accurately ripped
14 | (33/35) Accurately ripped
15 | (33/35) Accurately ripped
16 | (33/35) Accurately ripped
17 | (33/35) Accurately ripped
[AccurateRip ID: 002727fa-01f7ecaa-fb0f2411] found.
Track [ CRC | V2 ] Status
01 [00db84f8|a4ef5cc9] (00+00/20) No match
02 [9f9df728|ded6b012] (00+00/19) No match
03 [3c39d980|1a3d5a85] (00+00/19) No match
04 [c80afe50|0f6fed9d] (00+00/20) No match
05 [f1b8445d|b64401fa] (00+00/20) No match
06 [d1c2a11f|5254c808] (00+00/20) No match
07 [25248f37|6d5dab9e] (00+00/20) No match
08 [cfed57cb|1b54b935] (00+00/20) No match
09 [13d6a527|7ef6c323] (00+00/19) No match
10 [6a6b23e2|ef9b4e44] (00+00/20) No match
11 [61df3f42|e78b2481] (00+00/19) No match
12 [465fa1ac|4d777816] (00+00/19) No match
13 [8f9cc57c|84652cee] (00+00/19) No match
14 [06be5ab9|88a7c332] (00+00/20) No match
15 [e771712b|942d8216] (00+00/20) No match
16 [88020612|8946ccb4] (00+00/20) No match
17 [89d920fa|a1b534ce] (00+00/20) No match
Offsetted by 178:
01 [0766e9f8] (04/20) Accurately ripped
02 [9ba1d86d] (04/19) Accurately ripped
03 [ef4774fa] (04/19) Accurately ripped
04 [6f82299b] (04/20) Accurately ripped
05 [dcde88cd] (04/20) Accurately ripped
06 [752c45f0] (04/20) Accurately ripped
07 [8899b326] (04/20) Accurately ripped
08 [82e8fcdc] (04/20) Accurately ripped
09 [92327df4] (04/19) Accurately ripped
10 [c322a02a] (04/20) Accurately ripped
11 [760d9966] (04/19) Accurately ripped
12 [8f67de04] (04/19) Accurately ripped
13 [e16d9210] (04/19) Accurately ripped
14 [a1acdc2a] (04/20) Accurately ripped
15 [9e4d4f69] (04/20) Accurately ripped
16 [3165db91] (04/20) Accurately ripped
17 [81595c18] (04/20) Accurately ripped
Offsetted by -90:
01 [a4bd1499] (00/20) No match (V2 was not tested)
02 [2103a8ed] (00/19) No match (V2 was not tested)
03 [a4427e18] (00/19) No match (V2 was not tested)
04 [912999ad] (00/20) No match (V2 was not tested)
05 [3ea4994a] (00/20) No match (V2 was not tested)
06 [d9e8b36d] (00/20) No match (V2 was not tested)
07 [50836b6f] (00/20) No match (V2 was not tested)
08 [effeb7ee] (00/20) No match (V2 was not tested)
09 [fac8b2ff] (00/19) No match (V2 was not tested)
10 [be6b6a47] (00/20) No match (V2 was not tested)
11 [1f2ee4c1] (00/19) No match (V2 was not tested)
12 [b56a860d] (00/19) No match (V2 was not tested)
13 [88c00c18] (00/19) No match (V2 was not tested)
14 [74d846dd] (00/20) No match (V2 was not tested)
15 [088b25b7] (00/20) No match (V2 was not tested)
16 [44aaeff5] (00/20) No match (V2 was not tested)
17 [aa3f78ed] (00/20) No match (V2 was not tested)

Track Peak [ CRC32 ] [W/O NULL] [ LOG ]
– 97,8 [61FCA66C] [E0FCA587] CRC32
01 97,7 [726A6DC5] [55A9638F]
02 73,1 [0F2DD215] [96215036]
03 68,5 [E034AFD7] [A44EB535]
04 78,5 [D9297119] [888448F9]
05 88,7 [CB3CF072] [09BABADC]
06 54,0 [248A6C9A] [039A30FA]
07 86,2 [34510435] [C92EFA47]
08 65,0 [A98F4F0A] [F7EADEE4]
09 57,0 [FE08386B] [585E4C6F]
10 52,4 [BA74A83A] [3B147A82]
11 97,8 [87298274] [74ED7F59]
12 74,3 [15AEDDF5] [45E6933B]
13 96,7 [2361796C] [4D63A093]
14 92,1 [21122872] [14645F31]
15 65,4 [9BBFF5DB] [27FE1D5B]
16 78,2 [D25FC916] [599FD442]
17 72,3 [4489CD88] [6A9CD72E]

Thanks to modest_suetsky

See also: