Steve Hackett & The Underworld Orchestra - Metamorpheus (2005)

Posted By: Andi_Deris
Steve Hackett & The Underworld Orchestra - Metamorpheus (2005)

Steve Hackett & The Underworld Orchestra - Metamorpheus (2005)
EAC Rip | FLAC: Image+Cue+Log | 281 Mb | MP3 CBR 320 kbps | 185 Mb | Scans | Time: 57:03
Genre: Rock, Acoustic, Classical | Label: Camino Records | Cat.: CAMCD35

Metamorpheus is Steve Hackett's classical album. This is the successor to A Midsummer Nights Dream. Metamorpheus is an expression on Orpheus and his passage through the Underworld. The use of the nylon guitar and the Underground Orchestra naturally gives a link between the small and big moments of this album.

Steve Hackett & The Underworld Orchestra - Metamorpheus (2005)




Steve Hackett & The Underworld Orchestra - Metamorpheus (2005)


Track Listing

01. The Pool Of Memory And The Pool Of Forgetfulness (02:14)
02. To Earth Like Rain (01:32)
03. Song To Nature (03:02)
04. One Real Flower (03:11)
05. The Dancing Ground (03:01)
06. That Vast Life (12:26)
07. Eurydice Taken (01:47)
08. Charon's Call (03:14)
09. Cerberus At Peace (02:05)
10. Under The World ~ Orpheus Looks Back (05:15)
11. The Broken Lyre (03:17)
12. Severance (03:04)
13. Elegy (03:17)
14. Return To The Realm Of Eternal Renewal (02:56)
15. Lyra (06:35)

Produced by Steve Hackett

Musicians

• Steve Hackett - guitars
• Christine Townsend - principle violin, viola
• Lucy Wilkins - violin
• Richard Stewart - cello
• Sara Wilson - cello
• Dick Driver - double bass
• John Hackett - flute, piccolo, guitar, orchestral arrangements
• Colin Clague - trumpet
• Richard Kennedy - french horn

Exact Audio Copy V0.99 prebeta 5 from 4. May 2009

Отчёт EAC об извлечении, выполненном 7. мая 2011, 1:01

Steve Hackett / Metamorpheus

Дисковод: PIONEER DVD-RW DVR-115D Adapter: 1 ID: 0

Режим чтения : Достоверность
Использование точного потока : Да
Отключение кэша аудио : Да
Использование указателей C2 : Нет

Коррекция смещения при чтении : 48
Способность читать области Lead-in и Lead-out : Нет
Заполнение пропущенных сэмплов тишиной : Да
Удаление блоков с тишиной в начале и конце : Нет
При вычислениях CRC использовались нулевые сэмплы : Да
Интерфейс : Установленный внешний ASPI-интерфейс

Выходной формат : Внутренние WAV-операции
Формат сэмплов : 44.100 Гц; 16 бит; стерео


TOC извлечённого CD

Трек | Старт | Длительность | Начальный сектор | Конечный сектор
––––––––––––––––––––––––––––––––––-
1 | 0:00.00 | 2:14.62 | 0 | 10111
2 | 2:14.62 | 1:32.13 | 10112 | 17024
3 | 3:47.00 | 3:02.30 | 17025 | 30704
4 | 6:49.30 | 3:11.50 | 30705 | 45079
5 | 10:01.05 | 3:01.69 | 45080 | 58723
6 | 13:02.74 | 12:26.27 | 58724 | 114700
7 | 25:29.26 | 1:47.38 | 114701 | 122763
8 | 27:16.64 | 3:14.40 | 122764 | 137353
9 | 30:31.29 | 2:05.56 | 137354 | 146784
10 | 32:37.10 | 5:15.38 | 146785 | 170447
11 | 37:52.48 | 3:17.08 | 170448 | 185230
12 | 41:09.56 | 3:04.17 | 185231 | 199047
13 | 44:13.73 | 3:17.27 | 199048 | 213849
14 | 47:31.25 | 2:56.12 | 213850 | 227061
15 | 50:27.37 | 6:35.37 | 227062 | 256723


Характеристики диапазона извлечения и сообщения об ошибках

Выбранный диапазон

Имя файла K:\Lossless MUSIC Archive\Art Rock\England\Steve Hackett\16 - Steve Hackett - Metamorpheus - 2005 (Camino Records 2005, CAMCD35)\Steve Hackett - Metamorpheus.wav

Пиковый уровень 94.4 %
Качество диапазона 100.0 %
CRC теста 93EA3F89
CRC копии 93EA3F89
Копирование… OK

Ошибок не произошло


AccurateRip: сводка

Трек 1 точное извлечение (доверие 16) [245385D3]
Трек 2 точное извлечение (доверие 16) [EAB993FD]
Трек 3 точное извлечение (доверие 16) [09CCFDFE]
Трек 4 точное извлечение (доверие 16) [7D54B1CD]
Трек 5 точное извлечение (доверие 16) [DFBF0068]
Трек 6 точное извлечение (доверие 16) [8B40CD8B]
Трек 7 точное извлечение (доверие 16) [DC245D51]
Трек 8 точное извлечение (доверие 16) [08BDEFC7]
Трек 9 точное извлечение (доверие 16) [84343E8C]
Трек 10 точное извлечение (доверие 16) [04932C2A]
Трек 11 точное извлечение (доверие 16) [FD03C847]
Трек 12 точное извлечение (доверие 16) [57505456]
Трек 13 точное извлечение (доверие 16) [6A294AB8]
Трек 14 точное извлечение (доверие 16) [1352A6B4]
Трек 15 точное извлечение (доверие 15) [CC5A3598]

Все треки извлечены точно

Конец отчёта


Many thanks to the original uploader: Swamp Fox


Genesis 1969 From Genesis To Revelation (Japan, 2004)
Genesis 2004 Platinum Collection [3CD-Box]

GTR 1986 GTR

Phil Collins 1985 No Jacket Required [Deluxe Edition, 2016] 2CD
Phil Collins 2002 Testify [Deluxe Edition, 2016] 2CD
Phil Collins 2004 Finally…The First Farewell Tour [2xDVD]

Steve Hackett 1975 Voyage Of The Acolyte [Remastered 2005]
Steve Hackett 1975 Voyage Of The Acolyte [Japan Mini-LP CD 2006]
Steve Hackett 1978 Please Don't Touch! [UK 1st Press, 1989]
Steve Hackett 1978 Please Don't Touch! [Remastered 2005]
Steve Hackett 1978 Please Don't Touch! [Japan Mini-LP CD 2006]
Steve Hackett 1979 Spectral Mornings [UK 1st Press, 1989]
Steve Hackett 1979 Spectral Mornings [Remastered 2005]
Steve Hackett 1979 Spectral Mornings [Japan Mini-LP CD 2006]
Steve Hackett 1980 Defector [UK 1st Press, 1989]
Steve Hackett 1980 Defector [Japan Mini-LP CD 2006]
Steve Hackett 1981 Cured [Remastered 2007]
Steve Hackett 1983 Highly Strung [Reissue 1989]
Steve Hackett 1983 Bay Of Kings [Japanese Ed. 2007]
Steve Hackett 1984 Till We Have Faces
Steve Hackett 1997 A Midsummer Night's Dream
Steve Hackett 1998 The Tokyo Tapes [SH Records, 2000] 2CD
Steve Hackett 1999 Darktown
Steve Hackett 2000 Feedback 86
Steve Hackett 2001 The Tokyo Tapes: Live In Japan [DVD9]
Steve Hackett 2005 Spectral Mornings [DVD5]
Steve Hackett 2006 Wild Orchids
Steve Hackett 2006 Wild Orchids [Special Ed.]
Steve Hackett 2008 Tribute
Steve Hackett 2009 Out Of The Tunnel's Mouth
Steve Hackett 2010 Out Of The Tunnel's Mouth [Special Ed.] 2CD
Steve Hackett 2011 Fire And Ice [DVD9]
Steve Hackett 2013 Genesis Revisited II: Selection
Steve Hackett 2015 Wolflight [Special Ed.]
––––––––––
Nitroflare